自购原抓音乐圈:只有自购、合购、原抓级高解析(hires、sacd、dsd)正版音乐资源分享!【点我打开
极速无线网卡:千兆无线网卡、服务器网卡、USB接口台式机笔记本网卡 千兆网线 厂家批发价格最低!【点我打开
广告

[华语] 原抓:左卡乐队 《The World I Know》2012/WAV整轨/BD

[复制链接]
洛杉矶 发表于 2021-3-18 09:32:41 | 显示全部楼层 |阅读模式 打印 上一主题 下一主题
简介  · · · · · ·
  这张专辑从2011年6月开始制作, 到现在已经一年时间了。 这期间我们在经历在成长, 外面的世界也一直不平静。 在这张专辑里, 我们将听到的不仅仅有对现实的质疑, 也有生活的希望, 更有对生命中美好的呼唤。 这是我们对摇滚和对生活的态度: 带有一份叛逆, 但保留一份理智和温暖。
曲目  · · · · · ·
1. 它们
2. 麦田守望者
3. 上帝爱摇滚
4. 姑娘姑娘
5. 和你去流浪
6. 晴天娃娃
7. 城里的国王
8. 暗透了才能看见星光吗
本帖隐藏的内容
游客,本主题需向作者支付 6金币 才能浏览,金币充值, 免回复、免金币,直接查看内容请开通VIP支付

提取码:xuio
复制这段内容后打开百度网盘手机App,操作更方便哦--来自百度网盘超级会员V7的分享

  • Exact Audio Copy V1.5 from 20. February 2020
  • EAC 抓取日志文件从2. 十二月 2020, 1:35
  • 左卡乐队 / The World I Know
  • 使用驱动器  :PLEXTOR CD-R   PX-W2410A   Adapter: 1  ID: 2
  • 读取模式      : 可靠Secure
  • 使用精确流     : 是
  • 清空音频缓存    : 是
  • 使用 C2 指示器 : 否
  • 读取偏移校正:               : 98
  • 读取 Lead-In 和 Lead-Out : 否
  • 用静音填充抓取中丢失偏移的采样       : 是
  • 去除首尾静音块               : 否
  • 在CRC 计算中使用了空样本       : 是
  • 已用接口                  : Win NT 及 2000 本地 Win32 接口
  • 所用输出模式: : 内部 WAV 函数
  • 样本格式    : 44.100 Hz; 16 Bit; 立体声
  • 已抓取 CD 的 TOC
  •      音轨 |    起始    |    长度    |  起始扇区  |  结束扇区
  •     --------------------------------------------
  •       1 |  0:00.00 |  5:25.63 |      0 |  24437
  •       2 |  5:25.63 |  3:53.12 |  24438 |  41924
  •       3 |  9:19.00 |  3:58.61 |  41925 |  59835
  •       4 | 13:17.61 |  3:12.57 |  59836 |  74292
  •       5 | 16:30.43 |  4:14.10 |  74293 |  93352
  •       6 | 20:44.53 |  3:01.61 |  93353 | 106988
  •       7 | 23:46.39 |  5:54.64 | 106989 | 133602
  •       8 | 29:41.28 |  4:03.08 | 133603 | 151835
  • 范围状态及错误
  • 已选择范围
  •      文件名 I:\EAC\左卡乐队 - 2012《The World I Know》星外星[WAV整轨]\左卡乐队 - The World I Know.wav
  •      峰值电平 100.0 %
  •      抓取速度 3.7 X
  •      范围质量 100.0 %
  •      复制 CRC 1B60A9EF
  •      复制成功
  • 没有错误发生
  • AccurateRip 摘要
  • 音轨  1  在数据库中不存在
  • 音轨  2  在数据库中不存在
  • 音轨  3  在数据库中不存在
  • 音轨  4  在数据库中不存在
  • 音轨  5  在数据库中不存在
  • 音轨  6  在数据库中不存在
  • 音轨  7  在数据库中不存在
  • 音轨  8  在数据库中不存在
  • 没有任何音轨在 AccurateRip 数据库中有记录
  • 状态报告结尾
  • ---- CUETools DB Plugin V2.1.6
  • [CTDB TOCID: B70XQiKWBqWj.2IrPwNP4QWAX_s-] found
  • Submit result: B70XQiKWBqWj.2IrPwNP4QWAX_s- has been confirmed
  • Track | CTDB Status
  •   1   | (1/1) Accurately ripped
  •   2   | (1/1) Accurately ripped
  •   3   | (1/1) Accurately ripped
  •   4   | (1/1) Accurately ripped
  •   5   | (1/1) Accurately ripped
  •   6   | (1/1) Accurately ripped
  •   7   | (1/1) Accurately ripped
  •   8   | (1/1) Accurately ripped
  • ==== 记录校验日志 864C3DFB5791B3FA573E699A3A4205B22318D48C325095FDA8B6D5103B828852 ====

复制代码

温馨提示

记得善用社区搜索功能,那里可能会有你想要的资源;论坛站内搜索

如果你有什么需要的资源可以去资源求档发帖,求助社区的网友,我们会在第一时间给你回复哦;资源求档

对于本社区网盘链接失效密码错误各种报错请在反馈板块反馈报错发帖,您的支持,是我们发展的最大动力;投诉建议

回复

使用道具 举报

精彩评论2

莱恩 发表于 2021-3-28 14:28:13 | 显示全部楼层
下来听听

温馨提示

记得善用社区搜索功能,那里可能会有你想要的资源;论坛站内搜索

如果你有什么需要的资源可以去资源求档发帖,求助社区的网友,我们会在第一时间给你回复哦;资源求档

对于本社区网盘链接失效密码错误各种报错请在反馈板块反馈报错发帖,您的支持,是我们发展的最大动力;投诉建议

回复

使用道具 举报

dddd11202 发表于 2021-3-30 23:02:25 | 显示全部楼层
没什么能描述我现在的心情,感谢感激

温馨提示

记得善用社区搜索功能,那里可能会有你想要的资源;论坛站内搜索

如果你有什么需要的资源可以去资源求档发帖,求助社区的网友,我们会在第一时间给你回复哦;资源求档

对于本社区网盘链接失效密码错误各种报错请在反馈板块反馈报错发帖,您的支持,是我们发展的最大动力;投诉建议

回复 支持 反对

使用道具 举报

您需要登录后才可以回帖 登录 | 立即注册 微信登录

本版积分规则

关注3

粉丝12

帖子7453

发布主题
阅读排行更多+
关闭

站长推荐上一条 /1 下一条

收藏帖子 返回列表 这是一个自定义按钮
音乐分享,音乐下载。
微信公众号
微信号:maomiyinyue
意见反馈:admin@maomicd.com

加入我们的官方QQ群和微信群

Powered by Discuz! X3.4 Archiver|手机版|小黑屋|猫咪音乐网 ( 苏ICP备20015413号 )|( 苏公网安备 32030502000272号) 繁體

JS of wanmeiff.com and vcpic.com Please keep this copyright information, respect of, thank you!JS of wanmeiff.com and vcpic.com Please keep this copyright information, respect of, thank you!

GMT+8, 2021-4-20 08:23