自购原抓音乐圈:只有自购、合购、原抓级高解析(hires、sacd、dsd)正版音乐资源分享!【点我打开
极速无线网卡:千兆无线网卡、服务器网卡、USB接口台式机笔记本网卡 千兆网线 厂家批发价格最低!【点我打开
广告

[欧美] 原抓:KATATONIA《Dead Air》2CD/2020/FLAC/BD

[复制链接]
yyz114 发表于 2020-12-30 14:14:54 | 显示全部楼层 |阅读模式 打印 上一主题 下一主题
Songs
Disc 1 (CD)
1.        Lethean        06:01          Show lyrics
2.        Teargas        03:17          Show lyrics
3.        Serein        04:48          Show lyrics
4.        Deliberation        03:57          Show lyrics
5.        The Winter of Our Passing        03:10          Show lyrics
6.        Ghost of the Sun        04:08          Show lyrics
7.        The Racing Heart        04:26          Show lyrics
8.        Soil's Song        04:08          Show lyrics
9.        Old Heart Falls        04:24          Show lyrics
        38:19         
Disc 2 (CD)
1.        Forsaker        04:10          Show lyrics
2.        Tonight's Music        04:23          Show lyrics
3.        In the White        04:58          Show lyrics
4.        Leaders        04:18          Show lyrics
5.        Lacquer        04:51          Show lyrics
6.        Omerta        03:10          Show lyrics
7.        My Twin        03:39          Show lyrics
8.        Unfurl        04:53          Show lyrics
9.        July        04:49          Show lyrics
10.        Evidence        05:30          Show lyrics
11.        Behind the Blood        05:06          Show lyrics
Exact Audio Copy V1.3 from 2. September 2016

EAC extraction logfile from 23. November 2020, 13:19

KATATONIA / Dead Air - CD1

Used drive  : ASUS    DRW-24D5MT   Adapter: 1  ID: 0

Read mode               : Secure
Utilize accurate stream : Yes
Defeat audio cache      : Yes
Make use of C2 pointers : No

Read offset correction                      : 6
Overread into Lead-In and Lead-Out          : No
Fill up missing offset samples with silence : Yes
Delete leading and trailing silent blocks   : No
Null samples used in CRC calculations       : Yes
Used interface                              : Native Win32 interface for Win NT & 2000

Used output format              : User Defined Encoder
Selected bitrate                : 768 kBit/s
Quality                         : High
Add ID3 tag                     : No
Command line compressor         : C:\Program Files (x86)\Exact Audio Copy\FLAC\FLAC.EXE
Additional command line options : -6 -V -T "ARTIST=%artist%" -T "TITLE=%title%" -T "ALBUM=%albumtitle%" -T "DATE=%year%" -T "TRACKNUMBER=%tracknr%" -T "GENRE=%genre%" -T "COMMENT=%comment%" -T "BAND=%albuminterpret%" -T "ALBUMARTIST=%albuminterpret%" -T "COMPOSER=%composer%" %haslyrics%--tag-from-file=LYRICS="%lyricsfile%"%haslyrics% -T "DISCNUMBER=%cdnumber%" -T "TOTALDISCS=%totalcds%" -T "TOTALTRACKS=%numtracks%" %hascover%--picture="%coverfile%"%hascover% %source% -o %dest%


TOC of the extracted CD

     Track |   Start  |  Length  | Start sector | End sector
    ---------------------------------------------------------
        1  |  0:00.00 |  6:00.42 |         0    |    27041   
        2  |  6:00.42 |  3:17.28 |     27042    |    41844   
        3  |  9:17.70 |  4:47.67 |     41845    |    63436   
        4  | 14:05.62 |  3:57.21 |     63437    |    81232   
        5  | 18:03.08 |  3:09.51 |     81233    |    95458   
        6  | 21:12.59 |  4:07.58 |     95459    |   114041   
        7  | 25:20.42 |  4:26.15 |    114042    |   134006   
        8  | 29:46.57 |  4:07.54 |    134007    |   152585   
        9  | 33:54.36 |  4:23.72 |    152586    |   172382   


Range status and errors

Selected range

     Filename E:\Música\EAC\Katatonia\KATATONIA - Dead Air - CD1.wav

     Peak level 91.2 %
     Extraction speed 1.6 X
     Range quality 99.9 %
     Test CRC 18B51EB2
     Copy CRC 18B51EB2
     Copy OK

No errors occurred


AccurateRip summary

Track  1  not present in database
Track  2  not present in database
Track  3  not present in database
Track  4  not present in database
Track  5  not present in database
Track  6  not present in database
Track  7  not present in database
Track  8  not present in database
Track  9  not present in database

None of the tracks are present in the AccurateRip database

End of status report

---- CUETools DB Plugin V2.1.6

[CTDB TOCID: oL7BreXZo7tkqo8fca2YlIF3FQg-] found
Submit result: oL7BreXZo7tkqo8fca2YlIF3FQg- has been confirmed
Track | CTDB Status
  1   | (12/12) Accurately ripped
  2   | (12/12) Accurately ripped
  3   | (12/12) Accurately ripped
  4   | (12/12) Accurately ripped
  5   | (12/12) Accurately ripped
  6   | (12/12) Accurately ripped
  7   | (12/12) Accurately ripped
  8   | (12/12) Accurately ripped
  9   | (12/12) Accurately ripped


==== Log checksum 79946E986F0F90AA70C3BCA52A0EAF4B23889EDC18E2A107AB184643CA080ECC ====
Exact Audio Copy V1.3 from 2. September 2016

EAC extraction logfile from 24. November 2020, 0:49

KATATONIA / Dead Air - CD2

Used drive  : ASUS    DRW-24D5MT   Adapter: 1  ID: 0

Read mode               : Secure
Utilize accurate stream : Yes
Defeat audio cache      : Yes
Make use of C2 pointers : No

Read offset correction                      : 6
Overread into Lead-In and Lead-Out          : No
Fill up missing offset samples with silence : Yes
Delete leading and trailing silent blocks   : No
Null samples used in CRC calculations       : Yes
Used interface                              : Native Win32 interface for Win NT & 2000

Used output format              : User Defined Encoder
Selected bitrate                : 768 kBit/s
Quality                         : High
Add ID3 tag                     : No
Command line compressor         : C:\Program Files (x86)\Exact Audio Copy\FLAC\FLAC.EXE
Additional command line options : -6 -V -T "ARTIST=%artist%" -T "TITLE=%title%" -T "ALBUM=%albumtitle%" -T "DATE=%year%" -T "TRACKNUMBER=%tracknr%" -T "GENRE=%genre%" -T "COMMENT=%comment%" -T "BAND=%albuminterpret%" -T "ALBUMARTIST=%albuminterpret%" -T "COMPOSER=%composer%" %haslyrics%--tag-from-file=LYRICS="%lyricsfile%"%haslyrics% -T "DISCNUMBER=%cdnumber%" -T "TOTALDISCS=%totalcds%" -T "TOTALTRACKS=%numtracks%" %hascover%--picture="%coverfile%"%hascover% %source% -o %dest%


TOC of the extracted CD

     Track |   Start  |  Length  | Start sector | End sector
    ---------------------------------------------------------
        1  |  0:00.00 |  4:10.22 |         0    |    18771   
        2  |  4:10.22 |  4:22.44 |     18772    |    38465   
        3  |  8:32.66 |  4:57.49 |     38466    |    60789   
        4  | 13:30.40 |  4:17.72 |     60790    |    80136   
        5  | 17:48.37 |  4:51.01 |     80137    |   101962   
        6  | 22:39.38 |  3:09.60 |    101963    |   116197   
        7  | 25:49.23 |  3:38.62 |    116198    |   132609   
        8  | 29:28.10 |  4:52.52 |    132610    |   154561   
        9  | 34:20.62 |  4:48.70 |    154562    |   176231   
       10  | 39:09.57 |  5:29.44 |    176232    |   200950   
       11  | 44:39.26 |  5:06.07 |    200951    |   223907   


Range status and errors

Selected range

     Filename E:\Música\EAC\Katatonia\KATATONIA - Dead Air - CD2.wav

     Peak level 91.2 %
     Extraction speed 1.7 X
     Range quality 100.0 %
     Test CRC 4C068D2F
     Copy CRC 4C068D2F
     Copy OK

No errors occurred


AccurateRip summary

Track  1  not present in database
Track  2  not present in database
Track  3  not present in database
Track  4  not present in database
Track  5  not present in database
Track  6  not present in database
Track  7  not present in database
Track  8  not present in database
Track  9  not present in database
Track 10  not present in database
Track 11  not present in database

None of the tracks are present in the AccurateRip database

End of status report

---- CUETools DB Plugin V2.1.6

[CTDB TOCID: 8mbhdgfuJ18IcXgca8YK48jsKPY-] found
Submit result: 8mbhdgfuJ18IcXgca8YK48jsKPY- has been confirmed
Track | CTDB Status
  1   | (13/13) Accurately ripped
  2   | (13/13) Accurately ripped
  3   | (13/13) Accurately ripped
  4   | (13/13) Accurately ripped
  5   | (13/13) Accurately ripped
  6   | (13/13) Accurately ripped
  7   | (13/13) Accurately ripped
  8   | (13/13) Accurately ripped
  9   | (13/13) Accurately ripped
10   | (13/13) Accurately ripped
11   | (13/13) Accurately ripped


==== Log checksum 6922AF0C34DBCF366A9B28B70FCE889022B912A952649B917998D874E7F47BA3 ====
游客,本主题需向作者支付 12金币 才能浏览,金币充值, 免回复、免金币,直接查看内容请开通VIP支付
       49:47         

温馨提示

记得善用社区搜索功能,那里可能会有你想要的资源;论坛站内搜索

如果你有什么需要的资源可以去资源求档发帖,求助社区的网友,我们会在第一时间给你回复哦;资源求档

对于本社区网盘链接失效密码错误各种报错请在反馈板块反馈报错发帖,您的支持,是我们发展的最大动力;投诉建议

回复

使用道具 举报

您需要登录后才可以回帖 登录 | 立即注册 微信登录

本版积分规则

关注0

粉丝0

帖子314

发布主题
阅读排行更多+
关闭

站长推荐上一条 /1 下一条

收藏帖子 返回列表 这是一个自定义按钮
音乐分享,音乐下载。
微信公众号
微信号:maomiyinyue
意见反馈:admin@maomicd.com

加入我们的官方QQ群和微信群

Powered by Discuz! X3.4 Archiver|手机版|小黑屋|猫咪音乐网 ( 苏ICP备20015413号 )|( 苏公网安备 32030502000272号) 繁體

JS of wanmeiff.com and vcpic.com Please keep this copyright information, respect of, thank you!JS of wanmeiff.com and vcpic.com Please keep this copyright information, respect of, thank you!

GMT+8, 2021-1-23 09:28