自购原抓音乐圈:只有自购、合购、原抓级高解析(hires、sacd、dsd)正版音乐资源分享!【点我打开
极速无线网卡:千兆无线网卡、服务器网卡、USB接口台式机笔记本网卡 千兆网线 厂家批发价格最低!【点我打开
广告

[欧美] 原抓:DOKKEN《The Lost Songs(1978-1981)》2020/FLAC/BD

[复制链接]
yyz114 发表于 2020-12-30 14:12:36 | 显示全部楼层 |阅读模式 打印 上一主题 下一主题
Dokken - The Lost Songs: 1978-1981

Type:Compilation
Release date:August 28th, 2020
Catalog ID:SLM088P01
Label:Silver Lining Music
Format:CD

Songs
1.        Step into the Light        03:43
2.        We're Going Wrong        03:35
3.        Day After Day        05:37
4.        Rainbows        04:46
5.        Felony        02:49
6.        No Answer        03:28
7.        Back in the Streets        03:18
8.        Hit and Run        04:12
9.        Broken Heart        03:16s
10.        Liar        03:50
11.        Prisoner        06:08
        44:42
         
===================================
Exact Audio Copy V1.3 from 2. September 2016

EAC extraction logfile from 19. November 2020, 13:40

Dokken / The Lost Songs: 1978–1981

Used drive  : ASUS    DRW-24D5MT   Adapter: 1  ID: 0

Read mode               : Secure
Utilize accurate stream : Yes
Defeat audio cache      : Yes
Make use of C2 pointers : No

Read offset correction                      : 6
Overread into Lead-In and Lead-Out          : No
Fill up missing offset samples with silence : Yes
Delete leading and trailing silent blocks   : No
Null samples used in CRC calculations       : Yes
Used interface                              : Native Win32 interface for Win NT & 2000

Used output format              : User Defined Encoder
Selected bitrate                : 768 kBit/s
Quality                         : High
Add ID3 tag                     : No
Command line compressor         : C:\Program Files (x86)\Exact Audio Copy\FLAC\FLAC.EXE
Additional command line options : -6 -V -T "ARTIST=%artist%" -T "TITLE=%title%" -T "ALBUM=%albumtitle%" -T "DATE=%year%" -T "TRACKNUMBER=%tracknr%" -T "GENRE=%genre%" -T "COMMENT=%comment%" -T "BAND=%albuminterpret%" -T "ALBUMARTIST=%albuminterpret%" -T "COMPOSER=%composer%" %haslyrics%--tag-from-file=LYRICS="%lyricsfile%"%haslyrics% -T "DISCNUMBER=%cdnumber%" -T "TOTALDISCS=%totalcds%" -T "TOTALTRACKS=%numtracks%" %hascover%--picture="%coverfile%"%hascover% %source% -o %dest%


TOC of the extracted CD

     Track |   Start  |  Length  | Start sector | End sector
    ---------------------------------------------------------
        1  |  0:00.00 |  3:43.17 |         0    |    16741   
        2  |  3:43.17 |  3:35.15 |     16742    |    32881   
        3  |  7:18.32 |  5:36.47 |     32882    |    58128   
        4  | 12:55.04 |  4:45.69 |     58129    |    79572   
        5  | 17:40.73 |  2:49.20 |     79573    |    92267   
        6  | 20:30.18 |  3:27.58 |     92268    |   107850   
        7  | 23:58.01 |  3:17.58 |    107851    |   122683   
        8  | 27:15.59 |  4:12.06 |    122684    |   141589   
        9  | 31:27.65 |  3:16.04 |    141590    |   156293   
       10  | 34:43.69 |  3:50.06 |    156294    |   173549   
       11  | 38:34.00 |  6:07.65 |    173550    |   201139   


Range status and errors

Selected range

     Filename E:\Música\EAC\Dokken\Dokken - The Lost Songs- 1978–1981.wav

     Peak level 98.8 %
     Extraction speed 6.6 X
     Range quality 100.0 %
     Test CRC 24741C66
     Copy CRC 24741C66
     Copy OK

No errors occurred


AccurateRip summary

Track  1  accurately ripped (confidence 6)  [10B23231]  (AR v2)
Track  2  accurately ripped (confidence 6)  [73BCF637]  (AR v2)
Track  3  accurately ripped (confidence 6)  [EBD2CD2E]  (AR v2)
Track  4  accurately ripped (confidence 6)  [2F44097F]  (AR v2)
Track  5  accurately ripped (confidence 6)  [F1CFAF57]  (AR v2)
Track  6  accurately ripped (confidence 6)  [9B10D451]  (AR v2)
Track  7  accurately ripped (confidence 6)  [8966BC4F]  (AR v2)
Track  8  accurately ripped (confidence 6)  [A3D9C0A1]  (AR v2)
Track  9  accurately ripped (confidence 6)  [74875D5E]  (AR v2)
Track 10  accurately ripped (confidence 6)  [2BA0A5C8]  (AR v2)
Track 11  accurately ripped (confidence 6)  [4BBF91FF]  (AR v2)

All tracks accurately ripped

End of status report

---- CUETools DB Plugin V2.1.6

[CTDB TOCID: GvbjCGzHHRep6BZBIkjOyiI12.0-] found
Submit result: already submitted
Track | CTDB Status
  1   | (16/16) Accurately ripped
  2   | (16/16) Accurately ripped
  3   | (16/16) Accurately ripped
  4   | (16/16) Accurately ripped
  5   | (16/16) Accurately ripped
  6   | (16/16) Accurately ripped
  7   | (16/16) Accurately ripped
  8   | (16/16) Accurately ripped
  9   | (16/16) Accurately ripped
10   | (16/16) Accurately ripped
11   | (16/16) Accurately ripped


==== Log checksum A83F49A49C50156212D861D7A201D5F7077CD00689668A223EE9DCD171270C6F ====
游客,本主题需向作者支付 12金币 才能浏览,金币充值, 免回复、免金币,直接查看内容请开通VIP支付

温馨提示

记得善用社区搜索功能,那里可能会有你想要的资源;论坛站内搜索

如果你有什么需要的资源可以去资源求档发帖,求助社区的网友,我们会在第一时间给你回复哦;资源求档

对于本社区网盘链接失效密码错误各种报错请在反馈板块反馈报错发帖,您的支持,是我们发展的最大动力;投诉建议

回复

使用道具 举报

精彩评论1

52mmyy 发表于 2021-1-16 08:27:13 | 显示全部楼层
支持啦,这么好的东西,也就只有你能发现。

温馨提示

记得善用社区搜索功能,那里可能会有你想要的资源;论坛站内搜索

如果你有什么需要的资源可以去资源求档发帖,求助社区的网友,我们会在第一时间给你回复哦;资源求档

对于本社区网盘链接失效密码错误各种报错请在反馈板块反馈报错发帖,您的支持,是我们发展的最大动力;投诉建议

回复 支持 反对

使用道具 举报

您需要登录后才可以回帖 登录 | 立即注册 微信登录

本版积分规则

关注0

粉丝0

帖子314

发布主题
阅读排行更多+
关闭

站长推荐上一条 /1 下一条

收藏帖子 返回列表 这是一个自定义按钮
音乐分享,音乐下载。
微信公众号
微信号:maomiyinyue
意见反馈:[email protected]

加入我们的官方QQ群和微信群

Powered by Discuz! X3.4 Archiver|手机版|小黑屋|猫咪音乐网 ( 苏ICP备20015413号 )|( 苏公网安备 32030502000272号) 繁體

JS of wanmeiff.com and vcpic.com Please keep this copyright information, respect of, thank you!JS of wanmeiff.com and vcpic.com Please keep this copyright information, respect of, thank you!

GMT+8, 2021-1-27 12:24