自购原抓音乐圈:只有自购、合购、原抓级高解析(hires、sacd、dsd)正版音乐资源分享!【点我打开
极速无线网卡:千兆无线网卡、服务器网卡、USB接口台式机笔记本网卡 千兆网线 厂家批发价格最低!【点我打开
广告

[古典音乐] Gustav Mahler - 交响乐刊1和2(Camilla Tilling,Lilli Paasikivi,法兰克福广播交响乐团,Paavo Jarvi)[2010 / 2012/2014,古典,蓝光]

[复制链接]
elmisy 发表于 2020-12-20 20:46:31 | 显示全部楼层 |阅读模式 打印 上一主题 下一主题
Gustav Mahler - Symphonies Nos. 1 & 2 - Frankfurt Radio Symphony Orchestra, Paavo Järvi
Год выпуска: 2010/2012/2014
Лейбл: C Major, Unitel Classica
Страна-производитель: Австрия
Жанр: Classical
Продолжительность: 58:53 + 01:30:08
Язык: Немецкий
Перевод: Нет
Субтитры: German, English, French, Spanish, Chinese, Korean, Japanese
Режиссер: Michael Ciniselli
Исполнители:
Camilla Tilling (soprano)
Lilli Paasikivi (mezzo-soprano)
Bavarian Radio Chorus
North German Radio Chorus
Frankfurt Radio Symphony Orchestra
Paavo Järvi
Треклист:
1 Vorspann 00:49
Gustav Mahler (1860 - 1911)
Sinfonie Nr. 1 D-Dur "Der Titan"
2 1. Langsam, schleppend - Wie ein Naturlaut 15:42
3 2. Kräftig bewegt, doch nicht zu schnell - Trio 08:26
4 3. Feierlich und gemessen, ohne zu schleppen 11:55
5 4. Stürmisch bewegt 19:47
6 Applaus & Abspann 00:17
7 Vorspann 00:36
Sinfonie Nr. 2 c-moll "Auferstehungs-Sinfonie"
8 1. Allegro maestoso: Mit durchaus ernstem 23:41
9 2. Andante moderato: Sehr gemächlich 10:23
10 3. Scherzo: In ruhig fließender Bewegung 10:55
11 4. Urlicht: Sehr feierlich, aber schlicht 05:47
12 5. Im Tempo des Scherzo 36:14
13 Applaus & Abspann 00:17
14 Introduction to Symphony Nr. 1 (Dokumentation) 08:53
15 Introduction to Symphony Nr. 2 (Dokumentation) 08:55
• Recorded at Rheingau Musik Festival, 2010 (Symphony No. 2) and 2012 (Symphony No. 1)
Bonus:
- Introductions to Symphonies Nos. 1 and 2 by Paavo Järvi.
Доп. информация: Источник hdclub, релизер PeterGriffin (оригинальный релизер pjhhd)
Качество видео: Blu-ray
Формат/Контейнер: BDMV
Видео кодек: MPEG-4 AVC - H.264
Аудио кодек: LPCM, DTS-HD
Видео поток: MPEG-4 AVC Video / 25349 kbps / 1080i / 29.970 fps / 16:9 / High Profile 4.1
Аудио поток 1: LPCM Audio / 2.0 / 48 kHz / 2304 kbps / 24-bit
Аудио поток 2: DTS-HD Master Audio / 5.1 / 48 kHz / 3711 kbps / 24-bit (DTS Core: 5.1 / 48 kHz / 1509 kbps / 24-bit)
BDInfo Report

DISC INFO:
Disc Title:     MAHLER SYMPHONIES 1 AND 2
Disc Size:      42,335,412,434 bytes
Protection:     AACS
BD-Java:        No
BDInfo:         0.5.8
PLAYLIST REPORT:
Name:                   00003.MPLS
Length:                 2:29:18.582 (h:m:s.ms)
Size:                   37,065,775,104 bytes
Total Bitrate:          33.10 Mbps
VIDEO:
Codec                   Bitrate             Description
-----                   -------             -----------
MPEG-4 AVC Video        25349 kbps          1080i / 29.970 fps / 16:9 / High Profile 4.1
AUDIO:
Codec                           Language        Bitrate         Description
-----                           --------        -------         -----------
LPCM Audio                      German          2304 kbps       2.0 / 48 kHz / 2304 kbps / 24-bit
DTS-HD Master Audio             German          3711 kbps       5.1 / 48 kHz / 3711 kbps / 24-bit (DTS Core: 5.1 / 48 kHz / 1509 kbps / 24-bit)
SUBTITLES:
Codec                           Language        Bitrate         Description
-----                           --------        -------         -----------
Presentation Graphics           German          0.845 kbps
Presentation Graphics           English         0.823 kbps
Presentation Graphics           French          0.862 kbps
Presentation Graphics           Spanish         0.806 kbps
Presentation Graphics           Chinese         0.740 kbps
Presentation Graphics           Korean          0.799 kbps
Presentation Graphics           Japanese        0.722 kbps
FILES:
Name            Time In         Length          Size            Total Bitrate
----            -------         ------          ----            -------------
00007.M2TS      0:00:00.000     0:58:52.996     14,923,505,664  33,792
00016.M2TS      0:58:52.996     1:30:07.502     22,132,623,360  32,744
00006.M2TS      2:29:00.498     0:00:09.042     4,823,040       4,267
00001.M2TS      2:29:09.540     0:00:09.042     4,823,040       4,267


Скриншоты






























Gustav Mahler - Symphonies Nos. 3 & 4 - Frankfurt Radio Symphony Orchestra, Paavo Järvi (2007/2008/2014) Blu-ray
Gustav Mahler - Symphonies Nos. 5 & 6 - Frankfurt Radio Symphony Orchestra, Paavo Järvi (2011/2013/2015) Blu-ray
Gustav Mahler - Symphonies Nos. 7 & 8 - Frankfurt Radio Symphony Orchestra, Paavo Järvi (2011/2013/2015) Blu-ray
Gustav Mahler - Symphonies Nos. 9 & 10 (Adagio) - Frankfurt Radio Symphony Orchestra, Paavo Järvi (2008/2009/2015) Blu-ray                                                                                       
                       
                       
                       
                       
                       
                                 磁力下载(论坛代下载服务)
                                                               
                                       
游客,本主题需向作者支付 10金币 才能浏览,金币充值, 免回复、免金币,直接查看内容请开通VIP支付

                                               
  • 39.43 GB
  • 温馨提示

    记得善用社区搜索功能,那里可能会有你想要的资源;论坛站内搜索

    如果你有什么需要的资源可以去资源求档发帖,求助社区的网友,我们会在第一时间给你回复哦;资源求档

    对于本社区网盘链接失效密码错误各种报错请在反馈板块反馈报错发帖,您的支持,是我们发展的最大动力;投诉建议

    回复

    使用道具 举报

    您需要登录后才可以回帖 登录 | 立即注册 微信登录

    本版积分规则

    关注0

    粉丝1

    帖子29169

    发布主题
    阅读排行更多+
    关闭

    站长推荐上一条 /1 下一条

    收藏帖子 返回列表 这是一个自定义按钮
    音乐分享,音乐下载。
    微信公众号
    微信号:maomiyinyue
    意见反馈:[email protected]

    加入我们的官方QQ群和微信群

    Powered by Discuz! X3.4 Archiver|手机版|小黑屋|猫咪音乐网 ( 苏ICP备20015413号 )|( 苏公网安备 32030502000272号) 繁體

    JS of wanmeiff.com and vcpic.com Please keep this copyright information, respect of, thank you!JS of wanmeiff.com and vcpic.com Please keep this copyright information, respect of, thank you!

    GMT+8, 2021-1-26 10:50