自购原抓音乐圈:只有自购、合购、原抓级高解析(hires、sacd、dsd)正版音乐资源分享!【点我打开
极速无线网卡:千兆无线网卡、服务器网卡、USB接口台式机笔记本网卡 千兆网线 厂家批发价格最低!【点我打开
广告

[古典音乐] 彼得iljitsch tschaikowsky(tchaikovsky)symphonie nr。 4 F-Moll Opus 36(Alexander Vedernikow / Alexander Vedernikov,Orchester Philharmonique De Radio France)[2012,古典/管弦乐/音乐会,HDTV 720P]

[复制链接]
fqw1001 发表于 2020-12-20 20:46:30 | 显示全部楼层 |阅读模式 打印 上一主题 下一主题
Peter Iljitsch Tschaikowsky
Symphonie Nr. 4 f-Moll Opus 36
Orchestre Philharmonique de Radio France • Alexander Vedernikow


Год выпуска: 2012
Жанр: Classical / Orchestral / Concert
Продолжительность: 00:43:39
Режиссер: Emmanuelle Franc
Исполнители:
Orchestre Philharmonique de Radio France
dirigé par Alexander Vedernikow / Александр Ведерников
Треклист:
• Peter Iljitsch Tschaikowsky - Symphonie Nr. 4 f-Moll Opus 36
Доп. информация:
Enregistré Salle Pleyel le 05 octobre 2012
Peter Iljitsch Tschaikowsky Symphonie Nr. 4 f-Moll arte.tv
Александр Ведерников материал из Википедии – свободной энциклопедии
Качество видео: HDTV 720p
Контейнер: MKV
Видео кодек: H.264
Аудио кодек: AC3
Видео поток: 9 448 Kbps, 1280*720 (16:9), at 50.000 fps, AVC ([email protected]) (CABAC / 4 Ref Frames)
Аудио поток: German, 448 Kbps, 48.0 KHz, 16 bits, 2 channels, AC-3
Источник: Digital Satellite > SkyStar HD2 (TechniSat) > ts > raw data to HDD > Cypheros TS-Doctor > mkv
MediaInfo

General
Unique ID                                : 188162405885520690573478027081462671023 (0x8D8EC2DD5DDC6CB214EDFF7115AD66AF)
Complete name                            : K:\rutracker.org_HD\arte HD_Tschaikowsky Symphonie Nr. 4 (Alexander Vedernikow) 2012.mkv
Format                                   : Matroska
Format version                           : Version 1
File size                                : 3.08 GiB
Duration                                 : 43mn 39s
Overall bit rate                         : 10.1 Mbps
Encoded date                             : UTC 2013-04-09 18:10:08
Writing library                          : Haali DirectShow Matroska Muxer 1.9.42.1
Video
ID                                       : 1
Format                                   : AVC
Format/Info                              : Advanced Video Codec
Format profile                           : [email protected]
Format settings, CABAC                   : Yes
Format settings, ReFrames                : 4 frames
Format settings, GOP                     : M=4, N=16
Codec ID                                 : V_MPEG4/ISO/AVC
Duration                                 : 43mn 39s
Bit rate                                 : 9 448 Kbps
Width                                    : 1 280 pixels
Height                                   : 720 pixels
Display aspect ratio                     : 16:9
Frame rate                               : 50.000 fps
Color space                              : YUV
Chroma subsampling                       : 4:2:0
Bit depth                                : 8 bits
Scan type                                : Progressive
Bits/(Pixel*Frame)                       : 0.205
Stream size                              : 2.88 GiB (94%)
Title                                    : PID 5111 Video
Default                                  : No
Forced                                   : No
Audio
ID                                       : 2
Format                                   : AC-3
Format/Info                              : Audio Coding 3
Mode extension                           : CM (complete main)
Codec ID                                 : A_AC3
Duration                                 : 43mn 39s
Bit rate mode                            : Constant
Bit rate                                 : 448 Kbps
Channel(s)                               : 2 channels
Channel positions                        : Front: L R
Sampling rate                            : 48.0 KHz
Bit depth                                : 16 bits
Compression mode                         : Lossy
Stream size                              : 140 MiB (4%)
Title                                    : AC3
Language                                 : German
Default                                  : Yes
Forced                                   : No


Скриншоты













                                                                                       
                       
                       
                       
                       
                       
                                 磁力下载(论坛代下载服务)
                                                               
                                       
游客,本主题需向作者支付 10金币 才能浏览,金币充值, 免回复、免金币,直接查看内容请开通VIP支付

                                               
  • 3.08 GB
  • 温馨提示

    记得善用社区搜索功能,那里可能会有你想要的资源;论坛站内搜索

    如果你有什么需要的资源可以去资源求档发帖,求助社区的网友,我们会在第一时间给你回复哦;资源求档

    对于本社区网盘链接失效密码错误各种报错请在反馈板块反馈报错发帖,您的支持,是我们发展的最大动力;投诉建议

    回复

    使用道具 举报

    您需要登录后才可以回帖 登录 | 立即注册 微信登录

    本版积分规则

    关注0

    粉丝0

    帖子29130

    发布主题
    阅读排行更多+
    关闭

    站长推荐上一条 /1 下一条

    收藏帖子 返回列表 这是一个自定义按钮
    音乐分享,音乐下载。
    微信公众号
    微信号:maomiyinyue
    意见反馈:[email protected]

    加入我们的官方QQ群和微信群

    Powered by Discuz! X3.4 Archiver|手机版|小黑屋|猫咪音乐网 ( 苏ICP备20015413号 )|( 苏公网安备 32030502000272号) 繁體

    JS of wanmeiff.com and vcpic.com Please keep this copyright information, respect of, thank you!JS of wanmeiff.com and vcpic.com Please keep this copyright information, respect of, thank you!

    GMT+8, 2021-1-25 15:09