自购原抓音乐圈:只有自购、合购、原抓级高解析(hires、sacd、dsd)正版音乐资源分享!【点我打开
极速无线网卡:千兆无线网卡、服务器网卡、USB接口台式机笔记本网卡 千兆网线 厂家批发价格最低!【点我打开
广告

[古典音乐] 施特劳斯,r .:也是Sprach Zarathustra / Macbeth / Till eulenspiegel - Royal Concertgebouw Orchestra(Andris Nelsons)[2015,古典,蓝光,1080i]

[复制链接]
全球采集 发表于 2020-12-20 20:46:29 | 显示全部楼层 |阅读模式 打印 上一主题 下一主题
Strauss, R.: Also sprach Zarathustra / Macbeth / Till Eulenspiegel - Royal Concertgebouw Orchestra
Жанр: Classical
Продолжительность: 01:19:23
Год выпуска: 2015
Лейбл: CMajor
Дирижер: Andris Nelsons
Исполнители: Royal Concertgebouw Orchestra
Описание: Richard Srauss's Macbeth receives a fine, predictably classy performance from the Dutch orchestra, with Nelsons underlining the granitic power of its narrative effectively and bringing especial allure to the characterization of Lady Macbeth.
Strauss’s great tone-poem ‘after Nietzsche’ is, of course, all about ideas. There’s definitely a welcome flexibility and lack of grandstanding. There’s undeniable added excitement in watching the performance, too. Nelsons’s podium manner is relaxed and warm, characteristics that seep through into the playing, while the camera direction is excellent and cannily in tune with the musical rhythms.
Till Eulenspiegel gains perhaps even more from being watched, and the performance here is a delight – mischievous, light on its feet and played with impeccable virtuosity. With excellent sound and picture quality, this disc is highly recommended.
Here are three distinguished and exciting Strauss performances by an orchestra that has the music in their blood under the direction of a man who is fast establishing a reputation as a leading interpreter of this composer’s music. The presentation is worthy of the playing: the camera-work is first rate, as is the sound.
Треклист:
Recorded at the Royal Concertgebouw, 2013 (Also sprach Zarathustra) and 2014 (Macbeth, Till Eulenspiegel)
1. Also sprach Zarathustra, Op. 30 by Richard Strauss
Conductor: Andris Nelsons
Orchestra/Ensemble: Royal Concertgebouw Orchestra
Period: Romantic
Written: 1895-1896; Germany
2. Till Eulenspiegels lustige Streiche, Op. 28 by Richard Strauss
Conductor: Andris Nelsons
Orchestra/Ensemble: Royal Concertgebouw Orchestra
Period: Romantic
Written: 1894-1895; Germany
3. Macbeth, Op. 23 by Richard Strauss
Conductor: Andris Nelsons
Orchestra/Ensemble: Royal Concertgebouw Orchestra
Period: Romantic
Written: 1888/1891; Germany
Качество: Blu-ray
Разрешение видео/развертка: 1080i
Контейнер: BDMV
Видео кодек: H.264
Аудио кодек: DTS, PCM
Видео: MPEG-4 AVC Video / 27470 kbps / 1080i / 29.970 fps / 16:9 / High Profile 4.1
Аудио#1: LPCM Audio / 2.0 / 48 kHz / 2304 kbps / 24-bit
Аудио#2: DTS-HD Master Audio / 5.0 / 48 kHz / 3704 kbps / 24-bit (DTS Core: 5.0 / 48 kHz / 1509 kbps / 24-bit)
BDInfo

Disc Title:     ANDRIS NELSONS: Richard Strauss
Disc Label:     Richard.Strausss.Also.Sprach.Zarathustra.2015.Bluray.M2ts.1080i.DTS-HD.MA.5.0.MKV
Disc Size:      22,455,392,745 bytes
Protection:     AACS
BDInfo:         0.7.5.5
Notes:
BDINFO HOME:
  Cinema Squid (old)
    http://www.cinemasquid.com/blu-ray/tools/bdinfo
  UniqProject GitHub (new)
   https://github.com/UniqProject/BDInfo
INCLUDES FORUMS REPORT FOR:
  AVS Forum Blu-ray Audio and Video Specifications Thread
    http://www.avsforum.com/avs-vb/showthread.php?t=1155731
********************
PLAYLIST: 00001.MPLS
********************

Код:

                                                                                Total   Video
Title                                                           Codec   Length  Movie Size      Disc Size       Bitrate Bitrate Main Audio Track                          Secondary Audio Track
-----                                                           ------  ------- --------------  --------------  ------- ------- ------------------                        ---------------------
00001.MPLS                                                      AVC     1:19:23 21,016,516,608  22,455,392,745  35.29   27.47   LPCM 2.0 2304Kbps (48kHz/24-bit)          DTS-HD Master 5.0 3704Kbps (48kHz/24-bit)

Код:
DISC INFO:
Disc Title:     ANDRIS NELSONS: Richard Strauss
Disc Label:     Richard.Strausss.Also.Sprach.Zarathustra.2015.Bluray.M2ts.1080i.DTS-HD.MA.5.0.MKV
Disc Size:      22,455,392,745 bytes
Protection:     AACS
BDInfo:         0.7.5.5
PLAYLIST REPORT:
Name:                   00001.MPLS
Length:                 1:19:23.692 (h:m:s.ms)
Size:                   21,016,516,608 bytes
Total Bitrate:          35.29 Mbps
VIDEO:
Codec                   Bitrate             Description
-----                   -------             -----------
MPEG-4 AVC Video        27470 kbps          1080i / 29.970 fps / 16:9 / High Profile 4.1
AUDIO:
Codec                           Language        Bitrate         Description
-----                           --------        -------         -----------
LPCM Audio                      Undetermined    2304 kbps       2.0 / 48 kHz /  2304 kbps / 24-bit
DTS-HD Master Audio             Undetermined    3704 kbps       5.0 / 48 kHz /  3704 kbps / 24-bit (DTS Core: 5.0 / 48 kHz /  1509 kbps / 24-bit)
FILES:
Name            Time In         Length          Size            Total Bitrate
----            -------         ------          ----            -------------
00001.M2TS      0:00:00.000     0:35:27.492     9,240,090,624   34,745
00006.M2TS      0:35:27.492     0:23:09.855     6,238,377,984   35,908
00008.M2TS      0:58:37.347     0:20:31.263     5,530,011,648   35,931
00000.M2TS      1:19:08.610     0:00:09.042     4,823,040       4,267
00005.M2TS      1:19:17.652     0:00:06.039     3,213,312       4,256
CHAPTERS:
Number          Time In         Length          Avg Video Rate  Max 1-Sec Rate  Max 1-Sec Time  Max 5-Sec Rate  Max 5-Sec Time  Max 10Sec Rate  Max 10Sec Time  Avg Frame Size  Max Frame Size  Max Frame Time
------          -------         ------          --------------  --------------  --------------  --------------  --------------  --------------  --------------  --------------  --------------  --------------
1               0:00:00.000     0:01:16.409     27,549 kbps     34,497 kbps     00:00:35.502    30,765 kbps     00:00:31.498    30,066 kbps     00:00:14.381    114,852 bytes   374,154 bytes   00:01:13.973
2               0:01:16.409     0:01:55.115     25,325 kbps     35,113 kbps     00:01:54.747    30,206 kbps     00:02:43.363    30,054 kbps     00:02:52.672    105,627 bytes   533,961 bytes   00:01:55.582
3               0:03:11.524     0:03:40.553     26,708 kbps     33,781 kbps     00:04:03.943    30,678 kbps     00:03:59.939    30,180 kbps     00:03:54.934    111,394 bytes   455,879 bytes   00:05:11.077
4               0:06:52.078     0:01:45.805     25,403 kbps     31,929 kbps     00:07:54.307    30,211 kbps     00:07:53.906    29,943 kbps     00:07:33.152    105,951 bytes   373,450 bytes   00:07:50.937
5               0:08:37.884     0:02:00.887     27,124 kbps     39,655 kbps     00:09:34.140    31,692 kbps     00:09:30.102    30,698 kbps     00:09:25.131    113,130 bytes   443,330 bytes   00:10:02.268
6               0:10:38.771     0:02:24.344     27,680 kbps     34,020 kbps     00:11:42.134    30,397 kbps     00:12:25.478    30,148 kbps     00:12:20.473    115,450 bytes   394,285 bytes   00:12:29.782
7               0:13:03.115     0:04:03.242     25,996 kbps     33,347 kbps     00:16:37.096    30,644 kbps     00:17:00.419    30,052 kbps     00:16:55.414    108,423 bytes   425,987 bytes   00:17:05.257
8               0:17:06.358     0:04:50.790     26,736 kbps     37,241 kbps     00:17:43.762    31,457 kbps     00:17:39.758    30,632 kbps     00:17:34.753    111,513 bytes   494,483 bytes   00:18:39.418
9               0:21:57.149     0:07:43.629     28,044 kbps     33,700 kbps     00:27:17.769    30,522 kbps     00:23:42.888    30,260 kbps     00:27:52.637    116,966 bytes   454,886 bytes   00:28:09.954
10              0:29:40.779     0:04:38.611     27,409 kbps     33,144 kbps     00:32:21.306    30,495 kbps     00:32:17.402    30,165 kbps     00:32:12.397    114,320 bytes   423,210 bytes   00:32:22.273
11              0:34:19.390     0:01:08.101     26,726 kbps     34,055 kbps     00:34:47.518    30,579 kbps     00:34:43.581    30,272 kbps     00:34:38.476    111,470 bytes   406,501 bytes   00:34:48.352
12              0:35:27.492     0:01:32.625     28,436 kbps     34,391 kbps     00:36:04.095    30,703 kbps     00:36:00.024    30,184 kbps     00:36:14.238    118,604 bytes   415,248 bytes   00:36:42.900
13              0:37:00.117     0:20:45.510     27,996 kbps     38,667 kbps     00:52:59.609    31,727 kbps     00:52:55.672    30,666 kbps     00:37:47.231    116,767 bytes   442,524 bytes   00:37:56.907
14              0:57:45.628     0:00:51.718     27,209 kbps     33,124 kbps     00:58:31.274    30,526 kbps     00:58:27.237    30,221 kbps     00:58:10.753    113,483 bytes   392,852 bytes   00:58:01.177
15              0:58:37.347     0:01:35.528     28,807 kbps     34,276 kbps     00:59:13.917    30,664 kbps     00:59:09.846    30,102 kbps     00:58:52.962    120,151 bytes   382,048 bytes   00:59:14.617
16              1:00:12.875     0:16:17.976     27,791 kbps     37,486 kbps     01:12:44.927    31,513 kbps     01:12:40.889    30,521 kbps     01:07:13.963    115,911 bytes   409,669 bytes   01:11:39.828
17              1:16:30.852     0:01:07.600     29,073 kbps     32,057 kbps     01:16:52.941    30,289 kbps     01:17:21.003    30,062 kbps     01:17:15.998    121,260 bytes   395,145 bytes   01:17:25.941
18              1:17:38.453     0:01:30.156     28,421 kbps     32,552 kbps     01:19:02.370    30,777 kbps     01:18:58.366    30,264 kbps     01:18:53.361    118,540 bytes   414,169 bytes   01:19:03.038
19              1:19:08.610     0:00:09.042     4,014 kbps      6,164 kbps      01:19:09.010    4,436 kbps      01:19:09.010    0 kbps          00:00:00.000    16,743 bytes    133,442 bytes   01:19:17.619
20              1:19:17.652     0:00:06.039     4,001 kbps      6,031 kbps      01:19:18.520    4,364 kbps      01:19:18.120    0 kbps          00:00:00.000    16,782 bytes    133,467 bytes   01:19:18.587
STREAM DIAGNOSTICS:
File            PID             Type            Codec           Language                Seconds                 Bitrate                 Bytes           Packets
----            ---             ----            -----           --------                --------------          --------------          -------------   -----
00001.M2TS      4113 (0x1011)   0x1B            AVC                                     2127.425                26,995                  7,178,700,604   39,051,882
00001.M2TS      4352 (0x1100)   0x80            LPCM            und (Undetermined)      2127.425                2,310                   614,420,556     3,403,992
00001.M2TS      4353 (0x1101)   0x86            DTS-HD MA       und (Undetermined)      2127.425                3,644                   969,064,440     5,598,286
00006.M2TS      4113 (0x1011)   0x1B            AVC                                     1389.722                27,999                  4,863,821,642   26,458,155
00006.M2TS      4352 (0x1100)   0x80            LPCM            und (Undetermined)      1389.722                2,311                   401,391,568     2,223,776
00006.M2TS      4353 (0x1101)   0x86            DTS-HD MA       und (Undetermined)      1389.722                3,757                   652,643,820     3,763,006
00008.M2TS      4113 (0x1011)   0x1B            AVC                                     1231.130                27,989                  4,307,307,922   23,430,827
00008.M2TS      4352 (0x1100)   0x80            LPCM            und (Undetermined)      1231.130                2,305                   354,722,932     1,965,224
00008.M2TS      4353 (0x1101)   0x86            DTS-HD MA       und (Undetermined)      1231.130                3,795                   584,000,252     3,364,835
00000.M2TS      4113 (0x1011)   0x1B            AVC                                     8.909                   4,075                   4,537,438       24,809
00005.M2TS      4113 (0x1011)   0x1B            AVC                                     5.906                   4,093                   3,021,881       16,516


QUICK SUMMARY:
Disc Title: ANDRIS NELSONS: Richard Strauss
Disc Label: Richard.Strausss.Also.Sprach.Zarathustra.2015.Bluray.M2ts.1080i.DTS-HD.MA.5.0.MKV
Disc Size: 22,455,392,745 bytes
Protection: AACS
Playlist: 00001.MPLS
Size: 21,016,516,608 bytes
Length: 1:19:23.692
Total Bitrate: 35.29 Mbps
Video: MPEG-4 AVC Video / 27470 kbps / 1080i / 29.970 fps / 16:9 / High Profile 4.1
Audio: Undetermined / LPCM Audio / 2.0 / 48 kHz /  2304 kbps / 24-bit
Audio: Undetermined / DTS-HD Master Audio / 5.0 / 48 kHz /  3704 kbps / 24-bit (DTS Core: 5.0 / 48 kHz /  1509 kbps / 24-bit)
********************
PLAYLIST: 00000.MPLS
********************

Код:

                                                                                Total   Video
Title                                                           Codec   Length  Movie Size      Disc Size       Bitrate Bitrate Main Audio Track                          Secondary Audio Track
-----                                                           ------  ------- --------------  --------------  ------- ------- ------------------                        ---------------------
00000.MPLS                                                      AVC     0:00:20 20,453,376      22,455,392,745  7.99    7.58

Код:
DISC INFO:
Disc Title:     ANDRIS NELSONS: Richard Strauss
Disc Label:     Richard.Strausss.Also.Sprach.Zarathustra.2015.Bluray.M2ts.1080i.DTS-HD.MA.5.0.MKV
Disc Size:      22,455,392,745 bytes
Protection:     AACS
BDInfo:         0.7.5.5
PLAYLIST REPORT:
Name:                   00000.MPLS
Length:                 0:00:20.487 (h:m:s.ms)
Size:                   20,453,376 bytes
Total Bitrate:          7.99 Mbps
VIDEO:
Codec                   Bitrate             Description
-----                   -------             -----------
MPEG-4 AVC Video        7578 kbps           1080i / 29.970 fps / 16:9 / High Profile 4.1
FILES:
Name            Time In         Length          Size            Total Bitrate
----            -------         ------          ----            -------------
00004.M2TS      0:00:00.000     0:00:08.408     13,111,296      12,474
00005.M2TS      0:00:08.408     0:00:06.039     3,213,312       4,256
00011.M2TS      0:00:14.447     0:00:06.039     4,128,768       5,469
CHAPTERS:
Number          Time In         Length          Avg Video Rate  Max 1-Sec Rate  Max 1-Sec Time  Max 5-Sec Rate  Max 5-Sec Time  Max 10Sec Rate  Max 10Sec Time  Avg Frame Size  Max Frame Size  Max Frame Time
------          -------         ------          --------------  --------------  --------------  --------------  --------------  --------------  --------------  --------------  --------------  --------------
1               0:00:00.000     0:00:08.408     11,877 kbps     20,588 kbps     00:00:00.400    12,485 kbps     00:00:00.400    0 kbps          00:00:00.000    49,339 bytes    329,383 bytes   00:00:04.003
2               0:00:08.408     0:00:05.572     3,960 kbps      6,031 kbps      00:00:09.275    4,364 kbps      00:00:08.875    0 kbps          00:00:00.000    16,515 bytes    133,467 bytes   00:00:09.342
3               0:00:13.980     0:00:06.506     5,121 kbps      10,328 kbps     00:00:14.848    5,652 kbps      00:00:14.881    0 kbps          00:00:00.000    21,467 bytes    133,467 bytes   00:00:17.350
STREAM DIAGNOSTICS:
File            PID             Type            Codec           Language                Seconds                 Bitrate                 Bytes           Packets
----            ---             ----            -----           --------                --------------          --------------          -------------   -----
00004.M2TS      4113 (0x1011)   0x1B            AVC                                     8.275                   12,067                  12,481,688      67,975
00005.M2TS      4113 (0x1011)   0x1B            AVC                                     5.906                   4,093                   3,021,881       16,516
00011.M2TS      4113 (0x1011)   0x1B            AVC                                     5.906                   5,286                   3,902,053       21,294


QUICK SUMMARY:
Disc Title: ANDRIS NELSONS: Richard Strauss
Disc Label: Richard.Strausss.Also.Sprach.Zarathustra.2015.Bluray.M2ts.1080i.DTS-HD.MA.5.0.MKV
Disc Size: 22,455,392,745 bytes
Protection: AACS
Playlist: 00000.MPLS
Size: 20,453,376 bytes
Length: 0:00:20.487
Total Bitrate: 7.99 Mbps
Video: MPEG-4 AVC Video / 7578 kbps / 1080i / 29.970 fps / 16:9 / High Profile 4.1
********************
PLAYLIST: 00002.MPLS
********************

Код:

                                                                                Total   Video
Title                                                           Codec   Length  Movie Size      Disc Size       Bitrate Bitrate Main Audio Track                          Secondary Audio Track
-----                                                           ------  ------- --------------  --------------  ------- ------- ------------------                        ---------------------
00002.MPLS                                                      AVC     0:02:16 454,299,648     22,455,392,745  26.72   22.00   LPCM 2.0 1536Kbps (48kHz/16-bit)          LPCM 2.0 1536Kbps (48kHz/16-bit)

Код:
DISC INFO:
Disc Title:     ANDRIS NELSONS: Richard Strauss
Disc Label:     Richard.Strausss.Also.Sprach.Zarathustra.2015.Bluray.M2ts.1080i.DTS-HD.MA.5.0.MKV
Disc Size:      22,455,392,745 bytes
Protection:     AACS
BDInfo:         0.7.5.5
PLAYLIST REPORT:
Name:                   00002.MPLS
Length:                 0:02:16.035 (h:m:s.ms)
Size:                   454,299,648 bytes
Total Bitrate:          26.72 Mbps
VIDEO:
Codec                   Bitrate             Description
-----                   -------             -----------
MPEG-4 AVC Video        21995 kbps          1080i / 29.970 fps / 16:9 / High Profile 4.1
AUDIO:
Codec                           Language        Bitrate         Description
-----                           --------        -------         -----------
LPCM Audio                      Undetermined    1536 kbps       2.0 / 48 kHz /  1536 kbps / 16-bit
LPCM Audio                      Undetermined    1536 kbps       2.0 / 48 kHz /  1536 kbps / 16-bit
FILES:
Name            Time In         Length          Size            Total Bitrate
----            -------         ------          ----            -------------
00009.M2TS      0:00:00.000     0:02:16.035     454,299,648     26,716
CHAPTERS:
Number          Time In         Length          Avg Video Rate  Max 1-Sec Rate  Max 1-Sec Time  Max 5-Sec Rate  Max 5-Sec Time  Max 10Sec Rate  Max 10Sec Time  Avg Frame Size  Max Frame Size  Max Frame Time
------          -------         ------          --------------  --------------  --------------  --------------  --------------  --------------  --------------  --------------  --------------  --------------
1               0:00:00.000     0:02:15.001     22,132 kbps     32,957 kbps     00:00:56.689    31,346 kbps     00:00:55.488    29,012 kbps     00:00:50.550    92,284 bytes    313,192 bytes   00:01:18.378
2               0:02:15.001     0:00:01.034     4,225 kbps      4,365 kbps      00:02:15.001    0 kbps          00:00:00.000    0 kbps          00:00:00.000    18,208 bytes    141,783 bytes   00:02:16.002
STREAM DIAGNOSTICS:
File            PID             Type            Codec           Language                Seconds                 Bitrate                 Bytes           Packets
----            ---             ----            -----           --------                --------------          --------------          -------------   -----
00009.M2TS      4113 (0x1011)   0x1B            AVC                                     135.902                 22,017                  374,020,571     2,035,075
00009.M2TS      4352 (0x1100)   0x80            LPCM            und (Undetermined)      135.902                 1,544                   26,228,512      163,248
00009.M2TS      4353 (0x1101)   0x80            LPCM            und (Undetermined)      135.902                 1,544                   26,228,512      163,248


QUICK SUMMARY:
Disc Title: ANDRIS NELSONS: Richard Strauss
Disc Label: Richard.Strausss.Also.Sprach.Zarathustra.2015.Bluray.M2ts.1080i.DTS-HD.MA.5.0.MKV
Disc Size: 22,455,392,745 bytes
Protection: AACS
Playlist: 00002.MPLS
Size: 454,299,648 bytes
Length: 0:02:16.035
Total Bitrate: 26.72 Mbps
Video: MPEG-4 AVC Video / 21995 kbps / 1080i / 29.970 fps / 16:9 / High Profile 4.1
Audio: Undetermined / LPCM Audio / 2.0 / 48 kHz /  1536 kbps / 16-bit
Audio: Undetermined / LPCM Audio / 2.0 / 48 kHz /  1536 kbps / 16-bit
********************
PLAYLIST: 00005.MPLS
********************

Код:

                                                                                Total   Video
Title                                                           Codec   Length  Movie Size      Disc Size       Bitrate Bitrate Main Audio Track                          Secondary Audio Track
-----                                                           ------  ------- --------------  --------------  ------- ------- ------------------                        ---------------------
00005.MPLS                                                      AVC     0:01:10 235,941,888     22,455,392,745  26.71   21.99   LPCM 2.0 1536Kbps (48kHz/16-bit)          LPCM 2.0 1536Kbps (48kHz/16-bit)

Код:
DISC INFO:
Disc Title:     ANDRIS NELSONS: Richard Strauss
Disc Label:     Richard.Strausss.Also.Sprach.Zarathustra.2015.Bluray.M2ts.1080i.DTS-HD.MA.5.0.MKV
Disc Size:      22,455,392,745 bytes
Protection:     AACS
BDInfo:         0.7.5.5
PLAYLIST REPORT:
Name:                   00005.MPLS
Length:                 0:01:10.670 (h:m:s.ms)
Size:                   235,941,888 bytes
Total Bitrate:          26.71 Mbps
VIDEO:
Codec                   Bitrate             Description
-----                   -------             -----------
MPEG-4 AVC Video        21988 kbps          1080i / 29.970 fps / 16:9 / High Profile 4.1
AUDIO:
Codec                           Language        Bitrate         Description
-----                           --------        -------         -----------
LPCM Audio                      Undetermined    1536 kbps       2.0 / 48 kHz /  1536 kbps / 16-bit
LPCM Audio                      Undetermined    1536 kbps       2.0 / 48 kHz /  1536 kbps / 16-bit
FILES:
Name            Time In         Length          Size            Total Bitrate
----            -------         ------          ----            -------------
00010.M2TS      0:00:00.000     0:01:10.670     235,941,888     26,709
CHAPTERS:
Number          Time In         Length          Avg Video Rate  Max 1-Sec Rate  Max 1-Sec Time  Max 5-Sec Rate  Max 5-Sec Time  Max 10Sec Rate  Max 10Sec Time  Avg Frame Size  Max Frame Size  Max Frame Time
------          -------         ------          --------------  --------------  --------------  --------------  --------------  --------------  --------------  --------------  --------------  --------------
1               0:00:00.000     0:01:08.835     22,465 kbps     35,238 kbps     00:00:06.005    34,039 kbps     00:00:06.005    33,385 kbps     00:00:06.039    93,652 bytes    310,982 bytes   00:00:26.726
2               0:01:08.835     0:00:01.835     4,118 kbps      4,980 kbps      00:01:09.569    0 kbps          00:00:00.000    0 kbps          00:00:00.000    17,493 bytes    141,808 bytes   00:01:09.602
STREAM DIAGNOSTICS:
File            PID             Type            Codec           Language                Seconds                 Bitrate                 Bytes           Packets
----            ---             ----            -----           --------                --------------          --------------          -------------   -----
00010.M2TS      4113 (0x1011)   0x1B            AVC                                     70.537                  22,030                  194,241,480     1,056,842
00010.M2TS      4352 (0x1100)   0x80            LPCM            und (Undetermined)      70.537                  1,545                   13,626,140      84,810
00010.M2TS      4353 (0x1101)   0x80            LPCM            und (Undetermined)      70.537                  1,545                   13,626,140      84,810


QUICK SUMMARY:
Disc Title: ANDRIS NELSONS: Richard Strauss
Disc Label: Richard.Strausss.Also.Sprach.Zarathustra.2015.Bluray.M2ts.1080i.DTS-HD.MA.5.0.MKV
Disc Size: 22,455,392,745 bytes
Protection: AACS
Playlist: 00005.MPLS
Size: 235,941,888 bytes
Length: 0:01:10.670
Total Bitrate: 26.71 Mbps
Video: MPEG-4 AVC Video / 21988 kbps / 1080i / 29.970 fps / 16:9 / High Profile 4.1
Audio: Undetermined / LPCM Audio / 2.0 / 48 kHz /  1536 kbps / 16-bit
Audio: Undetermined / LPCM Audio / 2.0 / 48 kHz /  1536 kbps / 16-bit
********************
PLAYLIST: 00006.MPLS
********************

Код:

                                                                                Total   Video
Title                                                           Codec   Length  Movie Size      Disc Size       Bitrate Bitrate Main Audio Track                          Secondary Audio Track
-----                                                           ------  ------- --------------  --------------  ------- ------- ------------------                        ---------------------
00006.MPLS                                                      AVC     0:01:10 160,542,720     22,455,392,745  18.33   13.96   LPCM 2.0 1536Kbps (48kHz/16-bit)          LPCM 2.0 1536Kbps (48kHz/16-bit)

Код:
DISC INFO:
Disc Title:     ANDRIS NELSONS: Richard Strauss
Disc Label:     Richard.Strausss.Also.Sprach.Zarathustra.2015.Bluray.M2ts.1080i.DTS-HD.MA.5.0.MKV
Disc Size:      22,455,392,745 bytes
Protection:     AACS
BDInfo:         0.7.5.5
PLAYLIST REPORT:
Name:                   00006.MPLS
Length:                 0:01:10.070 (h:m:s.ms)
Size:                   160,542,720 bytes
Total Bitrate:          18.33 Mbps
VIDEO:
Codec                   Bitrate             Description
-----                   -------             -----------
MPEG-4 AVC Video        13957 kbps          1080i / 29.970 fps / 16:9 / High Profile 4.1
AUDIO:
Codec                           Language        Bitrate         Description
-----                           --------        -------         -----------
LPCM Audio                      Undetermined    1536 kbps       2.0 / 48 kHz /  1536 kbps / 16-bit
LPCM Audio                      Undetermined    1536 kbps       2.0 / 48 kHz /  1536 kbps / 16-bit
FILES:
Name            Time In         Length          Size            Total Bitrate
----            -------         ------          ----            -------------
00012.M2TS      0:00:00.000     0:01:10.070     160,542,720     18,329
CHAPTERS:
Number          Time In         Length          Avg Video Rate  Max 1-Sec Rate  Max 1-Sec Time  Max 5-Sec Rate  Max 5-Sec Time  Max 10Sec Rate  Max 10Sec Time  Avg Frame Size  Max Frame Size  Max Frame Time
------          -------         ------          --------------  --------------  --------------  --------------  --------------  --------------  --------------  --------------  --------------  --------------
1               0:00:00.000     0:01:09.002     14,171 kbps     25,512 kbps     00:00:20.353    20,174 kbps     00:00:32.832    19,637 kbps     00:00:28.962    59,078 bytes    526,531 bytes   00:00:18.151
2               0:01:09.002     0:00:01.067     110 kbps        114 kbps        00:01:09.035    0 kbps          00:00:00.000    0 kbps          00:00:00.000    472 bytes       2,461 bytes     00:01:09.803
STREAM DIAGNOSTICS:
File            PID             Type            Codec           Language                Seconds                 Bitrate                 Bytes           Packets
----            ---             ----            -----           --------                --------------          --------------          -------------   -----
00012.M2TS      4113 (0x1011)   0x1B            AVC                                     70.003                  13,971                  122,247,684     665,618
00012.M2TS      4352 (0x1100)   0x80            LPCM            und (Undetermined)      70.003                  1,544                   13,509,496      84,084
00012.M2TS      4353 (0x1101)   0x80            LPCM            und (Undetermined)      70.003                  1,544                   13,509,496      84,084


QUICK SUMMARY:
Disc Title: ANDRIS NELSONS: Richard Strauss
Disc Label: Richard.Strausss.Also.Sprach.Zarathustra.2015.Bluray.M2ts.1080i.DTS-HD.MA.5.0.MKV
Disc Size: 22,455,392,745 bytes
Protection: AACS
Playlist: 00006.MPLS
Size: 160,542,720 bytes
Length: 0:01:10.070
Total Bitrate: 18.33 Mbps
Video: MPEG-4 AVC Video / 13957 kbps / 1080i / 29.970 fps / 16:9 / High Profile 4.1
Audio: Undetermined / LPCM Audio / 2.0 / 48 kHz /  1536 kbps / 16-bit
Audio: Undetermined / LPCM Audio / 2.0 / 48 kHz /  1536 kbps / 16-bit
********************
PLAYLIST: 00003.MPLS
********************

Код:

                                                                                Total   Video
Title                                                           Codec   Length  Movie Size      Disc Size       Bitrate Bitrate Main Audio Track                          Secondary Audio Track
-----                                                           ------  ------- --------------  --------------  ------- ------- ------------------                        ---------------------
00003.MPLS                                                      AVC     0:01:04 216,287,232     22,455,392,745  26.72   22.00   LPCM 2.0 1536Kbps (48kHz/16-bit)          LPCM 2.0 1536Kbps (48kHz/16-bit)

Код:
DISC INFO:
Disc Title:     ANDRIS NELSONS: Richard Strauss
Disc Label:     Richard.Strausss.Also.Sprach.Zarathustra.2015.Bluray.M2ts.1080i.DTS-HD.MA.5.0.MKV
Disc Size:      22,455,392,745 bytes
Protection:     AACS
BDInfo:         0.7.5.5
PLAYLIST REPORT:
Name:                   00003.MPLS
Length:                 0:01:04.764 (h:m:s.ms)
Size:                   216,287,232 bytes
Total Bitrate:          26.72 Mbps
VIDEO:
Codec                   Bitrate             Description
-----                   -------             -----------
MPEG-4 AVC Video        21996 kbps          1080i / 29.970 fps / 16:9 / High Profile 4.1
AUDIO:
Codec                           Language        Bitrate         Description
-----                           --------        -------         -----------
LPCM Audio                      Undetermined    1536 kbps       2.0 / 48 kHz /  1536 kbps / 16-bit
LPCM Audio                      Undetermined    1536 kbps       2.0 / 48 kHz /  1536 kbps / 16-bit
FILES:
Name            Time In         Length          Size            Total Bitrate
----            -------         ------          ----            -------------
00014.M2TS      0:00:00.000     0:01:04.764     216,287,232     26,717
CHAPTERS:
Number          Time In         Length          Avg Video Rate  Max 1-Sec Rate  Max 1-Sec Time  Max 5-Sec Rate  Max 5-Sec Time  Max 10Sec Rate  Max 10Sec Time  Avg Frame Size  Max Frame Size  Max Frame Time
------          -------         ------          --------------  --------------  --------------  --------------  --------------  --------------  --------------  --------------  --------------  --------------
1               0:00:00.000     0:01:04.764     21,996 kbps     34,727 kbps     00:00:15.715    32,964 kbps     00:00:35.368    30,576 kbps     00:00:31.431    91,740 bytes    322,775 bytes   00:00:17.717
STREAM DIAGNOSTICS:
File            PID             Type            Codec           Language                Seconds                 Bitrate                 Bytes           Packets
----            ---             ----            -----           --------                --------------          --------------          -------------   -----
00014.M2TS      4113 (0x1011)   0x1B            AVC                                     64.631                  22,041                  178,066,864     968,857
00014.M2TS      4352 (0x1100)   0x80            LPCM            und (Undetermined)      64.631                  1,546                   12,486,692      77,718
00014.M2TS      4353 (0x1101)   0x80            LPCM            und (Undetermined)      64.631                  1,546                   12,486,692      77,718


QUICK SUMMARY:
Disc Title: ANDRIS NELSONS: Richard Strauss
Disc Label: Richard.Strausss.Also.Sprach.Zarathustra.2015.Bluray.M2ts.1080i.DTS-HD.MA.5.0.MKV
Disc Size: 22,455,392,745 bytes
Protection: AACS
Playlist: 00003.MPLS
Size: 216,287,232 bytes
Length: 0:01:04.764
Total Bitrate: 26.72 Mbps
Video: MPEG-4 AVC Video / 21996 kbps / 1080i / 29.970 fps / 16:9 / High Profile 4.1
Audio: Undetermined / LPCM Audio / 2.0 / 48 kHz /  1536 kbps / 16-bit
Audio: Undetermined / LPCM Audio / 2.0 / 48 kHz /  1536 kbps / 16-bit
********************
PLAYLIST: 00004.MPLS
********************

Код:

                                                                                Total   Video
Title                                                           Codec   Length  Movie Size      Disc Size       Bitrate Bitrate Main Audio Track                          Secondary Audio Track
-----                                                           ------  ------- --------------  --------------  ------- ------- ------------------                        ---------------------
00004.MPLS                                                      AVC     0:01:03 212,367,360     22,455,392,745  26.71   21.99   LPCM 2.0 1536Kbps (48kHz/16-bit)          LPCM 2.0 1536Kbps (48kHz/16-bit)

Код:
DISC INFO:
Disc Title:     ANDRIS NELSONS: Richard Strauss
Disc Label:     Richard.Strausss.Also.Sprach.Zarathustra.2015.Bluray.M2ts.1080i.DTS-HD.MA.5.0.MKV
Disc Size:      22,455,392,745 bytes
Protection:     AACS
BDInfo:         0.7.5.5
PLAYLIST REPORT:
Name:                   00004.MPLS
Length:                 0:01:03.596 (h:m:s.ms)
Size:                   212,367,360 bytes
Total Bitrate:          26.71 Mbps
VIDEO:
Codec                   Bitrate             Description
-----                   -------             -----------
MPEG-4 AVC Video        21994 kbps          1080i / 29.970 fps / 16:9 / High Profile 4.1
AUDIO:
Codec                           Language        Bitrate         Description
-----                           --------        -------         -----------
LPCM Audio                      Undetermined    1536 kbps       2.0 / 48 kHz /  1536 kbps / 16-bit
LPCM Audio                      Undetermined    1536 kbps       2.0 / 48 kHz /  1536 kbps / 16-bit
FILES:
Name            Time In         Length          Size            Total Bitrate
----            -------         ------          ----            -------------
00013.M2TS      0:00:00.000     0:01:03.596     212,367,360     26,714
CHAPTERS:
Number          Time In         Length          Avg Video Rate  Max 1-Sec Rate  Max 1-Sec Time  Max 5-Sec Rate  Max 5-Sec Time  Max 10Sec Rate  Max 10Sec Time  Avg Frame Size  Max Frame Size  Max Frame Time
------          -------         ------          --------------  --------------  --------------  --------------  --------------  --------------  --------------  --------------  --------------  --------------
1               0:00:00.000     0:01:03.596     21,994 kbps     36,089 kbps     00:00:10.744    31,581 kbps     00:00:06.973    28,003 kbps     00:00:06.973    91,732 bytes    303,333 bytes   00:00:07.006
STREAM DIAGNOSTICS:
File            PID             Type            Codec           Language                Seconds                 Bitrate                 Bytes           Packets
----            ---             ----            -----           --------                --------------          --------------          -------------   -----
00013.M2TS      4113 (0x1011)   0x1B            AVC                                     63.463                  22,040                  174,840,886     951,305
00013.M2TS      4352 (0x1100)   0x80            LPCM            und (Undetermined)      63.463                  1,546                   12,262,080      76,320
00013.M2TS      4353 (0x1101)   0x80            LPCM            und (Undetermined)      63.463                  1,546                   12,262,080      76,320


QUICK SUMMARY:
Disc Title: ANDRIS NELSONS: Richard Strauss
Disc Label: Richard.Strausss.Also.Sprach.Zarathustra.2015.Bluray.M2ts.1080i.DTS-HD.MA.5.0.MKV
Disc Size: 22,455,392,745 bytes
Protection: AACS
Playlist: 00004.MPLS
Size: 212,367,360 bytes
Length: 0:01:03.596
Total Bitrate: 26.71 Mbps
Video: MPEG-4 AVC Video / 21994 kbps / 1080i / 29.970 fps / 16:9 / High Profile 4.1
Audio: Undetermined / LPCM Audio / 2.0 / 48 kHz /  1536 kbps / 16-bit
Audio: Undetermined / LPCM Audio / 2.0 / 48 kHz /  1536 kbps / 16-bit

Скриншоты











                                                                                       
                       
                       
                       
                       
                       
                                 磁力下载(论坛代下载服务)
                                                               
                                       
游客,本主题需向作者支付 10金币 才能浏览,金币充值, 免回复、免金币,直接查看内容请开通VIP支付

                                               
  • 20.91 GB
  • 温馨提示

    记得善用社区搜索功能,那里可能会有你想要的资源;论坛站内搜索

    如果你有什么需要的资源可以去资源求档发帖,求助社区的网友,我们会在第一时间给你回复哦;资源求档

    对于本社区网盘链接失效密码错误各种报错请在反馈板块反馈报错发帖,您的支持,是我们发展的最大动力;投诉建议

    回复

    使用道具 举报

    您需要登录后才可以回帖 登录 | 立即注册 微信登录

    本版积分规则

    关注0

    粉丝13

    帖子85997

    发布主题
    阅读排行更多+
    关闭

    站长推荐上一条 /1 下一条

    收藏帖子 返回列表 这是一个自定义按钮
    音乐分享,音乐下载。
    微信公众号
    微信号:maomiyinyue
    意见反馈:admin@maomicd.com

    加入我们的官方QQ群和微信群

    Powered by Discuz! X3.4 Archiver|手机版|小黑屋|猫咪音乐网 ( 苏ICP备20015413号 )|( 苏公网安备 32030502000272号) 繁體

    JS of wanmeiff.com and vcpic.com Please keep this copyright information, respect of, thank you!JS of wanmeiff.com and vcpic.com Please keep this copyright information, respect of, thank you!

    GMT+8, 2021-1-23 00:06