自购原抓音乐圈:只有自购、合购、原抓级高解析(hires、sacd、dsd)正版音乐资源分享!【点我打开
极速无线网卡:千兆无线网卡、服务器网卡、USB接口台式机笔记本网卡 千兆网线 厂家批发价格最低!【点我打开
广告

[古典音乐] Johannes Brahms - 完整的交响乐(Christian Thielemann,Staatskapelle Dresden)[2014,古典,2xblu-ray,1080i]

[复制链接]
如果有神 发表于 2020-12-20 20:46:29 | 显示全部楼层 |阅读模式 打印 上一主题 下一主题
Johannes Brahms - The Complete Symphonies
Жанр: Classical
Продолжительность: 03:13:18 + 00:51:17 (бонус)
Год выпуска: 2014
Лейбл: C Major Entertainment
Дирижер: Christian Thielemann
Исполнители: Staatskapelle Dresden
Описание: After the great success of his Beethoven cycle, Christian Thielemann now turns with his new orchestra, the Staatskapelle Dresden, to the symphonic work of Johannes Brahms.
Качество: Blu-ray
Разрешение видео/развертка: 1080i
Контейнер: BDMV
Видео кодек: H.264
Аудио кодек: DTS, PCM
Disc 1
Продолжительность: 01:43:11 + 00:51:17 (бонус)
Треклист:
Symphony №1
Recorded at the NHK Hall Tokyo 2013
I Un Poco Sostenuto - Allegro
II Andante Sostenuto
III Un Poco Allegretto Grazioso
IV Finale: Adagio - Allegro Non Troppo, Ma Con Bio
Symphony №2
Recorded at the Semperoper Dresden 2013
I Allegro Non Troppo
II Adagio Non Troppo
III Allegretto Grazioso (Quasi Andantino)
IV Allegro Con Spirito
Discovering Brahms - интервью Christian Thielemann [00:51:17]
Видео: MPEG-4 AVC Video / 29937 kbps / 1080i / 29.970 fps / 16:9 / High Profile 4.1
Аудио#1: LPCM Audio / 2.0 / 48 kHz / 2304 kbps / 24-bit
Аудио#2: DTS-HD Master Audio / 5.0 / 48 kHz / 3782 kbps / 24-bit (DTS Core: 5.0 / 48 kHz / 1509 kbps / 24-bit)
BDInfo

Disc Title:     BRAHMS - THE COMPLETE SYMPHONIES BD1
Disc Label:     BRAHMS SYMPHONIES BD1
Disc Size:      41,024,367,708 bytes
Protection:     AACS
BDInfo:         0.7.5.5
Notes:
BDINFO HOME:
  Cinema Squid (old)
    http://www.cinemasquid.com/blu-ray/tools/bdinfo
  UniqProject GitHub (new)
   https://github.com/UniqProject/BDInfo
INCLUDES FORUMS REPORT FOR:
  AVS Forum Blu-ray Audio and Video Specifications Thread
    http://www.avsforum.com/avs-vb/showthread.php?t=1155731
********************
PLAYLIST: 00001.MPLS
********************

Код:

                                                                                Total   Video
Title                                                           Codec   Length  Movie Size      Disc Size       Bitrate Bitrate Main Audio Track                          Secondary Audio Track
-----                                                           ------  ------- --------------  --------------  ------- ------- ------------------                        ---------------------
00001.MPLS                                                      AVC     1:43:11 29,373,536,256  41,024,367,708  37.95   29.94   LPCM 2.0 2304Kbps (48kHz/24-bit)          DTS-HD Master 5.0 3782Kbps (48kHz/24-bit)

Код:
DISC INFO:
Disc Title:     BRAHMS - THE COMPLETE SYMPHONIES BD1
Disc Label:     BRAHMS SYMPHONIES BD1
Disc Size:      41,024,367,708 bytes
Protection:     AACS
BDInfo:         0.7.5.5
PLAYLIST REPORT:
Name:                   00001.MPLS
Length:                 1:43:11.418 (h:m:s.ms)
Size:                   29,373,536,256 bytes
Total Bitrate:          37.95 Mbps
VIDEO:
Codec                   Bitrate             Description
-----                   -------             -----------
MPEG-4 AVC Video        29937 kbps          1080i / 29.970 fps / 16:9 / High Profile 4.1
AUDIO:
Codec                           Language        Bitrate         Description
-----                           --------        -------         -----------
LPCM Audio                      Undetermined    2304 kbps       2.0 / 48 kHz /  2304 kbps / 24-bit
DTS-HD Master Audio             Undetermined    3782 kbps       5.0 / 48 kHz /  3782 kbps / 24-bit (DTS Core: 5.0 / 48 kHz /  1509 kbps / 24-bit)
FILES:
Name            Time In         Length          Size            Total Bitrate
----            -------         ------          ----            -------------
00001.M2TS      0:00:00.000     0:51:31.688     14,648,924,160  37,905
00006.M2TS      0:51:31.688     0:51:24.648     14,716,575,744  38,167
00000.M2TS      1:42:56.336     0:00:09.042     4,823,040       4,267
00005.M2TS      1:43:05.379     0:00:06.039     3,213,312       4,256
CHAPTERS:
Number          Time In         Length          Avg Video Rate  Max 1-Sec Rate  Max 1-Sec Time  Max 5-Sec Rate  Max 5-Sec Time  Max 10Sec Rate  Max 10Sec Time  Avg Frame Size  Max Frame Size  Max Frame Time
------          -------         ------          --------------  --------------  --------------  --------------  --------------  --------------  --------------  --------------  --------------  --------------
1               0:00:00.000     0:01:20.046     30,019 kbps     32,335 kbps     00:01:17.644    30,535 kbps     00:00:00.133    30,278 kbps     00:00:00.133    125,152 bytes   313,714 bytes   00:01:18.178
2               0:01:20.046     0:14:26.899     30,001 kbps     34,793 kbps     00:06:28.454    31,048 kbps     00:04:28.534    30,480 kbps     00:11:56.882    125,129 bytes   456,387 bytes   00:15:43.642
3               0:15:46.946     0:09:07.647     29,999 kbps     37,670 kbps     00:19:22.561    31,611 kbps     00:19:18.557    30,802 kbps     00:19:13.552    125,121 bytes   450,780 bytes   00:17:20.372
4               0:24:54.593     0:05:16.215     30,000 kbps     33,653 kbps     00:28:08.687    30,593 kbps     00:26:57.682    30,308 kbps     00:27:59.678    125,126 bytes   349,584 bytes   00:26:56.414
5               0:30:10.809     0:17:51.069     30,000 kbps     35,734 kbps     00:45:41.472    31,142 kbps     00:45:37.501    30,570 kbps     00:45:32.463    125,126 bytes   376,566 bytes   00:45:08.372
6               0:48:01.879     0:03:29.809     29,992 kbps     35,152 kbps     00:50:49.312    30,973 kbps     00:50:04.801    30,569 kbps     00:50:16.513    125,091 bytes   393,244 bytes   00:49:58.495
7               0:51:31.688     0:01:09.135     30,021 kbps     32,974 kbps     00:51:32.722    30,633 kbps     00:51:32.789    30,338 kbps     00:51:31.788    125,213 bytes   344,696 bytes   00:51:44.701
8               0:52:40.824     0:20:57.990     30,000 kbps     37,067 kbps     00:53:44.354    31,480 kbps     00:54:35.272    30,763 kbps     01:09:43.946    125,127 bytes   422,682 bytes   01:09:53.822
9               1:13:38.814     0:10:19.819     30,000 kbps     34,785 kbps     01:15:27.222    30,992 kbps     01:15:23.218    30,522 kbps     01:15:18.213    125,124 bytes   312,404 bytes   01:23:48.523
10              1:23:58.633     0:05:49.349     30,000 kbps     36,332 kbps     01:27:35.783    31,337 kbps     01:27:53.635    30,655 kbps     01:27:26.774    125,126 bytes   311,987 bytes   01:27:36.351
11              1:29:47.982     0:08:55.868     30,000 kbps     37,196 kbps     01:36:59.113    31,745 kbps     01:36:55.109    30,732 kbps     01:36:50.104    125,127 bytes   352,672 bytes   01:36:28.048
12              1:38:43.851     0:04:12.485     29,993 kbps     42,019 kbps     01:42:44.691    32,353 kbps     01:42:40.687    31,134 kbps     01:42:35.682    125,097 bytes   462,321 bytes   01:42:45.325
13              1:42:56.336     0:00:09.042     4,014 kbps      6,164 kbps      01:42:56.737    4,436 kbps      01:42:56.737    0 kbps          00:00:00.000    16,743 bytes    133,442 bytes   01:43:05.345
14              1:43:05.379     0:00:06.039     4,001 kbps      6,031 kbps      01:43:06.246    4,364 kbps      01:43:05.846    0 kbps          00:00:00.000    16,782 bytes    133,467 bytes   01:43:06.313
STREAM DIAGNOSTICS:
File            PID             Type            Codec           Language                Seconds                 Bitrate                 Bytes           Packets
----            ---             ----            -----           --------                --------------          --------------          -------------   -----
00001.M2TS      4113 (0x1011)   0x1B            AVC                                     3091.555                30,001                  11,593,881,725  63,064,458
00001.M2TS      4352 (0x1100)   0x80            LPCM            und (Undetermined)      3091.555                2,311                   892,881,516     4,946,712
00001.M2TS      4353 (0x1101)   0x86            DTS-HD MA       und (Undetermined)      3091.555                3,667                   1,416,910,296   8,181,715
00006.M2TS      4113 (0x1011)   0x1B            AVC                                     3084.515                30,001                  11,567,480,237  62,920,814
00006.M2TS      4352 (0x1100)   0x80            LPCM            und (Undetermined)      3084.515                2,311                   890,848,364     4,935,448
00006.M2TS      4353 (0x1101)   0x86            DTS-HD MA       und (Undetermined)      3084.515                3,917                   1,510,398,596   8,689,208
00000.M2TS      4113 (0x1011)   0x1B            AVC                                     8.909                   4,075                   4,537,438       24,809
00005.M2TS      4113 (0x1011)   0x1B            AVC                                     5.906                   4,093                   3,021,881       16,516


QUICK SUMMARY:
Disc Title: BRAHMS - THE COMPLETE SYMPHONIES BD1
Disc Label: BRAHMS SYMPHONIES BD1
Disc Size: 41,024,367,708 bytes
Protection: AACS
Playlist: 00001.MPLS
Size: 29,373,536,256 bytes
Length: 1:43:11.418
Total Bitrate: 37.95 Mbps
Video: MPEG-4 AVC Video / 29937 kbps / 1080i / 29.970 fps / 16:9 / High Profile 4.1
Audio: Undetermined / LPCM Audio / 2.0 / 48 kHz /  2304 kbps / 24-bit
Audio: Undetermined / DTS-HD Master Audio / 5.0 / 48 kHz /  3782 kbps / 24-bit (DTS Core: 5.0 / 48 kHz /  1509 kbps / 24-bit)
********************
PLAYLIST: 00000.MPLS
********************

Код:

                                                                                Total   Video
Title                                                           Codec   Length  Movie Size      Disc Size       Bitrate Bitrate Main Audio Track                          Secondary Audio Track
-----                                                           ------  ------- --------------  --------------  ------- ------- ------------------                        ---------------------
00000.MPLS                                                      AVC     0:00:20 20,453,376      41,024,367,708  7.99    7.58

Код:
DISC INFO:
Disc Title:     BRAHMS - THE COMPLETE SYMPHONIES BD1
Disc Label:     BRAHMS SYMPHONIES BD1
Disc Size:      41,024,367,708 bytes
Protection:     AACS
BDInfo:         0.7.5.5
PLAYLIST REPORT:
Name:                   00000.MPLS
Length:                 0:00:20.487 (h:m:s.ms)
Size:                   20,453,376 bytes
Total Bitrate:          7.99 Mbps
VIDEO:
Codec                   Bitrate             Description
-----                   -------             -----------
MPEG-4 AVC Video        7578 kbps           1080i / 29.970 fps / 16:9 / High Profile 4.1
FILES:
Name            Time In         Length          Size            Total Bitrate
----            -------         ------          ----            -------------
00004.M2TS      0:00:00.000     0:00:08.408     13,111,296      12,474
00005.M2TS      0:00:08.408     0:00:06.039     3,213,312       4,256
00012.M2TS      0:00:14.447     0:00:06.039     4,128,768       5,469
CHAPTERS:
Number          Time In         Length          Avg Video Rate  Max 1-Sec Rate  Max 1-Sec Time  Max 5-Sec Rate  Max 5-Sec Time  Max 10Sec Rate  Max 10Sec Time  Avg Frame Size  Max Frame Size  Max Frame Time
------          -------         ------          --------------  --------------  --------------  --------------  --------------  --------------  --------------  --------------  --------------  --------------
1               0:00:00.000     0:00:08.408     11,877 kbps     20,588 kbps     00:00:00.400    12,485 kbps     00:00:00.400    0 kbps          00:00:00.000    49,339 bytes    329,383 bytes   00:00:04.003
2               0:00:08.408     0:00:06.039     4,003 kbps      6,031 kbps      00:00:09.275    4,364 kbps      00:00:08.875    0 kbps          00:00:00.000    16,695 bytes    133,467 bytes   00:00:09.342
3               0:00:14.447     0:00:06.039     5,167 kbps      10,328 kbps     00:00:14.848    5,652 kbps      00:00:14.881    0 kbps          00:00:00.000    21,672 bytes    133,467 bytes   00:00:17.350
STREAM DIAGNOSTICS:
File            PID             Type            Codec           Language                Seconds                 Bitrate                 Bytes           Packets
----            ---             ----            -----           --------                --------------          --------------          -------------   -----
00004.M2TS      4113 (0x1011)   0x1B            AVC                                     8.275                   12,067                  12,481,688      67,975
00005.M2TS      4113 (0x1011)   0x1B            AVC                                     5.906                   4,093                   3,021,881       16,516
00012.M2TS      4113 (0x1011)   0x1B            AVC                                     5.906                   5,286                   3,902,053       21,294


QUICK SUMMARY:
Disc Title: BRAHMS - THE COMPLETE SYMPHONIES BD1
Disc Label: BRAHMS SYMPHONIES BD1
Disc Size: 41,024,367,708 bytes
Protection: AACS
Playlist: 00000.MPLS
Size: 20,453,376 bytes
Length: 0:00:20.487
Total Bitrate: 7.99 Mbps
Video: MPEG-4 AVC Video / 7578 kbps / 1080i / 29.970 fps / 16:9 / High Profile 4.1
********************
PLAYLIST: 00009.MPLS
********************

Код:

                                                                                Total   Video
Title                                                           Codec   Length  Movie Size      Disc Size       Bitrate Bitrate Main Audio Track                          Secondary Audio Track
-----                                                           ------  ------- --------------  --------------  ------- ------- ------------------                        ---------------------
00009.MPLS                                                      AVC     0:51:17 11,513,038,848  41,024,367,708  29.93   25.00   LPCM 2.0 1536Kbps (48kHz/16-bit)          LPCM 2.0 1536Kbps (48kHz/16-bit)

Код:
DISC INFO:
Disc Title:     BRAHMS - THE COMPLETE SYMPHONIES BD1
Disc Label:     BRAHMS SYMPHONIES BD1
Disc Size:      41,024,367,708 bytes
Protection:     AACS
BDInfo:         0.7.5.5
PLAYLIST REPORT:
Name:                   00009.MPLS
Length:                 0:51:17.007 (h:m:s.ms)
Size:                   11,513,038,848 bytes
Total Bitrate:          29.93 Mbps
VIDEO:
Codec                   Bitrate             Description
-----                   -------             -----------
MPEG-4 AVC Video        24995 kbps          1080i / 29.970 fps / 16:9 / High Profile 4.1
AUDIO:
Codec                           Language        Bitrate         Description
-----                           --------        -------         -----------
LPCM Audio                      German          1536 kbps       2.0 / 48 kHz /  1536 kbps / 16-bit
LPCM Audio                      German          1536 kbps       2.0 / 48 kHz /  1536 kbps / 16-bit
SUBTITLES:
Codec                           Language        Bitrate         Description
-----                           --------        -------         -----------
Presentation Graphics           English         28.764 kbps
Presentation Graphics           Korean          27.820 kbps
Presentation Graphics           Japanese        22.251 kbps
FILES:
Name            Time In         Length          Size            Total Bitrate
----            -------         ------          ----            -------------
00014.M2TS      0:00:00.000     0:51:17.007     11,513,038,848  29,933
CHAPTERS:
Number          Time In         Length          Avg Video Rate  Max 1-Sec Rate  Max 1-Sec Time  Max 5-Sec Rate  Max 5-Sec Time  Max 10Sec Rate  Max 10Sec Time  Avg Frame Size  Max Frame Size  Max Frame Time
------          -------         ------          --------------  --------------  --------------  --------------  --------------  --------------  --------------  --------------  --------------  --------------
1               0:00:00.000     0:06:54.413     23,950 kbps     39,890 kbps     00:05:20.253    34,868 kbps     00:05:16.249    34,276 kbps     00:05:11.244    99,885 bytes    326,388 bytes   00:06:23.116
2               0:06:54.413     0:11:50.710     23,981 kbps     36,590 kbps     00:07:39.091    34,198 kbps     00:07:35.121    33,902 kbps     00:16:57.816    100,020 bytes   347,115 bytes   00:16:52.511
3               0:18:45.124     0:08:59.538     21,721 kbps     36,959 kbps     00:22:25.243    34,441 kbps     00:22:21.239    33,851 kbps     00:20:15.647    90,593 bytes    358,205 bytes   00:22:25.877
4               0:27:44.663     0:07:23.976     26,823 kbps     36,733 kbps     00:30:57.222    34,225 kbps     00:30:53.218    33,897 kbps     00:29:04.375    111,873 bytes   324,842 bytes   00:29:14.119
5               0:35:08.639     0:16:08.367     27,173 kbps     40,662 kbps     00:51:00.991    35,030 kbps     00:50:57.020    34,276 kbps     00:50:23.286    113,337 bytes   317,797 bytes   00:47:04.354
STREAM DIAGNOSTICS:
File            PID             Type            Codec           Language                Seconds                 Bitrate                 Bytes           Packets
----            ---             ----            -----           --------                --------------          --------------          -------------   -----
00014.M2TS      4113 (0x1011)   0x1B            AVC                                     3076.874                24,996                  9,613,730,300   52,302,324
00014.M2TS      4352 (0x1100)   0x80            LPCM            deu (German)            3076.874                1,542                   593,248,492     3,692,418
00014.M2TS      4353 (0x1101)   0x80            LPCM            deu (German)            3076.874                1,542                   593,248,492     3,692,418
00014.M2TS      4608 (0x1200)   0x90            PGS             eng (English)           3076.874                29                      11,063,346      63,023
00014.M2TS      4609 (0x1201)   0x90            PGS             kor (Korean)            3076.874                28                      10,700,477      61,051
00014.M2TS      4610 (0x1202)   0x90            PGS             jpn (Japanese)          3076.874                22                      8,558,405       49,413


QUICK SUMMARY:
Disc Title: BRAHMS - THE COMPLETE SYMPHONIES BD1
Disc Label: BRAHMS SYMPHONIES BD1
Disc Size: 41,024,367,708 bytes
Protection: AACS
Playlist: 00009.MPLS
Size: 11,513,038,848 bytes
Length: 0:51:17.007
Total Bitrate: 29.93 Mbps
Video: MPEG-4 AVC Video / 24995 kbps / 1080i / 29.970 fps / 16:9 / High Profile 4.1
Audio: German / LPCM Audio / 2.0 / 48 kHz /  1536 kbps / 16-bit
Audio: German / LPCM Audio / 2.0 / 48 kHz /  1536 kbps / 16-bit
Subtitle: English / 28.764 kbps
Subtitle: Korean / 27.820 kbps
Subtitle: Japanese / 22.251 kbps

Скриншоты












Disc 2
Продолжительность: 01:30:07
Треклист:
Symphony №3
Recorded at the NHK Hall Tokyo 2013
I Allegro Con Brio
II Andante
III Poco Allegretto
IV Allegro
Symphony №4
Recorded at the Semperoper Dresden 2013
I Allegro Non Troppo
II Andante Moderato
III Allegro Giocoso
IV Allegro Energico E Passionato
Видео: MPEG-4 AVC Video / 21943 kbps / 1080i / 29.970 fps / 16:9 / High Profile 4.1
Аудио#1: LPCM Audio / 2.0 / 48 kHz / 2304 kbps / 24-bit
Аудио#2: DTS-HD Master Audio / 5.1 / 48 kHz / 3877 kbps / 24-bit (DTS Core: 5.1 / 48 kHz / 1509 kbps / 24-bit)
BDInfo

Disc Title:     BRAHMS - THE COMPLETE SYMPHONIES BD2
Disc Label:     BRAHMS SYMPHONIES BD2
Disc Size:      21,717,770,044 bytes
Protection:     AACS
BDInfo:         0.7.5.5
Notes:
BDINFO HOME:
  Cinema Squid (old)
    http://www.cinemasquid.com/blu-ray/tools/bdinfo
  UniqProject GitHub (new)
   https://github.com/UniqProject/BDInfo
INCLUDES FORUMS REPORT FOR:
  AVS Forum Blu-ray Audio and Video Specifications Thread
    http://www.avsforum.com/avs-vb/showthread.php?t=1155731
********************
PLAYLIST: 00001.MPLS
********************

Код:

                                                                                Total   Video
Title                                                           Codec   Length  Movie Size      Disc Size       Bitrate Bitrate Main Audio Track                          Secondary Audio Track
-----                                                           ------  ------- --------------  --------------  ------- ------- ------------------                        ---------------------
00001.MPLS                                                      AVC     1:30:07 20,081,485,824  21,717,770,044  29.71   21.94   LPCM 2.0 2304Kbps (48kHz/24-bit)          DTS-HD Master 5.1 3877Kbps (48kHz/24-bit)

Код:
DISC INFO:
Disc Title:     BRAHMS - THE COMPLETE SYMPHONIES BD2
Disc Label:     BRAHMS SYMPHONIES BD2
Disc Size:      21,717,770,044 bytes
Protection:     AACS
BDInfo:         0.7.5.5
PLAYLIST REPORT:
Name:                   00001.MPLS
Length:                 1:30:07.235 (h:m:s.ms)
Size:                   20,081,485,824 bytes
Total Bitrate:          29.71 Mbps
VIDEO:
Codec                   Bitrate             Description
-----                   -------             -----------
MPEG-4 AVC Video        21943 kbps          1080i / 29.970 fps / 16:9 / High Profile 4.1
AUDIO:
Codec                           Language        Bitrate         Description
-----                           --------        -------         -----------
LPCM Audio                      Undetermined    2304 kbps       2.0 / 48 kHz /  2304 kbps / 24-bit
DTS-HD Master Audio             Undetermined    3877 kbps       5.1 / 48 kHz /  3877 kbps / 24-bit (DTS Core: 5.1 / 48 kHz /  1509 kbps / 24-bit)
FILES:
Name            Time In         Length          Size            Total Bitrate
----            -------         ------          ----            -------------
00001.M2TS      0:00:00.000     0:44:48.919     9,903,777,792   29,465
00006.M2TS      0:44:48.919     0:45:03.233     10,169,671,680  30,096
00000.M2TS      1:29:52.153     0:00:09.042     4,823,040       4,267
00005.M2TS      1:30:01.195     0:00:06.039     3,213,312       4,256
CHAPTERS:
Number          Time In         Length          Avg Video Rate  Max 1-Sec Rate  Max 1-Sec Time  Max 5-Sec Rate  Max 5-Sec Time  Max 10Sec Rate  Max 10Sec Time  Avg Frame Size  Max Frame Size  Max Frame Time
------          -------         ------          --------------  --------------  --------------  --------------  --------------  --------------  --------------  --------------  --------------  --------------
1               0:00:00.000     0:02:08.995     22,714 kbps     32,920 kbps     00:02:06.793    30,484 kbps     00:02:02.822    29,934 kbps     00:01:14.974    94,712 bytes    412,995 bytes   00:01:03.596
2               0:02:08.995     0:13:57.970     22,128 kbps     33,481 kbps     00:14:10.216    30,377 kbps     00:05:24.023    29,964 kbps     00:13:24.904    92,293 bytes    332,995 bytes   00:05:28.594
3               0:16:06.966     0:09:01.540     20,896 kbps     32,926 kbps     00:20:28.760    30,369 kbps     00:20:24.690    29,907 kbps     00:20:05.504    87,152 bytes    377,149 bytes   00:22:07.059
4               0:25:08.506     0:07:07.427     21,809 kbps     32,577 kbps     00:25:38.770    30,343 kbps     00:25:34.766    30,128 kbps     00:25:29.761    90,962 bytes    355,422 bytes   00:27:31.983
5               0:32:15.934     0:09:12.551     22,372 kbps     33,810 kbps     00:34:48.786    30,590 kbps     00:34:44.782    29,953 kbps     00:33:29.340    93,309 bytes    352,805 bytes   00:33:19.464
6               0:41:28.485     0:03:20.433     23,214 kbps     33,055 kbps     00:43:20.931    30,582 kbps     00:43:16.927    30,065 kbps     00:42:04.088    96,821 bytes    371,361 bytes   00:42:23.774
7               0:44:48.919     0:01:07.067     21,223 kbps     33,693 kbps     00:45:49.179    30,227 kbps     00:45:45.175    29,016 kbps     00:45:42.206    88,520 bytes    327,320 bytes   00:44:59.997
8               0:45:55.986     0:12:49.301     22,270 kbps     31,563 kbps     00:47:45.629    30,190 kbps     00:47:41.658    29,968 kbps     00:47:36.653    92,885 bytes    294,519 bytes   00:51:42.732
9               0:58:45.288     0:11:10.469     21,062 kbps     28,472 kbps     01:00:00.697    27,423 kbps     01:09:16.051    26,892 kbps     01:02:32.148    87,845 bytes    276,533 bytes   01:02:32.115
10              1:09:55.758     0:06:22.181     22,316 kbps     30,730 kbps     01:13:02.945    29,192 kbps     01:13:08.083    28,927 kbps     01:13:02.945    93,076 bytes    266,387 bytes   01:13:02.778
11              1:16:17.940     0:09:30.436     22,021 kbps     31,217 kbps     01:20:44.406    30,116 kbps     01:20:40.302    29,923 kbps     01:20:37.999    91,845 bytes    288,006 bytes   01:21:55.443
12              1:25:48.376     0:04:03.776     23,384 kbps     30,707 kbps     01:26:27.415    30,030 kbps     01:26:25.580    29,349 kbps     01:26:25.146    97,533 bytes    293,871 bytes   01:27:16.798
13              1:29:52.153     0:00:09.042     4,014 kbps      6,164 kbps      01:29:52.553    4,436 kbps      01:29:52.553    0 kbps          00:00:00.000    16,743 bytes    133,442 bytes   01:30:01.162
14              1:30:01.195     0:00:06.039     4,001 kbps      6,031 kbps      01:30:02.063    4,364 kbps      01:30:01.662    0 kbps          00:00:00.000    16,782 bytes    133,467 bytes   01:30:02.130
STREAM DIAGNOSTICS:
File            PID             Type            Codec           Language                Seconds                 Bitrate                 Bytes           Packets
----            ---             ----            -----           --------                --------------          --------------          -------------   -----
00001.M2TS      4113 (0x1011)   0x1B            AVC                                     2688.786                21,989                  7,390,582,133   40,213,073
00001.M2TS      4352 (0x1100)   0x80            LPCM            und (Undetermined)      2688.786                2,311                   776,561,540     4,302,280
00001.M2TS      4353 (0x1101)   0x86            DTS-HD MA       und (Undetermined)      2688.786                3,591                   1,206,801,936   6,976,708
00006.M2TS      4113 (0x1011)   0x1B            AVC                                     2703.100                22,000                  7,433,468,595   40,446,449
00006.M2TS      4352 (0x1100)   0x80            LPCM            und (Undetermined)      2703.100                2,311                   780,695,712     4,325,184
00006.M2TS      4353 (0x1101)   0x86            DTS-HD MA       und (Undetermined)      2703.100                4,184                   1,413,686,300   8,104,807
00000.M2TS      4113 (0x1011)   0x1B            AVC                                     8.909                   4,075                   4,537,438       24,809
00005.M2TS      4113 (0x1011)   0x1B            AVC                                     5.906                   4,093                   3,021,881       16,516


QUICK SUMMARY:
Disc Title: BRAHMS - THE COMPLETE SYMPHONIES BD2
Disc Label: BRAHMS SYMPHONIES BD2
Disc Size: 21,717,770,044 bytes
Protection: AACS
Playlist: 00001.MPLS
Size: 20,081,485,824 bytes
Length: 1:30:07.235
Total Bitrate: 29.71 Mbps
Video: MPEG-4 AVC Video / 21943 kbps / 1080i / 29.970 fps / 16:9 / High Profile 4.1
Audio: Undetermined / LPCM Audio / 2.0 / 48 kHz /  2304 kbps / 24-bit
Audio: Undetermined / DTS-HD Master Audio / 5.1 / 48 kHz /  3877 kbps / 24-bit (DTS Core: 5.1 / 48 kHz /  1509 kbps / 24-bit)
********************
PLAYLIST: 00000.MPLS
********************

Код:

                                                                                Total   Video
Title                                                           Codec   Length  Movie Size      Disc Size       Bitrate Bitrate Main Audio Track                          Secondary Audio Track
-----                                                           ------  ------- --------------  --------------  ------- ------- ------------------                        ---------------------
00000.MPLS                                                      AVC     0:00:20 20,453,376      21,717,770,044  7.99    7.58

Код:
DISC INFO:
Disc Title:     BRAHMS - THE COMPLETE SYMPHONIES BD2
Disc Label:     BRAHMS SYMPHONIES BD2
Disc Size:      21,717,770,044 bytes
Protection:     AACS
BDInfo:         0.7.5.5
PLAYLIST REPORT:
Name:                   00000.MPLS
Length:                 0:00:20.487 (h:m:s.ms)
Size:                   20,453,376 bytes
Total Bitrate:          7.99 Mbps
VIDEO:
Codec                   Bitrate             Description
-----                   -------             -----------
MPEG-4 AVC Video        7578 kbps           1080i / 29.970 fps / 16:9 / High Profile 4.1
FILES:
Name            Time In         Length          Size            Total Bitrate
----            -------         ------          ----            -------------
00004.M2TS      0:00:00.000     0:00:08.408     13,111,296      12,474
00005.M2TS      0:00:08.408     0:00:06.039     3,213,312       4,256
00012.M2TS      0:00:14.447     0:00:06.039     4,128,768       5,469
CHAPTERS:
Number          Time In         Length          Avg Video Rate  Max 1-Sec Rate  Max 1-Sec Time  Max 5-Sec Rate  Max 5-Sec Time  Max 10Sec Rate  Max 10Sec Time  Avg Frame Size  Max Frame Size  Max Frame Time
------          -------         ------          --------------  --------------  --------------  --------------  --------------  --------------  --------------  --------------  --------------  --------------
1               0:00:00.000     0:00:08.408     11,877 kbps     20,588 kbps     00:00:00.400    12,485 kbps     00:00:00.400    0 kbps          00:00:00.000    49,339 bytes    329,383 bytes   00:00:04.003
2               0:00:08.408     0:00:06.039     4,003 kbps      6,031 kbps      00:00:09.275    4,364 kbps      00:00:08.875    0 kbps          00:00:00.000    16,695 bytes    133,467 bytes   00:00:09.342
3               0:00:14.447     0:00:06.039     5,167 kbps      10,328 kbps     00:00:14.848    5,652 kbps      00:00:14.881    0 kbps          00:00:00.000    21,672 bytes    133,467 bytes   00:00:17.350
STREAM DIAGNOSTICS:
File            PID             Type            Codec           Language                Seconds                 Bitrate                 Bytes           Packets
----            ---             ----            -----           --------                --------------          --------------          -------------   -----
00004.M2TS      4113 (0x1011)   0x1B            AVC                                     8.275                   12,067                  12,481,688      67,975
00005.M2TS      4113 (0x1011)   0x1B            AVC                                     5.906                   4,093                   3,021,881       16,516
00012.M2TS      4113 (0x1011)   0x1B            AVC                                     5.906                   5,286                   3,902,053       21,294


QUICK SUMMARY:
Disc Title: BRAHMS - THE COMPLETE SYMPHONIES BD2
Disc Label: BRAHMS SYMPHONIES BD2
Disc Size: 21,717,770,044 bytes
Protection: AACS
Playlist: 00000.MPLS
Size: 20,453,376 bytes
Length: 0:00:20.487
Total Bitrate: 7.99 Mbps
Video: MPEG-4 AVC Video / 7578 kbps / 1080i / 29.970 fps / 16:9 / High Profile 4.1
********************
PLAYLIST: 00002.MPLS
********************

Код:

                                                                                Total   Video
Title                                                           Codec   Length  Movie Size      Disc Size       Bitrate Bitrate Main Audio Track                          Secondary Audio Track
-----                                                           ------  ------- --------------  --------------  ------- ------- ------------------                        ---------------------
00002.MPLS                                                      AVC     0:03:23 466,360,320     21,717,770,044  18.36   13.99   LPCM 2.0 1536Kbps (48kHz/16-bit)          LPCM 2.0 1536Kbps (48kHz/16-bit)

Код:
DISC INFO:
Disc Title:     BRAHMS - THE COMPLETE SYMPHONIES BD2
Disc Label:     BRAHMS SYMPHONIES BD2
Disc Size:      21,717,770,044 bytes
Protection:     AACS
BDInfo:         0.7.5.5
PLAYLIST REPORT:
Name:                   00002.MPLS
Length:                 0:03:23.202 (h:m:s.ms)
Size:                   466,360,320 bytes
Total Bitrate:          18.36 Mbps
VIDEO:
Codec                   Bitrate             Description
-----                   -------             -----------
MPEG-4 AVC Video        13987 kbps          1080i / 29.970 fps / 16:9 / High Profile 4.1
AUDIO:
Codec                           Language        Bitrate         Description
-----                           --------        -------         -----------
LPCM Audio                      Undetermined    1536 kbps       2.0 / 48 kHz /  1536 kbps / 16-bit
LPCM Audio                      Undetermined    1536 kbps       2.0 / 48 kHz /  1536 kbps / 16-bit
FILES:
Name            Time In         Length          Size            Total Bitrate
----            -------         ------          ----            -------------
00002.M2TS      0:00:00.000     0:03:23.202     466,360,320     18,360
CHAPTERS:
Number          Time In         Length          Avg Video Rate  Max 1-Sec Rate  Max 1-Sec Time  Max 5-Sec Rate  Max 5-Sec Time  Max 10Sec Rate  Max 10Sec Time  Avg Frame Size  Max Frame Size  Max Frame Time
------          -------         ------          --------------  --------------  --------------  --------------  --------------  --------------  --------------  --------------  --------------  --------------
1               0:00:00.000     0:03:23.202     13,987 kbps     26,265 kbps     00:00:47.580    22,998 kbps     00:00:44.344    21,800 kbps     00:00:41.541    58,337 bytes    510,835 bytes   00:00:48.548
STREAM DIAGNOSTICS:
File            PID             Type            Codec           Language                Seconds                 Bitrate                 Bytes           Packets
----            ---             ----            -----           --------                --------------          --------------          -------------   -----
00002.M2TS      4113 (0x1011)   0x1B            AVC                                     203.103                 13,994                  355,274,550     1,934,447
00002.M2TS      4352 (0x1100)   0x80            LPCM            und (Undetermined)      203.103                 1,543                   39,177,924      243,846
00002.M2TS      4353 (0x1101)   0x80            LPCM            und (Undetermined)      203.103                 1,543                   39,177,924      243,846


QUICK SUMMARY:
Disc Title: BRAHMS - THE COMPLETE SYMPHONIES BD2
Disc Label: BRAHMS SYMPHONIES BD2
Disc Size: 21,717,770,044 bytes
Protection: AACS
Playlist: 00002.MPLS
Size: 466,360,320 bytes
Length: 0:03:23.202
Total Bitrate: 18.36 Mbps
Video: MPEG-4 AVC Video / 13987 kbps / 1080i / 29.970 fps / 16:9 / High Profile 4.1
Audio: Undetermined / LPCM Audio / 2.0 / 48 kHz /  1536 kbps / 16-bit
Audio: Undetermined / LPCM Audio / 2.0 / 48 kHz /  1536 kbps / 16-bit
********************
PLAYLIST: 00004.MPLS
********************

Код:

                                                                                Total   Video
Title                                                           Codec   Length  Movie Size      Disc Size       Bitrate Bitrate Main Audio Track                          Secondary Audio Track
-----                                                           ------  ------- --------------  --------------  ------- ------- ------------------                        ---------------------
00004.MPLS                                                      AVC     0:02:32 350,742,528     21,717,770,044  18.37   13.99   LPCM 2.0 1536Kbps (48kHz/16-bit)          LPCM 2.0 1536Kbps (48kHz/16-bit)

Код:
DISC INFO:
Disc Title:     BRAHMS - THE COMPLETE SYMPHONIES BD2
Disc Label:     BRAHMS SYMPHONIES BD2
Disc Size:      21,717,770,044 bytes
Protection:     AACS
BDInfo:         0.7.5.5
PLAYLIST REPORT:
Name:                   00004.MPLS
Length:                 0:02:32.752 (h:m:s.ms)
Size:                   350,742,528 bytes
Total Bitrate:          18.37 Mbps
VIDEO:
Codec                   Bitrate             Description
-----                   -------             -----------
MPEG-4 AVC Video        13993 kbps          1080i / 29.970 fps / 16:9 / High Profile 4.1
AUDIO:
Codec                           Language        Bitrate         Description
-----                           --------        -------         -----------
LPCM Audio                      Undetermined    1536 kbps       2.0 / 48 kHz /  1536 kbps / 16-bit
LPCM Audio                      Undetermined    1536 kbps       2.0 / 48 kHz /  1536 kbps / 16-bit
FILES:
Name            Time In         Length          Size            Total Bitrate
----            -------         ------          ----            -------------
00009.M2TS      0:00:00.000     0:02:32.752     350,742,528     18,369
CHAPTERS:
Number          Time In         Length          Avg Video Rate  Max 1-Sec Rate  Max 1-Sec Time  Max 5-Sec Rate  Max 5-Sec Time  Max 10Sec Rate  Max 10Sec Time  Avg Frame Size  Max Frame Size  Max Frame Time
------          -------         ------          --------------  --------------  --------------  --------------  --------------  --------------  --------------  --------------  --------------  --------------
1               0:00:00.000     0:02:31.551     14,082 kbps     30,757 kbps     00:00:29.329    22,432 kbps     00:00:17.684    19,267 kbps     00:00:58.758    58,722 bytes    602,109 bytes   00:01:12.672
2               0:02:31.551     0:00:01.201     2,738 kbps      2,937 kbps      00:02:31.718    0 kbps          00:00:00.000    0 kbps          00:00:00.000    11,748 bytes    37,699 bytes    00:02:32.352
STREAM DIAGNOSTICS:
File            PID             Type            Codec           Language                Seconds                 Bitrate                 Bytes           Packets
----            ---             ----            -----           --------                --------------          --------------          -------------   -----
00009.M2TS      4113 (0x1011)   0x1B            AVC                                     152.653                 14,002                  267,183,454     1,454,731
00009.M2TS      4352 (0x1100)   0x80            LPCM            und (Undetermined)      152.653                 1,545                   29,475,264      183,456
00009.M2TS      4353 (0x1101)   0x80            LPCM            und (Undetermined)      152.653                 1,545                   29,475,264      183,456


QUICK SUMMARY:
Disc Title: BRAHMS - THE COMPLETE SYMPHONIES BD2
Disc Label: BRAHMS SYMPHONIES BD2
Disc Size: 21,717,770,044 bytes
Protection: AACS
Playlist: 00004.MPLS
Size: 350,742,528 bytes
Length: 0:02:32.752
Total Bitrate: 18.37 Mbps
Video: MPEG-4 AVC Video / 13993 kbps / 1080i / 29.970 fps / 16:9 / High Profile 4.1
Audio: Undetermined / LPCM Audio / 2.0 / 48 kHz /  1536 kbps / 16-bit
Audio: Undetermined / LPCM Audio / 2.0 / 48 kHz /  1536 kbps / 16-bit
********************
PLAYLIST: 00003.MPLS
********************

Код:

                                                                                Total   Video
Title                                                           Codec   Length  Movie Size      Disc Size       Bitrate Bitrate Main Audio Track                          Secondary Audio Track
-----                                                           ------  ------- --------------  --------------  ------- ------- ------------------                        ---------------------
00003.MPLS                                                      AVC     0:01:38 329,877,504     21,717,770,044  26.71   21.99   LPCM 2.0 1536Kbps (48kHz/16-bit)          LPCM 2.0 1536Kbps (48kHz/16-bit)

Код:
DISC INFO:
Disc Title:     BRAHMS - THE COMPLETE SYMPHONIES BD2
Disc Label:     BRAHMS SYMPHONIES BD2
Disc Size:      21,717,770,044 bytes
Protection:     AACS
BDInfo:         0.7.5.5
PLAYLIST REPORT:
Name:                   00003.MPLS
Length:                 0:01:38.798 (h:m:s.ms)
Size:                   329,877,504 bytes
Total Bitrate:          26.71 Mbps
VIDEO:
Codec                   Bitrate             Description
-----                   -------             -----------
MPEG-4 AVC Video        21991 kbps          1080i / 29.970 fps / 16:9 / High Profile 4.1
AUDIO:
Codec                           Language        Bitrate         Description
-----                           --------        -------         -----------
LPCM Audio                      Undetermined    1536 kbps       2.0 / 48 kHz /  1536 kbps / 16-bit
LPCM Audio                      Undetermined    1536 kbps       2.0 / 48 kHz /  1536 kbps / 16-bit
FILES:
Name            Time In         Length          Size            Total Bitrate
----            -------         ------          ----            -------------
00008.M2TS      0:00:00.000     0:01:38.798     329,877,504     26,711
CHAPTERS:
Number          Time In         Length          Avg Video Rate  Max 1-Sec Rate  Max 1-Sec Time  Max 5-Sec Rate  Max 5-Sec Time  Max 10Sec Rate  Max 10Sec Time  Avg Frame Size  Max Frame Size  Max Frame Time
------          -------         ------          --------------  --------------  --------------  --------------  --------------  --------------  --------------  --------------  --------------  --------------
1               0:00:00.000     0:01:38.798     21,991 kbps     36,765 kbps     00:01:27.654    33,503 kbps     00:00:32.899    30,124 kbps     00:00:51.618    91,721 bytes    318,845 bytes   00:01:01.394
STREAM DIAGNOSTICS:
File            PID             Type            Codec           Language                Seconds                 Bitrate                 Bytes           Packets
----            ---             ----            -----           --------                --------------          --------------          -------------   -----
00008.M2TS      4113 (0x1011)   0x1B            AVC                                     98.665                  22,021                  271,585,574     1,477,735
00008.M2TS      4352 (0x1100)   0x80            LPCM            und (Undetermined)      98.665                  1,544                   19,042,856      118,524
00008.M2TS      4353 (0x1101)   0x80            LPCM            und (Undetermined)      98.665                  1,544                   19,042,856      118,524


QUICK SUMMARY:
Disc Title: BRAHMS - THE COMPLETE SYMPHONIES BD2
Disc Label: BRAHMS SYMPHONIES BD2
Disc Size: 21,717,770,044 bytes
Protection: AACS
Playlist: 00003.MPLS
Size: 329,877,504 bytes
Length: 0:01:38.798
Total Bitrate: 26.71 Mbps
Video: MPEG-4 AVC Video / 21991 kbps / 1080i / 29.970 fps / 16:9 / High Profile 4.1
Audio: Undetermined / LPCM Audio / 2.0 / 48 kHz /  1536 kbps / 16-bit
Audio: Undetermined / LPCM Audio / 2.0 / 48 kHz /  1536 kbps / 16-bit
********************
PLAYLIST: 00006.MPLS
********************

Код:

                                                                                Total   Video
Title                                                           Codec   Length  Movie Size      Disc Size       Bitrate Bitrate Main Audio Track                          Secondary Audio Track
-----                                                           ------  ------- --------------  --------------  ------- ------- ------------------                        ---------------------
00006.MPLS                                                      AVC     0:01:10 160,542,720     21,717,770,044  18.33   13.96   LPCM 2.0 1536Kbps (48kHz/16-bit)          LPCM 2.0 1536Kbps (48kHz/16-bit)

Код:
DISC INFO:
Disc Title:     BRAHMS - THE COMPLETE SYMPHONIES BD2
Disc Label:     BRAHMS SYMPHONIES BD2
Disc Size:      21,717,770,044 bytes
Protection:     AACS
BDInfo:         0.7.5.5
PLAYLIST REPORT:
Name:                   00006.MPLS
Length:                 0:01:10.070 (h:m:s.ms)
Size:                   160,542,720 bytes
Total Bitrate:          18.33 Mbps
VIDEO:
Codec                   Bitrate             Description
-----                   -------             -----------
MPEG-4 AVC Video        13957 kbps          1080i / 29.970 fps / 16:9 / High Profile 4.1
AUDIO:
Codec                           Language        Bitrate         Description
-----                           --------        -------         -----------
LPCM Audio                      Undetermined    1536 kbps       2.0 / 48 kHz /  1536 kbps / 16-bit
LPCM Audio                      Undetermined    1536 kbps       2.0 / 48 kHz /  1536 kbps / 16-bit
FILES:
Name            Time In         Length          Size            Total Bitrate
----            -------         ------          ----            -------------
00011.M2TS      0:00:00.000     0:01:10.070     160,542,720     18,329
CHAPTERS:
Number          Time In         Length          Avg Video Rate  Max 1-Sec Rate  Max 1-Sec Time  Max 5-Sec Rate  Max 5-Sec Time  Max 10Sec Rate  Max 10Sec Time  Avg Frame Size  Max Frame Size  Max Frame Time
------          -------         ------          --------------  --------------  --------------  --------------  --------------  --------------  --------------  --------------  --------------  --------------
1               0:00:00.000     0:01:10.070     13,957 kbps     25,512 kbps     00:00:20.353    20,174 kbps     00:00:32.832    19,637 kbps     00:00:28.962    58,213 bytes    526,531 bytes   00:00:18.151
STREAM DIAGNOSTICS:
File            PID             Type            Codec           Language                Seconds                 Bitrate                 Bytes           Packets
----            ---             ----            -----           --------                --------------          --------------          -------------   -----
00011.M2TS      4113 (0x1011)   0x1B            AVC                                     70.003                  13,971                  122,247,684     665,618
00011.M2TS      4352 (0x1100)   0x80            LPCM            und (Undetermined)      70.003                  1,544                   13,509,496      84,084
00011.M2TS      4353 (0x1101)   0x80            LPCM            und (Undetermined)      70.003                  1,544                   13,509,496      84,084


QUICK SUMMARY:
Disc Title: BRAHMS - THE COMPLETE SYMPHONIES BD2
Disc Label: BRAHMS SYMPHONIES BD2
Disc Size: 21,717,770,044 bytes
Protection: AACS
Playlist: 00006.MPLS
Size: 160,542,720 bytes
Length: 0:01:10.070
Total Bitrate: 18.33 Mbps
Video: MPEG-4 AVC Video / 13957 kbps / 1080i / 29.970 fps / 16:9 / High Profile 4.1
Audio: Undetermined / LPCM Audio / 2.0 / 48 kHz /  1536 kbps / 16-bit
Audio: Undetermined / LPCM Audio / 2.0 / 48 kHz /  1536 kbps / 16-bit
********************
PLAYLIST: 00005.MPLS
********************

Код:

                                                                                Total   Video
Title                                                           Codec   Length  Movie Size      Disc Size       Bitrate Bitrate Main Audio Track                          Secondary Audio Track
-----                                                           ------  ------- --------------  --------------  ------- ------- ------------------                        ---------------------
00005.MPLS                                                      AVC     0:00:52 175,147,008     21,717,770,044  26.71   21.99   LPCM 2.0 1536Kbps (48kHz/16-bit)          LPCM 2.0 1536Kbps (48kHz/16-bit)

Код:
DISC INFO:
Disc Title:     BRAHMS - THE COMPLETE SYMPHONIES BD2
Disc Label:     BRAHMS SYMPHONIES BD2
Disc Size:      21,717,770,044 bytes
Protection:     AACS
BDInfo:         0.7.5.5
PLAYLIST REPORT:
Name:                   00005.MPLS
Length:                 0:00:52.452 (h:m:s.ms)
Size:                   175,147,008 bytes
Total Bitrate:          26.71 Mbps
VIDEO:
Codec                   Bitrate             Description
-----                   -------             -----------
MPEG-4 AVC Video        21994 kbps          1080i / 29.970 fps / 16:9 / High Profile 4.1
AUDIO:
Codec                           Language        Bitrate         Description
-----                           --------        -------         -----------
LPCM Audio                      Undetermined    1536 kbps       2.0 / 48 kHz /  1536 kbps / 16-bit
LPCM Audio                      Undetermined    1536 kbps       2.0 / 48 kHz /  1536 kbps / 16-bit
FILES:
Name            Time In         Length          Size            Total Bitrate
----            -------         ------          ----            -------------
00010.M2TS      0:00:00.000     0:00:52.452     175,147,008     26,713
CHAPTERS:
Number          Time In         Length          Avg Video Rate  Max 1-Sec Rate  Max 1-Sec Time  Max 5-Sec Rate  Max 5-Sec Time  Max 10Sec Rate  Max 10Sec Time  Avg Frame Size  Max Frame Size  Max Frame Time
------          -------         ------          --------------  --------------  --------------  --------------  --------------  --------------  --------------  --------------  --------------  --------------
1               0:00:00.000     0:00:52.452     21,994 kbps     33,858 kbps     00:00:28.895    32,468 kbps     00:00:27.961    29,985 kbps     00:00:23.056    91,731 bytes    297,641 bytes   00:00:39.439
STREAM DIAGNOSTICS:
File            PID             Type            Codec           Language                Seconds                 Bitrate                 Bytes           Packets
----            ---             ----            -----           --------                --------------          --------------          -------------   -----
00010.M2TS      4113 (0x1011)   0x1B            AVC                                     52.319                  22,050                  144,201,789     784,568
00010.M2TS      4352 (0x1100)   0x80            LPCM            und (Undetermined)      52.319                  1,546                   10,113,324      62,946
00010.M2TS      4353 (0x1101)   0x80            LPCM            und (Undetermined)      52.319                  1,546                   10,113,324      62,946


QUICK SUMMARY:
Disc Title: BRAHMS - THE COMPLETE SYMPHONIES BD2
Disc Label: BRAHMS SYMPHONIES BD2
Disc Size: 21,717,770,044 bytes
Protection: AACS
Playlist: 00005.MPLS
Size: 175,147,008 bytes
Length: 0:00:52.452
Total Bitrate: 26.71 Mbps
Video: MPEG-4 AVC Video / 21994 kbps / 1080i / 29.970 fps / 16:9 / High Profile 4.1
Audio: Undetermined / LPCM Audio / 2.0 / 48 kHz /  1536 kbps / 16-bit
Audio: Undetermined / LPCM Audio / 2.0 / 48 kHz /  1536 kbps / 16-bit

Скриншоты












                                                                                       
                       
                       
                       
                       
                       
                                 磁力下载(论坛代下载服务)
                                                               
                                       
游客,本主题需向作者支付 10金币 才能浏览,金币充值, 免回复、免金币,直接查看内容请开通VIP支付

                                               
  • 58.43 GB
  • 温馨提示

    记得善用社区搜索功能,那里可能会有你想要的资源;论坛站内搜索

    如果你有什么需要的资源可以去资源求档发帖,求助社区的网友,我们会在第一时间给你回复哦;资源求档

    对于本社区网盘链接失效密码错误各种报错请在反馈板块反馈报错发帖,您的支持,是我们发展的最大动力;投诉建议

    回复

    使用道具 举报

    您需要登录后才可以回帖 登录 | 立即注册 微信登录

    本版积分规则

    关注0

    粉丝0

    帖子29431

    发布主题
    阅读排行更多+
    关闭

    站长推荐上一条 /1 下一条

    收藏帖子 返回列表 这是一个自定义按钮
    音乐分享,音乐下载。
    微信公众号
    微信号:maomiyinyue
    意见反馈:[email protected]

    加入我们的官方QQ群和微信群

    Powered by Discuz! X3.4 Archiver|手机版|小黑屋|猫咪音乐网 ( 苏ICP备20015413号 )|( 苏公网安备 32030502000272号) 繁體

    JS of wanmeiff.com and vcpic.com Please keep this copyright information, respect of, thank you!JS of wanmeiff.com and vcpic.com Please keep this copyright information, respect of, thank you!

    GMT+8, 2021-1-24 00:56