自购原抓音乐圈:只有自购、合购、原抓级高解析(hires、sacd、dsd)正版音乐资源分享!【点我打开
极速无线网卡:千兆无线网卡、服务器网卡、USB接口台式机笔记本网卡 千兆网线 厂家批发价格最低!【点我打开
广告

[古典音乐] 贝多芬 - 钢琴协奏曲1-5 - Mitsuko Uchida,Berliner Philharmoniker,Simon Rattle爵士[2018,古典,Blu-ray]

[复制链接]
如果有神 发表于 2020-12-20 20:46:29 | 显示全部楼层 |阅读模式 打印 上一主题 下一主题
Beethoven: Piano Concertos 1–5 - Mitsuko Uchida (piano), Berliner Philharmoniker, Sir Simon Rattle
Год выпуска: 2018
Лейбл: Berliner Philharmoniker
Страна-производитель: EU
Жанр: Classical
Продолжительность: 00:42:05 + 00:33:59 + 00:43:07 + 00:40:32 + 00:45:37 + 00:17:58 (Bonus Track)
Язык: German
Субтитры: German, Spanish, Korean, Japanese (Bonus Track Only)
Исполнители:
Mitsuko Uchida (piano), Berliner Philharmoniker, Sir Simon Rattle
Треклист: Beethoven: Piano Concertos Nos. 1-5
Описание: There is hardly a better way to approach Ludwig van Beethoven than through his piano concertos.
Beethoven’s own instrument was the piano, and in his improvisations – which made him the darling of the Viennese salons – he merged virtuosity and unbridled expression.
The piano concertos give a clear idea of these performances.
At the same time, they are prime examples of Beethoven’s ability to create large orchestral works with seemingly endless arcs of tension.
The complete recording of all five works with Mitsuko Uchida and Sir Simon Rattle was one of the most spectacular projects of the Berliner Philharmoniker during the Rattle era
– and at the same time the highlight of the collaboration between the orchestra and the pianist, which began in 1984.
The performances were given a rapturous reception in the auditorium and in the press – as one critic wrote, the audience was overwhelmed by a “collective sense of happiness”.
With vibrant freshness, the performances brought the whole combative energy of these works to life.
At the same time, they revealed Beethoven’s incomparable spirituality, which – according to Mitsuko Uchida – “allows us to see to the end of the universe”. - Presto Classical
Доп. информация:
https://www.berliner-philharmoniker-recordings.com/uchida-cd-bluray.html
https://www.prestomusic.com/classical/products/8520025--beethoven-piano-concertos-1-5
Качество видео: Blu-ray
Формат/Контейнер: BDMV
Видео кодек: H.264
Аудио кодек: PCM + DTS
Видео поток: MPEG-4 AVC Video / 17990 kbps / 1080i / 29.970 fps / 16:9 / High Profile 4.1
Аудио поток #1: German / LPCM Audio / 2.0 / 48 kHz / 1536 kbps / 16-bit
Аудио поток #2: German / DTS-HD Master Audio / 5.0 / 48 kHz / 3794 kbps / 24-bit (DTS Core: 5.0 / 48 kHz / 1509 kbps / 24-bit)
Скриншоты

















BDInfo
Disc Title: Beethoven - Piano Concertos 1-5 - Mitsuko Uchida, Berliner Philharmoniker, Sir Simon Rattle - 2018 Blu-ray
Disc Size: 41,646,842,888 bytes
Protection: AACS
BD-Java: No
BDInfo: 0.7.1
Notes:
BDINFO HOME:
Cinema Squid
http://www.cinemasquid.com/blu-ray/tools/bdinfo
INCLUDES FORUMS REPORT FOR:
AVS Forum Blu-ray Audio and Video Specifications Thread
http://www.avsforum.com/avs-vb/showthread.php?t=1155731
********************
PLAYLIST: 00004.MPLS
********************

Код:

                                                                                Total   Video
Title                                                           Codec   Length  Movie Size      Disc Size       Bitrate Bitrate Main Audio Track                          Secondary Audio Track
-----                                                           ------  ------- --------------  --------------  ------- ------- ------------------                        ---------------------
00004.MPLS                                                      AVC     0:45:37 8,519,030,784   41,646,842,888  24.89   17.99   LPCM 2.0 1536Kbps (48kHz/16-bit)          DTS-HD Master 5.0 3794Kbps (48kHz/24-bit)

Код:
DISC INFO:
Disc Title:     Beethoven - Piano Concertos 1-5 - Mitsuko Uchida, Berliner Philharmoniker, Sir Simon Rattle - 2018 Blu-ray
Disc Size:      41,646,842,888 bytes
Protection:     AACS
BD-Java:        No
BDInfo:         0.7.1
PLAYLIST REPORT:
Name:                   00004.MPLS
Length:                 0:45:37.868 (h:m:s.ms)
Size:                   8,519,030,784 bytes
Total Bitrate:          24.89 Mbps
VIDEO:
Codec                   Bitrate             Description
-----                   -------             -----------
MPEG-4 AVC Video        17990 kbps          1080i / 29.970 fps / 16:9 / High Profile 4.1
AUDIO:
Codec                           Language        Bitrate         Description
-----                           --------        -------         -----------
LPCM Audio                      German          1536 kbps       2.0 / 48 kHz / 1536 kbps / 16-bit
DTS-HD Master Audio             German          3794 kbps       5.0 / 48 kHz / 3794 kbps / 24-bit (DTS Core: 5.0 / 48 kHz / 1509 kbps / 24-bit)
FILES:
Name            Time In         Length          Size            Total Bitrate
----            -------         ------          ----            -------------
00000.M2TS      0:00:00.000     0:00:01.001     638,976         5,107
00006.M2TS      0:00:01.001     0:45:36.867     8,518,391,808   24,900
CHAPTERS:
Number          Time In         Length          Avg Video Rate  Max 1-Sec Rate  Max 1-Sec Time  Max 5-Sec Rate  Max 5-Sec Time  Max 10Sec Rate  Max 10Sec Time  Avg Frame Size  Max Frame Size  Max Frame Time
------          -------         ------          --------------  --------------  --------------  --------------  --------------  --------------  --------------  --------------  --------------  --------------
1               0:00:00.000     0:01:10.804     19,609 kbps     26,785 kbps     00:00:51.384    25,694 kbps     00:00:50.083    23,177 kbps     00:00:47.013    81,749 bytes    346,997 bytes   00:00:15.015
2               0:01:10.804     0:21:34.226     17,806 kbps     31,594 kbps     00:20:38.570    28,493 kbps     00:20:37.836    27,110 kbps     00:09:36.042    74,264 bytes    405,109 bytes   00:09:46.018
3               0:22:45.030     0:08:29.175     16,595 kbps     26,329 kbps     00:23:31.209    24,888 kbps     00:23:01.613    24,521 kbps     00:22:56.608    69,216 bytes    327,029 bytes   00:22:48.433
4               0:31:14.205     0:10:14.013     18,368 kbps     32,415 kbps     00:39:48.652    29,822 kbps     00:39:44.749    27,250 kbps     00:31:40.999    76,609 bytes    387,543 bytes   00:31:36.427
5               0:41:28.219     0:04:08.181     20,494 kbps     33,407 kbps     00:43:02.212    28,284 kbps     00:43:00.244    24,892 kbps     00:42:58.275    85,477 bytes    358,640 bytes   00:44:25.429
6               0:45:36.400     0:00:01.468     4,137 kbps      6,048 kbps      00:45:36.834    0 kbps          00:00:00.000    0 kbps          00:00:00.000    17,656 bytes    158,491 bytes   00:45:37.034
STREAM DIAGNOSTICS:
File            PID             Type            Codec           Language                Seconds                 Bitrate                 Bytes           Packets
----            ---             ----            -----           --------                --------------          --------------          -------------   -----
00000.M2TS      4113 (0x1011)   0x1B            AVC                                     0.868                   1,096                   118,874         650
00000.M2TS      4352 (0x1100)   0x80            LPCM            deu (German)            0.868                   1,778                   192,800         1,200
00000.M2TS      4353 (0x1101)   0x86            DTS-HD MA       deu (German)            0.868                   2,104                   228,188         1,410
00006.M2TS      4113 (0x1011)   0x1B            AVC                                     2736.734                17,997                  6,156,518,747   33,507,183
00006.M2TS      4352 (0x1100)   0x80            LPCM            deu (German)            2736.734                1,542                   527,675,284     3,284,286
00006.M2TS      4353 (0x1101)   0x86            DTS-HD MA       deu (German)            2736.734                3,795                   1,298,376,060   7,483,430

QUICK SUMMARY:
Disc Title: Beethoven - Piano Concertos 1-5 - Mitsuko Uchida, Berliner Philharmoniker, Sir Simon Rattle - 2018 Blu-ray
Disc Size: 41,646,842,888 bytes
Protection: AACS
BD-Java: No
Playlist: 00004.MPLS
Size: 8,519,030,784 bytes
Length: 0:45:37.868
Total Bitrate: 24.89 Mbps
Video: MPEG-4 AVC Video / 17990 kbps / 1080i / 29.970 fps / 16:9 / High Profile 4.1
Audio: German / LPCM Audio / 2.0 / 48 kHz / 1536 kbps / 16-bit
Audio: German / DTS-HD Master Audio / 5.0 / 48 kHz / 3794 kbps / 24-bit (DTS Core: 5.0 / 48 kHz / 1509 kbps / 24-bit)
********************
PLAYLIST: 00002.MPLS
********************

Код:

                                                                                Total   Video
Title                                                           Codec   Length  Movie Size      Disc Size       Bitrate Bitrate Main Audio Track                          Secondary Audio Track
-----                                                           ------  ------- --------------  --------------  ------- ------- ------------------                        ---------------------
00002.MPLS                                                      AVC     0:43:08 8,054,839,296   41,646,842,888  24.90   17.99   LPCM 2.0 1536Kbps (48kHz/16-bit)          DTS-HD Master 5.0 3793Kbps (48kHz/24-bit)

Код:
DISC INFO:
Disc Title:     Beethoven - Piano Concertos 1-5 - Mitsuko Uchida, Berliner Philharmoniker, Sir Simon Rattle - 2018 Blu-ray
Disc Size:      41,646,842,888 bytes
Protection:     AACS
BD-Java:        No
BDInfo:         0.7.1
PLAYLIST REPORT:
Name:                   00002.MPLS
Length:                 0:43:08.419 (h:m:s.ms)
Size:                   8,054,839,296 bytes
Total Bitrate:          24.90 Mbps
VIDEO:
Codec                   Bitrate             Description
-----                   -------             -----------
MPEG-4 AVC Video        17993 kbps          1080i / 29.970 fps / 16:9 / High Profile 4.1
AUDIO:
Codec                           Language        Bitrate         Description
-----                           --------        -------         -----------
LPCM Audio                      German          1536 kbps       2.0 / 48 kHz / 1536 kbps / 16-bit
DTS-HD Master Audio             German          3793 kbps       5.0 / 48 kHz / 3793 kbps / 24-bit (DTS Core: 5.0 / 48 kHz / 1509 kbps / 24-bit)
FILES:
Name            Time In         Length          Size            Total Bitrate
----            -------         ------          ----            -------------
00000.M2TS      0:00:00.000     0:00:01.001     638,976         5,107
00004.M2TS      0:00:01.001     0:43:07.418     8,054,200,320   24,903
CHAPTERS:
Number          Time In         Length          Avg Video Rate  Max 1-Sec Rate  Max 1-Sec Time  Max 5-Sec Rate  Max 5-Sec Time  Max 10Sec Rate  Max 10Sec Time  Avg Frame Size  Max Frame Size  Max Frame Time
------          -------         ------          --------------  --------------  --------------  --------------  --------------  --------------  --------------  --------------  --------------  --------------
1               0:00:00.000     0:00:36.836     18,322 kbps     30,262 kbps     00:00:18.952    27,506 kbps     00:00:17.050    24,683 kbps     00:00:15.815    76,347 bytes    315,062 bytes   00:00:11.011
2               0:00:36.836     0:18:21.300     17,766 kbps     31,602 kbps     00:01:33.059    30,632 kbps     00:01:29.089    30,512 kbps     00:01:24.084    74,098 bytes    446,433 bytes   00:13:32.077
3               0:18:58.136     0:10:40.706     16,435 kbps     29,141 kbps     00:29:34.706    23,782 kbps     00:27:16.434    23,450 kbps     00:27:11.429    68,547 bytes    412,531 bytes   00:23:44.356
4               0:29:38.843     0:09:19.225     18,099 kbps     30,322 kbps     00:37:18.769    27,317 kbps     00:37:14.765    26,972 kbps     00:37:09.794    75,487 bytes    411,767 bytes   00:36:04.529
5               0:38:58.069     0:04:08.948     22,724 kbps     36,492 kbps     00:39:55.993    33,737 kbps     00:39:52.823    30,765 kbps     00:39:48.819    94,777 bytes    425,882 bytes   00:39:29.433
6               0:43:07.017     0:00:01.401     16,922 kbps     20,020 kbps     00:43:07.017    0 kbps          00:00:00.000    0 kbps          00:00:00.000    72,299 bytes    249,912 bytes   00:43:07.685
STREAM DIAGNOSTICS:
File            PID             Type            Codec           Language                Seconds                 Bitrate                 Bytes           Packets
----            ---             ----            -----           --------                --------------          --------------          -------------   -----
00000.M2TS      4113 (0x1011)   0x1B            AVC                                     0.868                   1,096                   118,874         650
00000.M2TS      4352 (0x1100)   0x80            LPCM            deu (German)            0.868                   1,778                   192,800         1,200
00000.M2TS      4353 (0x1101)   0x86            DTS-HD MA       deu (German)            0.868                   2,104                   228,188         1,410
00004.M2TS      4113 (0x1011)   0x1B            AVC                                     2587.318                18,000                  5,821,400,656   31,683,287
00004.M2TS      4352 (0x1100)   0x80            LPCM            deu (German)            2587.318                1,542                   498,854,576     3,104,904
00004.M2TS      4353 (0x1101)   0x86            DTS-HD MA       deu (German)            2587.318                3,794                   1,227,092,108   7,074,041

QUICK SUMMARY:
Disc Title: Beethoven - Piano Concertos 1-5 - Mitsuko Uchida, Berliner Philharmoniker, Sir Simon Rattle - 2018 Blu-ray
Disc Size: 41,646,842,888 bytes
Protection: AACS
BD-Java: No
Playlist: 00002.MPLS
Size: 8,054,839,296 bytes
Length: 0:43:08.419
Total Bitrate: 24.90 Mbps
Video: MPEG-4 AVC Video / 17993 kbps / 1080i / 29.970 fps / 16:9 / High Profile 4.1
Audio: German / LPCM Audio / 2.0 / 48 kHz / 1536 kbps / 16-bit
Audio: German / DTS-HD Master Audio / 5.0 / 48 kHz / 3793 kbps / 24-bit (DTS Core: 5.0 / 48 kHz / 1509 kbps / 24-bit)
********************
PLAYLIST: 00000.MPLS
********************

Код:

                                                                                Total   Video
Title                                                           Codec   Length  Movie Size      Disc Size       Bitrate Bitrate Main Audio Track                          Secondary Audio Track
-----                                                           ------  ------- --------------  --------------  ------- ------- ------------------                        ---------------------
00000.MPLS                                                      AVC     0:42:05 7,850,403,840   41,646,842,888  24.86   17.99   LPCM 2.0 1536Kbps (48kHz/16-bit)          DTS-HD Master 5.0 3765Kbps (48kHz/24-bit)

Код:
DISC INFO:
Disc Title:     Beethoven - Piano Concertos 1-5 - Mitsuko Uchida, Berliner Philharmoniker, Sir Simon Rattle - 2018 Blu-ray
Disc Size:      41,646,842,888 bytes
Protection:     AACS
BD-Java:        No
BDInfo:         0.7.1
PLAYLIST REPORT:
Name:                   00000.MPLS
Length:                 0:42:05.823 (h:m:s.ms)
Size:                   7,850,403,840 bytes
Total Bitrate:          24.86 Mbps
VIDEO:
Codec                   Bitrate             Description
-----                   -------             -----------
MPEG-4 AVC Video        17991 kbps          1080i / 29.970 fps / 16:9 / High Profile 4.1
AUDIO:
Codec                           Language        Bitrate         Description
-----                           --------        -------         -----------
LPCM Audio                      German          1536 kbps       2.0 / 48 kHz / 1536 kbps / 16-bit
DTS-HD Master Audio             German          3765 kbps       5.0 / 48 kHz / 3765 kbps / 24-bit (DTS Core: 5.0 / 48 kHz / 1509 kbps / 24-bit)
FILES:
Name            Time In         Length          Size            Total Bitrate
----            -------         ------          ----            -------------
00000.M2TS      0:00:00.000     0:00:01.001     638,976         5,107
00002.M2TS      0:00:01.001     0:42:04.822     7,849,764,864   24,872
CHAPTERS:
Number          Time In         Length          Avg Video Rate  Max 1-Sec Rate  Max 1-Sec Time  Max 5-Sec Rate  Max 5-Sec Time  Max 10Sec Rate  Max 10Sec Time  Avg Frame Size  Max Frame Size  Max Frame Time
------          -------         ------          --------------  --------------  --------------  --------------  --------------  --------------  --------------  --------------  --------------  --------------
1               0:00:00.000     0:00:40.874     20,862 kbps     37,614 kbps     00:00:13.213    30,212 kbps     00:00:09.242    27,917 kbps     00:00:10.143    86,941 bytes    323,508 bytes   00:00:14.013
2               0:00:40.874     0:18:12.925     18,378 kbps     37,950 kbps     00:07:06.392    37,262 kbps     00:07:04.357    34,959 kbps     00:07:00.720    76,653 bytes    368,114 bytes   00:07:05.658
3               0:18:53.799     0:11:28.688     16,399 kbps     28,932 kbps     00:24:52.591    27,067 kbps     00:24:52.591    22,487 kbps     00:19:54.092    68,395 bytes    351,526 bytes   00:30:20.084
4               0:30:22.487     0:08:53.666     18,316 kbps     31,603 kbps     00:35:11.442    29,684 kbps     00:35:10.675    28,089 kbps     00:35:05.770    76,391 bytes    384,962 bytes   00:35:07.805
5               0:39:16.153     0:02:49.669     20,254 kbps     31,809 kbps     00:40:30.694    29,265 kbps     00:40:29.827    28,315 kbps     00:40:51.582    84,494 bytes    424,541 bytes   00:39:53.758
STREAM DIAGNOSTICS:
File            PID             Type            Codec           Language                Seconds                 Bitrate                 Bytes           Packets
----            ---             ----            -----           --------                --------------          --------------          -------------   -----
00000.M2TS      4113 (0x1011)   0x1B            AVC                                     0.868                   1,096                   118,874         650
00000.M2TS      4352 (0x1100)   0x80            LPCM            deu (German)            0.868                   1,778                   192,800         1,200
00000.M2TS      4353 (0x1101)   0x86            DTS-HD MA       deu (German)            0.868                   2,104                   228,188         1,410
00002.M2TS      4113 (0x1011)   0x1B            AVC                                     2524.689                17,999                  5,680,278,772   30,915,146
00002.M2TS      4352 (0x1100)   0x80            LPCM            deu (German)            2524.689                1,542                   486,786,260     3,029,790
00002.M2TS      4353 (0x1101)   0x86            DTS-HD MA       deu (German)            2524.689                3,766                   1,188,421,060   6,854,647

QUICK SUMMARY:
Disc Title: Beethoven - Piano Concertos 1-5 - Mitsuko Uchida, Berliner Philharmoniker, Sir Simon Rattle - 2018 Blu-ray
Disc Size: 41,646,842,888 bytes
Protection: AACS
BD-Java: No
Playlist: 00000.MPLS
Size: 7,850,403,840 bytes
Length: 0:42:05.823
Total Bitrate: 24.86 Mbps
Video: MPEG-4 AVC Video / 17991 kbps / 1080i / 29.970 fps / 16:9 / High Profile 4.1
Audio: German / LPCM Audio / 2.0 / 48 kHz / 1536 kbps / 16-bit
Audio: German / DTS-HD Master Audio / 5.0 / 48 kHz / 3765 kbps / 24-bit (DTS Core: 5.0 / 48 kHz / 1509 kbps / 24-bit)
********************
PLAYLIST: 00003.MPLS
********************

Код:

                                                                                Total   Video
Title                                                           Codec   Length  Movie Size      Disc Size       Bitrate Bitrate Main Audio Track                          Secondary Audio Track
-----                                                           ------  ------- --------------  --------------  ------- ------- ------------------                        ---------------------
00003.MPLS                                                      AVC     0:40:32 7,536,125,952   41,646,842,888  24.78   17.99   LPCM 2.0 1536Kbps (48kHz/16-bit)          DTS-HD Master 5.0 3684Kbps (48kHz/24-bit)

Код:
DISC INFO:
Disc Title:     Beethoven - Piano Concertos 1-5 - Mitsuko Uchida, Berliner Philharmoniker, Sir Simon Rattle - 2018 Blu-ray
Disc Size:      41,646,842,888 bytes
Protection:     AACS
BD-Java:        No
BDInfo:         0.7.1
PLAYLIST REPORT:
Name:                   00003.MPLS
Length:                 0:40:32.963 (h:m:s.ms)
Size:                   7,536,125,952 bytes
Total Bitrate:          24.78 Mbps
VIDEO:
Codec                   Bitrate             Description
-----                   -------             -----------
MPEG-4 AVC Video        17992 kbps          1080i / 29.970 fps / 16:9 / High Profile 4.1
AUDIO:
Codec                           Language        Bitrate         Description
-----                           --------        -------         -----------
LPCM Audio                      German          1536 kbps       2.0 / 48 kHz / 1536 kbps / 16-bit
DTS-HD Master Audio             German          3684 kbps       5.0 / 48 kHz / 3684 kbps / 24-bit (DTS Core: 5.0 / 48 kHz / 1509 kbps / 24-bit)
FILES:
Name            Time In         Length          Size            Total Bitrate
----            -------         ------          ----            -------------
00000.M2TS      0:00:00.000     0:00:01.001     638,976         5,107
00005.M2TS      0:00:01.001     0:40:31.962     7,535,486,976   24,788
CHAPTERS:
Number          Time In         Length          Avg Video Rate  Max 1-Sec Rate  Max 1-Sec Time  Max 5-Sec Rate  Max 5-Sec Time  Max 10Sec Rate  Max 10Sec Time  Avg Frame Size  Max Frame Size  Max Frame Time
------          -------         ------          --------------  --------------  --------------  --------------  --------------  --------------  --------------  --------------  --------------  --------------
1               0:00:00.000     0:00:48.047     20,857 kbps     37,879 kbps     00:00:17.517    33,737 kbps     00:00:15.148    29,571 kbps     00:00:13.713    86,932 bytes    330,958 bytes   00:00:36.136
2               0:00:48.047     0:20:41.740     17,771 kbps     33,550 kbps     00:01:54.013    32,108 kbps     00:01:51.544    30,135 kbps     00:01:48.675    74,119 bytes    431,675 bytes   00:08:13.125
3               0:21:29.788     0:05:30.830     16,280 kbps     26,924 kbps     00:23:31.576    25,285 kbps     00:23:24.369    23,361 kbps     00:22:20.338    67,901 bytes    301,894 bytes   00:23:32.411
4               0:27:00.619     0:10:09.575     18,322 kbps     34,120 kbps     00:37:06.324    32,714 kbps     00:37:03.621    29,588 kbps     00:37:00.184    76,419 bytes    359,415 bytes   00:36:47.605
5               0:37:10.194     0:03:21.668     20,561 kbps     37,072 kbps     00:38:38.416    34,216 kbps     00:38:37.348    31,335 kbps     00:37:22.139    85,756 bytes    347,382 bytes   00:39:00.137
6               0:40:31.862     0:00:01.101     4,210 kbps      4,628 kbps      00:40:31.929    0 kbps          00:00:00.000    0 kbps          00:00:00.000    18,107 bytes    158,463 bytes   00:40:32.930
STREAM DIAGNOSTICS:
File            PID             Type            Codec           Language                Seconds                 Bitrate                 Bytes           Packets
----            ---             ----            -----           --------                --------------          --------------          -------------   -----
00000.M2TS      4113 (0x1011)   0x1B            AVC                                     0.868                   1,096                   118,874         650
00000.M2TS      4352 (0x1100)   0x80            LPCM            deu (German)            0.868                   1,778                   192,800         1,200
00000.M2TS      4353 (0x1101)   0x86            DTS-HD MA       deu (German)            0.868                   2,104                   228,188         1,410
00005.M2TS      4113 (0x1011)   0x1B            AVC                                     2431.829                18,000                  5,471,716,793   29,780,110
00005.M2TS      4352 (0x1100)   0x80            LPCM            deu (German)            2431.829                1,543                   468,889,600     2,918,400
00005.M2TS      4353 (0x1101)   0x86            DTS-HD MA       deu (German)            2431.829                3,685                   1,120,248,108   6,467,323

QUICK SUMMARY:
Disc Title: Beethoven - Piano Concertos 1-5 - Mitsuko Uchida, Berliner Philharmoniker, Sir Simon Rattle - 2018 Blu-ray
Disc Size: 41,646,842,888 bytes
Protection: AACS
BD-Java: No
Playlist: 00003.MPLS
Size: 7,536,125,952 bytes
Length: 0:40:32.963
Total Bitrate: 24.78 Mbps
Video: MPEG-4 AVC Video / 17992 kbps / 1080i / 29.970 fps / 16:9 / High Profile 4.1
Audio: German / LPCM Audio / 2.0 / 48 kHz / 1536 kbps / 16-bit
Audio: German / DTS-HD Master Audio / 5.0 / 48 kHz / 3684 kbps / 24-bit (DTS Core: 5.0 / 48 kHz / 1509 kbps / 24-bit)
********************
PLAYLIST: 00001.MPLS
********************

Код:

                                                                                Total   Video
Title                                                           Codec   Length  Movie Size      Disc Size       Bitrate Bitrate Main Audio Track                          Secondary Audio Track
-----                                                           ------  ------- --------------  --------------  ------- ------- ------------------                        ---------------------
00001.MPLS                                                      AVC     0:33:59 6,337,812,480   41,646,842,888  24.86   17.99   LPCM 2.0 1536Kbps (48kHz/16-bit)          DTS-HD Master 5.0 3765Kbps (48kHz/24-bit)

Код:
DISC INFO:
Disc Title:     Beethoven - Piano Concertos 1-5 - Mitsuko Uchida, Berliner Philharmoniker, Sir Simon Rattle - 2018 Blu-ray
Disc Size:      41,646,842,888 bytes
Protection:     AACS
BD-Java:        No
BDInfo:         0.7.1
PLAYLIST REPORT:
Name:                   00001.MPLS
Length:                 0:33:59.237 (h:m:s.ms)
Size:                   6,337,812,480 bytes
Total Bitrate:          24.86 Mbps
VIDEO:
Codec                   Bitrate             Description
-----                   -------             -----------
MPEG-4 AVC Video        17991 kbps          1080i / 29.970 fps / 16:9 / High Profile 4.1
AUDIO:
Codec                           Language        Bitrate         Description
-----                           --------        -------         -----------
LPCM Audio                      German          1536 kbps       2.0 / 48 kHz / 1536 kbps / 16-bit
DTS-HD Master Audio             German          3765 kbps       5.0 / 48 kHz / 3765 kbps / 24-bit (DTS Core: 5.0 / 48 kHz / 1509 kbps / 24-bit)
FILES:
Name            Time In         Length          Size            Total Bitrate
----            -------         ------          ----            -------------
00000.M2TS      0:00:00.000     0:00:01.001     638,976         5,107
00003.M2TS      0:00:01.001     0:33:58.236     6,337,173,504   24,873
CHAPTERS:
Number          Time In         Length          Avg Video Rate  Max 1-Sec Rate  Max 1-Sec Time  Max 5-Sec Rate  Max 5-Sec Time  Max 10Sec Rate  Max 10Sec Time  Avg Frame Size  Max Frame Size  Max Frame Time
------          -------         ------          --------------  --------------  --------------  --------------  --------------  --------------  --------------  --------------  --------------  --------------
1               0:00:00.000     0:00:40.540     17,992 kbps     30,265 kbps     00:00:17.751    26,778 kbps     00:00:15.815    23,667 kbps     00:00:15.215    74,980 bytes    341,640 bytes   00:00:22.622
2               0:00:40.540     0:15:18.484     17,877 kbps     29,734 kbps     00:03:13.226    26,960 kbps     00:03:10.256    26,030 kbps     00:03:05.485    74,562 bytes    421,312 bytes   00:04:38.177
3               0:15:59.024     0:09:20.493     16,317 kbps     25,524 kbps     00:18:29.208    23,688 kbps     00:18:27.039    23,216 kbps     00:18:29.107    68,054 bytes    426,653 bytes   00:25:12.310
4               0:25:19.518     0:06:17.643     18,756 kbps     28,670 kbps     00:27:36.755    27,416 kbps     00:27:36.755    26,532 kbps     00:27:36.755    78,229 bytes    392,891 bytes   00:31:35.727
5               0:31:37.161     0:02:22.075     23,295 kbps     32,363 kbps     00:32:04.923    29,700 kbps     00:32:05.123    27,361 kbps     00:32:19.103    97,183 bytes    409,314 bytes   00:33:41.853
STREAM DIAGNOSTICS:
File            PID             Type            Codec           Language                Seconds                 Bitrate                 Bytes           Packets
----            ---             ----            -----           --------                --------------          --------------          -------------   -----
00000.M2TS      4113 (0x1011)   0x1B            AVC                                     0.868                   1,096                   118,874         650
00000.M2TS      4352 (0x1100)   0x80            LPCM            deu (German)            0.868                   1,778                   192,800         1,200
00000.M2TS      4353 (0x1101)   0x86            DTS-HD MA       deu (German)            0.868                   2,104                   228,188         1,410
00003.M2TS      4113 (0x1011)   0x1B            AVC                                     2038.103                18,000                  4,585,787,703   24,958,481
00003.M2TS      4352 (0x1100)   0x80            LPCM            deu (German)            2038.103                1,543                   392,972,672     2,445,888
00003.M2TS      4353 (0x1101)   0x86            DTS-HD MA       deu (German)            2038.103                3,766                   959,492,352     5,533,430

QUICK SUMMARY:
Disc Title: Beethoven - Piano Concertos 1-5 - Mitsuko Uchida, Berliner Philharmoniker, Sir Simon Rattle - 2018 Blu-ray
Disc Size: 41,646,842,888 bytes
Protection: AACS
BD-Java: No
Playlist: 00001.MPLS
Size: 6,337,812,480 bytes
Length: 0:33:59.237
Total Bitrate: 24.86 Mbps
Video: MPEG-4 AVC Video / 17991 kbps / 1080i / 29.970 fps / 16:9 / High Profile 4.1
Audio: German / LPCM Audio / 2.0 / 48 kHz / 1536 kbps / 16-bit
Audio: German / DTS-HD Master Audio / 5.0 / 48 kHz / 3765 kbps / 24-bit (DTS Core: 5.0 / 48 kHz / 1509 kbps / 24-bit)
********************
PLAYLIST: 00005.MPLS
********************

Код:

                                                                                Total   Video
Title                                                           Codec   Length  Movie Size      Disc Size       Bitrate Bitrate Main Audio Track                          Secondary Audio Track
-----                                                           ------  ------- --------------  --------------  ------- ------- ------------------                        ---------------------
00005.MPLS                                                      AVC     0:17:59 2,900,189,184   41,646,842,888  21.49   17.98   LPCM 2.0 2304Kbps (48kHz/24-bit)

Код:
DISC INFO:
Disc Title:     Beethoven - Piano Concertos 1-5 - Mitsuko Uchida, Berliner Philharmoniker, Sir Simon Rattle - 2018 Blu-ray
Disc Size:      41,646,842,888 bytes
Protection:     AACS
BD-Java:        No
BDInfo:         0.7.1
PLAYLIST REPORT:
Name:                   00005.MPLS
Length:                 0:17:59.545 (h:m:s.ms)
Size:                   2,900,189,184 bytes
Total Bitrate:          21.49 Mbps
VIDEO:
Codec                   Bitrate             Description
-----                   -------             -----------
MPEG-4 AVC Video        17982 kbps          1080i / 29.970 fps / 16:9 / High Profile 4.1
AUDIO:
Codec                           Language        Bitrate         Description
-----                           --------        -------         -----------
LPCM Audio                      English         2304 kbps       2.0 / 48 kHz / 2304 kbps / 24-bit
SUBTITLES:
Codec                           Language        Bitrate         Description
-----                           --------        -------         -----------
Presentation Graphics           German          50.440 kbps
Presentation Graphics           Spanish         48.351 kbps
Presentation Graphics           Korean          42.663 kbps
Presentation Graphics           Japanese        36.262 kbps
FILES:
Name            Time In         Length          Size            Total Bitrate
----            -------         ------          ----            -------------
00001.M2TS      0:00:00.000     0:00:01.001     362,496         2,897
00007.M2TS      0:00:01.001     0:17:58.544     2,899,826,688   21,509
CHAPTERS:
Number          Time In         Length          Avg Video Rate  Max 1-Sec Rate  Max 1-Sec Time  Max 5-Sec Rate  Max 5-Sec Time  Max 10Sec Rate  Max 10Sec Time  Avg Frame Size  Max Frame Size  Max Frame Time
------          -------         ------          --------------  --------------  --------------  --------------  --------------  --------------  --------------  --------------  --------------  --------------
1               0:00:00.000     0:17:59.545     17,982 kbps     29,011 kbps     00:03:03.216    25,309 kbps     00:03:02.015    22,460 kbps     00:14:06.145    74,998 bytes    234,629 bytes   00:09:53.793
STREAM DIAGNOSTICS:
File            PID             Type            Codec           Language                Seconds                 Bitrate                 Bytes           Packets
----            ---             ----            -----           --------                --------------          --------------          -------------   -----
00001.M2TS      4113 (0x1011)   0x1B            AVC                                     0.868                   1,096                   118,874         650
00001.M2TS      4352 (0x1100)   0x80            LPCM            eng (English)           0.868                   1,778                   192,800         1,200
00007.M2TS      4113 (0x1011)   0x1B            AVC                                     1078.411                18,000                  2,426,381,753   13,205,718
00007.M2TS      4352 (0x1100)   0x80            LPCM            eng (English)           1078.411                2,311                   311,483,796     1,725,672
00007.M2TS      4608 (0x1200)   0x90            PGS             deu (German)            1078.411                50                      6,806,597       38,324
00007.M2TS      4609 (0x1201)   0x90            PGS             spa (Spanish)           1078.411                48                      6,524,683       36,818
00007.M2TS      4610 (0x1202)   0x90            PGS             kor (Korean)            1078.411                43                      5,757,076       32,635
00007.M2TS      4611 (0x1203)   0x90            PGS             jpn (Japanese)          1078.411                36                      4,893,270       27,951

QUICK SUMMARY:
Disc Title: Beethoven - Piano Concertos 1-5 - Mitsuko Uchida, Berliner Philharmoniker, Sir Simon Rattle - 2018 Blu-ray
Disc Size: 41,646,842,888 bytes
Protection: AACS
BD-Java: No
Playlist: 00005.MPLS
Size: 2,900,189,184 bytes
Length: 0:17:59.545
Total Bitrate: 21.49 Mbps
Video: MPEG-4 AVC Video / 17982 kbps / 1080i / 29.970 fps / 16:9 / High Profile 4.1
Audio: English / LPCM Audio / 2.0 / 48 kHz / 2304 kbps / 24-bit
Subtitle: German / 50.440 kbps
Subtitle: Spanish / 48.351 kbps
Subtitle: Korean / 42.663 kbps
Subtitle: Japanese / 36.262 kbps
                                                                                       
                       
                       
                       
                       
                       
                                 磁力下载(论坛代下载服务)
                                                               
                                       
游客,本主题需向作者支付 10金币 才能浏览,金币充值, 免回复、免金币,直接查看内容请开通VIP支付

                                               
  • 38.79 GB
  • 温馨提示

    记得善用社区搜索功能,那里可能会有你想要的资源;论坛站内搜索

    如果你有什么需要的资源可以去资源求档发帖,求助社区的网友,我们会在第一时间给你回复哦;资源求档

    对于本社区网盘链接失效密码错误各种报错请在反馈板块反馈报错发帖,您的支持,是我们发展的最大动力;投诉建议

    回复

    使用道具 举报

    您需要登录后才可以回帖 登录 | 立即注册 微信登录

    本版积分规则

    关注0

    粉丝0

    帖子29431

    发布主题
    阅读排行更多+
    关闭

    站长推荐上一条 /1 下一条

    收藏帖子 返回列表 这是一个自定义按钮
    音乐分享,音乐下载。
    微信公众号
    微信号:maomiyinyue
    意见反馈:admin@maomicd.com

    加入我们的官方QQ群和微信群

    Powered by Discuz! X3.4 Archiver|手机版|小黑屋|猫咪音乐网 ( 苏ICP备20015413号 )|( 苏公网安备 32030502000272号) 繁體

    JS of wanmeiff.com and vcpic.com Please keep this copyright information, respect of, thank you!JS of wanmeiff.com and vcpic.com Please keep this copyright information, respect of, thank you!

    GMT+8, 2021-1-22 10:31