自购原抓音乐圈:只有自购、合购、原抓级高解析(hires、sacd、dsd)正版音乐资源分享!【点我打开
极速无线网卡:千兆无线网卡、服务器网卡、USB接口台式机笔记本网卡 千兆网线 厂家批发价格最低!【点我打开
广告

[古典音乐] Johann Sebastian Bach-Mass in B Minor BWV 232(Georg Christophler,ReglintBühler,Susanne Krumbiegel,Susanne Langner,Martin Lattke,Markus Flaig,Leipzig St. Thomas Choir)[2013,古典神圣,蓝光,

[复制链接]
elmisy 发表于 2020-12-20 20:46:28 | 显示全部楼层 |阅读模式 打印 上一主题 下一主题
Johann Sebastian Bach - Mass in B Minor BWV 232
Жанр: Classical sacred
Продолжительность: 01:53:41
Год выпуска: 2013
Лейбл: Accentus Music
Язык: Latin
Субтитры: Latin, English, Korean
Дирижер: Georg Christoph Biller
Исполнители:
Reglint Bühler, soprano
Susanne Krumbiegel, mezzo-soprano
Susanne Langner, alto
Martin Lattke, tenor
Markus Flaig, bass
Leipzig St. Thomas Choir (Thomanerchor Leipzig)
Freiburg Baroque Orchestra
Треклист:
Recorded live at St. Thomas Church, Leipzig, 23 June 2013
I. Missa
1. Kyrie eleison (1st)
2. Christe eleison
3. Kyrie eleison (2nd)
II. Gloria
4. Gloria in excelsis
5. Et in terra pax
6. Laudamus te
7. Gratias agimus tibi
8. Domine Deus
9. Qui tollis peccata mundi
10. Qui sedes ad dexteram Patris
11. Quoniam tu solus sanctus
12. Cum Sancto Spiritu
III. Credo
13. Credo in unum Deum
14. Patrem omnipotentem
15. Et in unum Dominum
16. Et incarnatus est
17. Crucifixus
18. Et resurrexit
19. Et in Spiritum Sanctum
20. Confiteor
21. Et expecto
IV. Sanctus
22. Sanctus
V. Osanna, Benedictus, Agnus Dei and Dona Nobis Pacem
23. Agnus Dei aria from Mass in B minor by Johann Sebastian Bach
24. Osanna
25. Benedictus
26. Osanna (da capo)
27. Agnus Dei
28. Dona nobis pacem
Описание: The Mass in B Minor, Bach's last completed vocal work as well as the climax of his creativity, reveals the overwhelming wealth of his compositional skills. In the history of music it ranks highly, as the "Montblanc of church music" (Franz Liszt) composed during Bach's time as cantor at the St. Thomas Church in Leipzig. Performed in this important composer's domain, the Mass in B Minor casted a spell over its listeners as the crowning glory of the Leipzig Bach Festival in 2013: Under the direction of Bach's successor Georg Christoph Biller, the St. Thomas Boys Choir and an outstanding soloist quintet perform with the prestigious Freiburg Baroque Orchestra, playing on authentic period instruments.
Качество: Blu-ray
Разрешение видео/развертка: 1080i
Контейнер: BDMV
Видео кодек: H.264
Аудио кодек: DTS,PCM
Видео: MPEG-4 AVC Video / 17000 kbps / 1080i / 29.970 fps / 16:9 / High Profile 4.1
Аудио#1: Latin / DTS-HD Master Audio / 5.1 / 48 kHz / 3873 kbps / 24-bit (DTS Core: 5.1 / 48 kHz / 1509 kbps / 24-bit)
Аудио#2: Latin / LPCM Audio / 2.0 / 48 kHz / 2304 kbps / 24-bit
BDInfo

Disc Label:     Messe in h-Moll
Disc Size:      23,484,123,518 bytes
Protection:     AACS
Extras:         BD-Java
BDInfo:         0.7.5.5
Notes:
BDINFO HOME:
  Cinema Squid (old)
    http://www.cinemasquid.com/blu-ray/tools/bdinfo
  UniqProject GitHub (new)
   https://github.com/UniqProject/BDInfo
INCLUDES FORUMS REPORT FOR:
  AVS Forum Blu-ray Audio and Video Specifications Thread
    http://www.avsforum.com/avs-vb/showthread.php?t=1155731
********************
PLAYLIST: 00003.MPLS
********************

Код:

                                                                                Total   Video
Title                                                           Codec   Length  Movie Size      Disc Size       Bitrate Bitrate Main Audio Track                          Secondary Audio Track
-----                                                           ------  ------- --------------  --------------  ------- ------- ------------------                        ---------------------
00003.MPLS                                                      AVC     1:53:41 20,958,139,776  23,484,123,518  24.58   17.00   DTS-HD Master 5.1 3873Kbps (48kHz/24-bit) LPCM 2.0 2304Kbps (48kHz/24-bit)

Код:
DISC INFO:
Disc Label:     Messe in h-Moll
Disc Size:      23,484,123,518 bytes
Protection:     AACS
Extras:         BD-Java
BDInfo:         0.7.5.5
PLAYLIST REPORT:
Name:                   00003.MPLS
Length:                 1:53:41.748 (h:m:s.ms)
Size:                   20,958,139,776 bytes
Total Bitrate:          24.58 Mbps
VIDEO:
Codec                   Bitrate             Description
-----                   -------             -----------
MPEG-4 AVC Video        17000 kbps          1080i / 29.970 fps / 16:9 / High Profile 4.1
AUDIO:
Codec                           Language        Bitrate         Description
-----                           --------        -------         -----------
DTS-HD Master Audio             Latin           3873 kbps       5.1 / 48 kHz /  3873 kbps / 24-bit (DTS Core: 5.1 / 48 kHz /  1509 kbps / 24-bit)
LPCM Audio                      Latin           2304 kbps       2.0 / 48 kHz /  2304 kbps / 24-bit
SUBTITLES:
Codec                           Language        Bitrate         Description
-----                           --------        -------         -----------
Presentation Graphics           Latin           1.177 kbps
Presentation Graphics           English         1.322 kbps
Presentation Graphics           Korean          1.235 kbps
FILES:
Name            Time In         Length          Size            Total Bitrate
----            -------         ------          ----            -------------
00003.M2TS      0:00:00.000     1:53:41.748     20,958,139,776  24,578
CHAPTERS:
Number          Time In         Length          Avg Video Rate  Max 1-Sec Rate  Max 1-Sec Time  Max 5-Sec Rate  Max 5-Sec Time  Max 10Sec Rate  Max 10Sec Time  Avg Frame Size  Max Frame Size  Max Frame Time
------          -------         ------          --------------  --------------  --------------  --------------  --------------  --------------  --------------  --------------  --------------  --------------
1               0:00:00.000     1:53:41.748     17,000 kbps     31,312 kbps     01:52:25.972    28,602 kbps     01:52:11.491    26,863 kbps     01:52:11.458    70,906 bytes    517,794 bytes   00:00:08.742
STREAM DIAGNOSTICS:
File            PID             Type            Codec           Language                Seconds                 Bitrate                 Bytes           Packets
----            ---             ----            -----           --------                --------------          --------------          -------------   -----
00003.M2TS      4113 (0x1011)   0x1B            AVC                                     6821.682                17,000                  14,496,461,696  78,906,422
00003.M2TS      4352 (0x1100)   0x86            DTS-HD MA       lat (Latin)             6821.682                3,873                   3,302,869,916   19,013,910
00003.M2TS      4353 (0x1101)   0x80            LPCM            lat (Latin)             6821.682                2,310                   1,970,121,400   10,914,814
00003.M2TS      4608 (0x1200)   0x90            PGS             lat (Latin)             6821.682                1                       1,003,850       5,913
00003.M2TS      4609 (0x1201)   0x90            PGS             eng (English)           6821.682                1                       1,127,072       6,582
00003.M2TS      4610 (0x1202)   0x90            PGS             kor (Korean)            6821.682                1                       1,052,929       6,186


QUICK SUMMARY:
Disc Label: Messe in h-Moll
Disc Size: 23,484,123,518 bytes
Protection: AACS
Playlist: 00003.MPLS
Size: 20,958,139,776 bytes
Length: 1:53:41.748
Total Bitrate: 24.58 Mbps
Video: MPEG-4 AVC Video / 17000 kbps / 1080i / 29.970 fps / 16:9 / High Profile 4.1
Audio: Latin / DTS-HD Master Audio / 5.1 / 48 kHz /  3873 kbps / 24-bit (DTS Core: 5.1 / 48 kHz /  1509 kbps / 24-bit)
Audio: Latin / LPCM Audio / 2.0 / 48 kHz /  2304 kbps / 24-bit
Subtitle: Latin / 1.177 kbps
Subtitle: English / 1.322 kbps
Subtitle: Korean / 1.235 kbps
********************
PLAYLIST: 01002.MPLS
********************

Код:

                                                                                Total   Video
Title                                                           Codec   Length  Movie Size      Disc Size       Bitrate Bitrate Main Audio Track                          Secondary Audio Track
-----                                                           ------  ------- --------------  --------------  ------- ------- ------------------                        ---------------------
01002.MPLS                                                      AVC     1:53:41 20,958,139,776  23,484,123,518  24.58   17.00   DTS-HD Master 5.1 3873Kbps (48kHz/24-bit) LPCM 2.0 2304Kbps (48kHz/24-bit)

Код:
DISC INFO:
Disc Label:     Messe in h-Moll
Disc Size:      23,484,123,518 bytes
Protection:     AACS
Extras:         BD-Java
BDInfo:         0.7.5.5
PLAYLIST REPORT:
Name:                   01002.MPLS
Length:                 1:53:41.748 (h:m:s.ms)
Size:                   20,958,139,776 bytes
Total Bitrate:          24.58 Mbps
VIDEO:
Codec                   Bitrate             Description
-----                   -------             -----------
MPEG-4 AVC Video        17000 kbps          1080i / 29.970 fps / 16:9 / High Profile 4.1
AUDIO:
Codec                           Language        Bitrate         Description
-----                           --------        -------         -----------
DTS-HD Master Audio             Latin           3873 kbps       5.1 / 48 kHz /  3873 kbps / 24-bit (DTS Core: 5.1 / 48 kHz /  1509 kbps / 24-bit)
LPCM Audio                      Latin           2304 kbps       2.0 / 48 kHz /  2304 kbps / 24-bit
SUBTITLES:
Codec                           Language        Bitrate         Description
-----                           --------        -------         -----------
Presentation Graphics           Latin           1.177 kbps
Presentation Graphics           English         1.322 kbps
Presentation Graphics           Korean          1.235 kbps
FILES:
Name            Time In         Length          Size            Total Bitrate
----            -------         ------          ----            -------------
00003.M2TS      0:00:00.000     1:53:41.748     20,958,139,776  24,578
CHAPTERS:
Number          Time In         Length          Avg Video Rate  Max 1-Sec Rate  Max 1-Sec Time  Max 5-Sec Rate  Max 5-Sec Time  Max 10Sec Rate  Max 10Sec Time  Avg Frame Size  Max Frame Size  Max Frame Time
------          -------         ------          --------------  --------------  --------------  --------------  --------------  --------------  --------------  --------------  --------------  --------------
1               0:00:00.000     0:00:58.491     15,561 kbps     27,653 kbps     00:00:05.839    24,446 kbps     00:00:02.869    22,535 kbps     00:00:01.835    64,864 bytes    517,794 bytes   00:00:08.742
2               0:00:58.491     0:09:23.162     16,482 kbps     26,833 kbps     00:01:37.597    25,089 kbps     00:01:37.464    22,301 kbps     00:01:32.459    68,745 bytes    348,251 bytes   00:02:11.030
3               0:10:21.654     0:05:00.300     16,324 kbps     23,142 kbps     00:12:20.573    21,343 kbps     00:12:18.237    20,311 kbps     00:12:18.237    68,084 bytes    349,143 bytes   00:12:28.981
4               0:15:21.954     0:03:35.515     15,933 kbps     25,236 kbps     00:18:10.122    23,400 kbps     00:18:10.189    22,589 kbps     00:18:10.155    66,456 bytes    297,085 bytes   00:16:19.645
5               0:18:57.469     0:01:42.936     17,480 kbps     24,570 kbps     00:19:05.811    21,772 kbps     00:19:02.908    20,320 kbps     00:18:59.771    72,906 bytes    370,422 bytes   00:19:06.778
6               0:20:40.405     0:04:41.948     16,733 kbps     25,070 kbps     00:23:09.821    22,953 kbps     00:23:06.985    21,930 kbps     00:23:02.614    69,792 bytes    367,706 bytes   00:23:10.789
7               0:25:22.354     0:04:18.992     16,592 kbps     27,036 kbps     00:25:26.558    24,382 kbps     00:25:23.188    21,813 kbps     00:25:36.167    69,202 bytes    315,313 bytes   00:25:43.008
8               0:29:41.346     0:03:04.250     16,563 kbps     24,608 kbps     00:32:28.379    22,766 kbps     00:32:24.542    22,073 kbps     00:32:19.570    69,082 bytes    363,884 bytes   00:32:24.575
9               0:32:45.596     0:05:47.280     16,866 kbps     26,330 kbps     00:34:06.177    21,407 kbps     00:34:06.177    21,001 kbps     00:35:44.475    70,347 bytes    302,810 bytes   00:34:06.244
10              0:38:32.877     0:02:42.595     16,779 kbps     23,023 kbps     00:40:52.650    20,524 kbps     00:40:51.482    19,729 kbps     00:39:32.136    69,984 bytes    297,475 bytes   00:40:19.417
11              0:41:15.473     0:04:19.225     16,657 kbps     23,733 kbps     00:43:36.046    22,130 kbps     00:42:08.726    21,740 kbps     00:42:07.391    69,474 bytes    324,734 bytes   00:42:03.921
12              0:45:34.698     0:04:36.342     16,883 kbps     24,234 kbps     00:49:16.486    22,986 kbps     00:49:16.353    22,188 kbps     00:46:42.366    70,417 bytes    309,062 bytes   00:48:46.256
13              0:50:11.041     0:04:00.106     17,996 kbps     27,781 kbps     00:52:10.126    23,638 kbps     00:52:10.126    22,178 kbps     00:53:51.294    75,060 bytes    345,948 bytes   00:54:01.004
14              0:54:11.147     0:02:34.420     15,641 kbps     26,009 kbps     00:54:31.434    24,571 kbps     00:54:31.401    20,965 kbps     00:54:30.300    65,236 bytes    281,805 bytes   00:55:25.055
15              0:56:45.568     0:02:17.303     18,312 kbps     24,113 kbps     00:58:49.325    21,976 kbps     00:57:52.569    21,175 kbps     00:57:52.602    76,375 bytes    370,060 bytes   00:58:22.365
16              0:59:02.872     0:04:31.537     16,386 kbps     22,686 kbps     01:00:32.195    21,852 kbps     01:00:31.861    20,150 kbps     00:59:30.633    68,343 bytes    285,666 bytes   01:02:53.636
17              1:03:34.410     0:02:37.690     16,596 kbps     22,454 kbps     01:04:48.851    21,103 kbps     01:04:47.817    20,218 kbps     01:04:48.851    69,219 bytes    256,290 bytes   01:06:05.494
18              1:06:12.101     0:02:29.149     16,484 kbps     20,857 kbps     01:07:56.739    19,500 kbps     01:07:55.771    18,551 kbps     01:06:13.869    68,753 bytes    316,429 bytes   01:06:23.679
19              1:08:41.250     0:04:27.066     17,985 kbps     25,988 kbps     01:09:13.115    23,910 kbps     01:09:09.311    23,094 kbps     01:09:07.109    75,012 bytes    380,443 bytes   01:12:48.997
20              1:13:08.317     0:04:54.994     17,326 kbps     23,856 kbps     01:15:29.491    22,402 kbps     01:16:13.936    20,305 kbps     01:15:07.603    72,262 bytes    315,693 bytes   01:13:57.533
21              1:18:03.311     0:04:37.110     15,830 kbps     21,714 kbps     01:22:24.172    19,111 kbps     01:20:21.216    18,801 kbps     01:20:19.314    66,023 bytes    328,894 bytes   01:21:57.279
22              1:22:40.422     0:02:29.082     18,430 kbps     26,386 kbps     01:23:50.658    23,959 kbps     01:23:50.558    22,895 kbps     01:23:48.356    76,868 bytes    384,222 bytes   01:24:51.920
23              1:25:09.504     0:04:54.093     16,948 kbps     25,684 kbps     01:27:22.403    22,762 kbps     01:27:19.434    21,875 kbps     01:27:16.564    70,686 bytes    382,781 bytes   01:27:22.437
24              1:30:03.598     0:02:45.965     18,172 kbps     29,645 kbps     01:31:47.635    23,335 kbps     01:31:44.866    22,835 kbps     01:31:39.861    75,793 bytes    348,230 bytes   01:32:13.528
25              1:32:49.564     0:04:36.509     16,207 kbps     20,452 kbps     01:33:04.245    18,744 kbps     01:33:48.923    18,512 kbps     01:33:47.121    67,596 bytes    344,958 bytes   01:33:04.278
26              1:37:26.073     0:02:46.766     18,661 kbps     26,564 kbps     01:39:05.239    24,168 kbps     01:39:01.302    23,147 kbps     01:38:57.464    77,832 bytes    369,456 bytes   01:39:06.206
27              1:40:12.840     0:05:02.602     17,149 kbps     25,259 kbps     01:43:06.880    23,983 kbps     01:43:03.443    23,492 kbps     01:42:58.472    71,524 bytes    298,447 bytes   01:40:16.477
28              1:45:15.442     0:06:13.539     18,320 kbps     28,078 kbps     01:48:05.879    26,349 kbps     01:48:01.942    25,101 kbps     01:48:01.942    76,409 bytes    410,322 bytes   01:50:12.806
29              1:51:28.982     0:02:12.765     19,267 kbps     31,312 kbps     01:52:25.972    28,602 kbps     01:52:11.491    26,863 kbps     01:52:11.458    80,422 bytes    338,043 bytes   01:52:20.233
STREAM DIAGNOSTICS:
File            PID             Type            Codec           Language                Seconds                 Bitrate                 Bytes           Packets
----            ---             ----            -----           --------                --------------          --------------          -------------   -----
00003.M2TS      4113 (0x1011)   0x1B            AVC                                     6821.682                17,000                  14,496,461,696  78,906,422
00003.M2TS      4352 (0x1100)   0x86            DTS-HD MA       lat (Latin)             6821.682                3,873                   3,302,869,916   19,013,910
00003.M2TS      4353 (0x1101)   0x80            LPCM            lat (Latin)             6821.682                2,310                   1,970,121,400   10,914,814
00003.M2TS      4608 (0x1200)   0x90            PGS             lat (Latin)             6821.682                1                       1,003,850       5,913
00003.M2TS      4609 (0x1201)   0x90            PGS             eng (English)           6821.682                1                       1,127,072       6,582
00003.M2TS      4610 (0x1202)   0x90            PGS             kor (Korean)            6821.682                1                       1,052,929       6,186


QUICK SUMMARY:
Disc Label: Messe in h-Moll
Disc Size: 23,484,123,518 bytes
Protection: AACS
Playlist: 01002.MPLS
Size: 20,958,139,776 bytes
Length: 1:53:41.748
Total Bitrate: 24.58 Mbps
Video: MPEG-4 AVC Video / 17000 kbps / 1080i / 29.970 fps / 16:9 / High Profile 4.1
Audio: Latin / DTS-HD Master Audio / 5.1 / 48 kHz /  3873 kbps / 24-bit (DTS Core: 5.1 / 48 kHz /  1509 kbps / 24-bit)
Audio: Latin / LPCM Audio / 2.0 / 48 kHz /  2304 kbps / 24-bit
Subtitle: Latin / 1.177 kbps
Subtitle: English / 1.322 kbps
Subtitle: Korean / 1.235 kbps
********************
PLAYLIST: 00006.MPLS
********************

Код:

                                                                                Total   Video
Title                                                           Codec   Length  Movie Size      Disc Size       Bitrate Bitrate Main Audio Track                          Secondary Audio Track
-----                                                           ------  ------- --------------  --------------  ------- ------- ------------------                        ---------------------
00006.MPLS                                                      AVC     0:05:26 700,837,248     23,484,123,518  17.16   14.00   LPCM 2.0 2304Kbps (48kHz/24-bit)

Код:
DISC INFO:
Disc Label:     Messe in h-Moll
Disc Size:      23,484,123,518 bytes
Protection:     AACS
Extras:         BD-Java
BDInfo:         0.7.5.5
PLAYLIST REPORT:
Name:                   00006.MPLS
Length:                 0:05:26.759 (h:m:s.ms)
Size:                   700,837,248 bytes
Total Bitrate:          17.16 Mbps
VIDEO:
Codec                   Bitrate             Description
-----                   -------             -----------
MPEG-4 AVC Video        13996 kbps          1080i / 29.970 fps / 16:9 / High Profile 4.1
AUDIO:
Codec                           Language        Bitrate         Description
-----                           --------        -------         -----------
LPCM Audio                      English         2304 kbps       2.0 / 48 kHz /  2304 kbps / 24-bit
FILES:
Name            Time In         Length          Size            Total Bitrate
----            -------         ------          ----            -------------
00006.M2TS      0:00:00.000     0:05:26.759     700,837,248     17,157
CHAPTERS:
Number          Time In         Length          Avg Video Rate  Max 1-Sec Rate  Max 1-Sec Time  Max 5-Sec Rate  Max 5-Sec Time  Max 10Sec Rate  Max 10Sec Time  Avg Frame Size  Max Frame Size  Max Frame Time
------          -------         ------          --------------  --------------  --------------  --------------  --------------  --------------  --------------  --------------  --------------  --------------
1               0:00:00.000     0:05:26.759     13,997 kbps     31,826 kbps     00:00:21.087    29,591 kbps     00:00:19.986    25,025 kbps     00:00:19.986    58,392 bytes    645,803 bytes   00:01:02.796
STREAM DIAGNOSTICS:
File            PID             Type            Codec           Language                Seconds                 Bitrate                 Bytes           Packets
----            ---             ----            -----           --------                --------------          --------------          -------------   -----
00006.M2TS      4113 (0x1011)   0x1B            AVC                                     326.693                 14,000                  571,713,756     3,112,854
00006.M2TS      4352 (0x1100)   0x80            LPCM            eng (English)           326.693                 2,311                   94,368,288      522,816


QUICK SUMMARY:
Disc Label: Messe in h-Moll
Disc Size: 23,484,123,518 bytes
Protection: AACS
Playlist: 00006.MPLS
Size: 700,837,248 bytes
Length: 0:05:26.759
Total Bitrate: 17.16 Mbps
Video: MPEG-4 AVC Video / 13996 kbps / 1080i / 29.970 fps / 16:9 / High Profile 4.1
Audio: English / LPCM Audio / 2.0 / 48 kHz /  2304 kbps / 24-bit
********************
PLAYLIST: 01005.MPLS
********************

Код:

                                                                                Total   Video
Title                                                           Codec   Length  Movie Size      Disc Size       Bitrate Bitrate Main Audio Track                          Secondary Audio Track
-----                                                           ------  ------- --------------  --------------  ------- ------- ------------------                        ---------------------
01005.MPLS                                                      AVC     0:05:26 700,837,248     23,484,123,518  17.16   14.00   LPCM 2.0 2304Kbps (48kHz/24-bit)

Код:
DISC INFO:
Disc Label:     Messe in h-Moll
Disc Size:      23,484,123,518 bytes
Protection:     AACS
Extras:         BD-Java
BDInfo:         0.7.5.5
PLAYLIST REPORT:
Name:                   01005.MPLS
Length:                 0:05:26.759 (h:m:s.ms)
Size:                   700,837,248 bytes
Total Bitrate:          17.16 Mbps
VIDEO:
Codec                   Bitrate             Description
-----                   -------             -----------
MPEG-4 AVC Video        13996 kbps          1080i / 29.970 fps / 16:9 / High Profile 4.1
AUDIO:
Codec                           Language        Bitrate         Description
-----                           --------        -------         -----------
LPCM Audio                      English         2304 kbps       2.0 / 48 kHz /  2304 kbps / 24-bit
FILES:
Name            Time In         Length          Size            Total Bitrate
----            -------         ------          ----            -------------
00006.M2TS      0:00:00.000     0:05:26.759     700,837,248     17,157
CHAPTERS:
Number          Time In         Length          Avg Video Rate  Max 1-Sec Rate  Max 1-Sec Time  Max 5-Sec Rate  Max 5-Sec Time  Max 10Sec Rate  Max 10Sec Time  Avg Frame Size  Max Frame Size  Max Frame Time
------          -------         ------          --------------  --------------  --------------  --------------  --------------  --------------  --------------  --------------  --------------  --------------
1               0:00:00.000     0:05:26.759     13,997 kbps     31,826 kbps     00:00:21.087    29,591 kbps     00:00:19.986    25,025 kbps     00:00:19.986    58,392 bytes    645,803 bytes   00:01:02.796
STREAM DIAGNOSTICS:
File            PID             Type            Codec           Language                Seconds                 Bitrate                 Bytes           Packets
----            ---             ----            -----           --------                --------------          --------------          -------------   -----
00006.M2TS      4113 (0x1011)   0x1B            AVC                                     326.693                 14,000                  571,713,756     3,112,854
00006.M2TS      4352 (0x1100)   0x80            LPCM            eng (English)           326.693                 2,311                   94,368,288      522,816


QUICK SUMMARY:
Disc Label: Messe in h-Moll
Disc Size: 23,484,123,518 bytes
Protection: AACS
Playlist: 01005.MPLS
Size: 700,837,248 bytes
Length: 0:05:26.759
Total Bitrate: 17.16 Mbps
Video: MPEG-4 AVC Video / 13996 kbps / 1080i / 29.970 fps / 16:9 / High Profile 4.1
Audio: English / LPCM Audio / 2.0 / 48 kHz /  2304 kbps / 24-bit
********************
PLAYLIST: 00004.MPLS
********************

Код:

                                                                                Total   Video
Title                                                           Codec   Length  Movie Size      Disc Size       Bitrate Bitrate Main Audio Track                          Secondary Audio Track
-----                                                           ------  ------- --------------  --------------  ------- ------- ------------------                        ---------------------
00004.MPLS                                                      AVC     0:03:57 614,114,688     23,484,123,518  20.71   17.99   LPCM 2.0 1536Kbps (48kHz/16-bit)

Код:
DISC INFO:
Disc Label:     Messe in h-Moll
Disc Size:      23,484,123,518 bytes
Protection:     AACS
Extras:         BD-Java
BDInfo:         0.7.5.5
PLAYLIST REPORT:
Name:                   00004.MPLS
Length:                 0:03:57.203 (h:m:s.ms)
Size:                   614,114,688 bytes
Total Bitrate:          20.71 Mbps
VIDEO:
Codec                   Bitrate             Description
-----                   -------             -----------
MPEG-4 AVC Video        17988 kbps          1080i / 29.970 fps / 16:9 / High Profile 4.1
AUDIO:
Codec                           Language        Bitrate         Description
-----                           --------        -------         -----------
LPCM Audio                      English         1536 kbps       2.0 / 48 kHz /  1536 kbps / 16-bit
FILES:
Name            Time In         Length          Size            Total Bitrate
----            -------         ------          ----            -------------
00004.M2TS      0:00:00.000     0:03:57.203     614,114,688     20,709
CHAPTERS:
Number          Time In         Length          Avg Video Rate  Max 1-Sec Rate  Max 1-Sec Time  Max 5-Sec Rate  Max 5-Sec Time  Max 10Sec Rate  Max 10Sec Time  Avg Frame Size  Max Frame Size  Max Frame Time
------          -------         ------          --------------  --------------  --------------  --------------  --------------  --------------  --------------  --------------  --------------  --------------
1               0:00:00.000     0:03:57.203     17,991 kbps     34,260 kbps     00:00:08.308    28,962 kbps     00:00:31.398    27,158 kbps     00:02:58.211    75,058 bytes    416,161 bytes   00:00:09.109
STREAM DIAGNOSTICS:
File            PID             Type            Codec           Language                Seconds                 Bitrate                 Bytes           Packets
----            ---             ----            -----           --------                --------------          --------------          -------------   -----
00004.M2TS      4113 (0x1011)   0x1B            AVC                                     237.137                 17,996                  533,437,169     2,903,311
00004.M2TS      4352 (0x1100)   0x80            LPCM            eng (English)           237.137                 1,543                   45,732,160      284,640


QUICK SUMMARY:
Disc Label: Messe in h-Moll
Disc Size: 23,484,123,518 bytes
Protection: AACS
Playlist: 00004.MPLS
Size: 614,114,688 bytes
Length: 0:03:57.203
Total Bitrate: 20.71 Mbps
Video: MPEG-4 AVC Video / 17988 kbps / 1080i / 29.970 fps / 16:9 / High Profile 4.1
Audio: English / LPCM Audio / 2.0 / 48 kHz /  1536 kbps / 16-bit
********************
PLAYLIST: 01003.MPLS
********************

Код:

                                                                                Total   Video
Title                                                           Codec   Length  Movie Size      Disc Size       Bitrate Bitrate Main Audio Track                          Secondary Audio Track
-----                                                           ------  ------- --------------  --------------  ------- ------- ------------------                        ---------------------
01003.MPLS                                                      AVC     0:03:57 614,114,688     23,484,123,518  20.71   17.99   LPCM 2.0 1536Kbps (48kHz/16-bit)

Код:
DISC INFO:
Disc Label:     Messe in h-Moll
Disc Size:      23,484,123,518 bytes
Protection:     AACS
Extras:         BD-Java
BDInfo:         0.7.5.5
PLAYLIST REPORT:
Name:                   01003.MPLS
Length:                 0:03:57.203 (h:m:s.ms)
Size:                   614,114,688 bytes
Total Bitrate:          20.71 Mbps
VIDEO:
Codec                   Bitrate             Description
-----                   -------             -----------
MPEG-4 AVC Video        17988 kbps          1080i / 29.970 fps / 16:9 / High Profile 4.1
AUDIO:
Codec                           Language        Bitrate         Description
-----                           --------        -------         -----------
LPCM Audio                      English         1536 kbps       2.0 / 48 kHz /  1536 kbps / 16-bit
FILES:
Name            Time In         Length          Size            Total Bitrate
----            -------         ------          ----            -------------
00004.M2TS      0:00:00.000     0:03:57.203     614,114,688     20,709
CHAPTERS:
Number          Time In         Length          Avg Video Rate  Max 1-Sec Rate  Max 1-Sec Time  Max 5-Sec Rate  Max 5-Sec Time  Max 10Sec Rate  Max 10Sec Time  Avg Frame Size  Max Frame Size  Max Frame Time
------          -------         ------          --------------  --------------  --------------  --------------  --------------  --------------  --------------  --------------  --------------  --------------
1               0:00:00.000     0:03:57.203     17,991 kbps     34,260 kbps     00:00:08.308    28,962 kbps     00:00:31.398    27,158 kbps     00:02:58.211    75,058 bytes    416,161 bytes   00:00:09.109
STREAM DIAGNOSTICS:
File            PID             Type            Codec           Language                Seconds                 Bitrate                 Bytes           Packets
----            ---             ----            -----           --------                --------------          --------------          -------------   -----
00004.M2TS      4113 (0x1011)   0x1B            AVC                                     237.137                 17,996                  533,437,169     2,903,311
00004.M2TS      4352 (0x1100)   0x80            LPCM            eng (English)           237.137                 1,543                   45,732,160      284,640


QUICK SUMMARY:
Disc Label: Messe in h-Moll
Disc Size: 23,484,123,518 bytes
Protection: AACS
Playlist: 01003.MPLS
Size: 614,114,688 bytes
Length: 0:03:57.203
Total Bitrate: 20.71 Mbps
Video: MPEG-4 AVC Video / 17988 kbps / 1080i / 29.970 fps / 16:9 / High Profile 4.1
Audio: English / LPCM Audio / 2.0 / 48 kHz /  1536 kbps / 16-bit
********************
PLAYLIST: 00007.MPLS
********************

Код:

                                                                                Total   Video
Title                                                           Codec   Length  Movie Size      Disc Size       Bitrate Bitrate Main Audio Track                          Secondary Audio Track
-----                                                           ------  ------- --------------  --------------  ------- ------- ------------------                        ---------------------
00007.MPLS                                                      AVC     0:03:21 362,812,800     23,484,123,518  14.44   11.98   LPCM 2.0 1536Kbps (48kHz/16-bit)

Код:
DISC INFO:
Disc Label:     Messe in h-Moll
Disc Size:      23,484,123,518 bytes
Protection:     AACS
Extras:         BD-Java
BDInfo:         0.7.5.5
PLAYLIST REPORT:
Name:                   00007.MPLS
Length:                 0:03:21.000 (h:m:s.ms)
Size:                   362,812,800 bytes
Total Bitrate:          14.44 Mbps
VIDEO:
Codec                   Bitrate             Description
-----                   -------             -----------
MPEG-4 AVC Video        11978 kbps          1080i / 29.970 fps / 16:9 / High Profile 4.1
AUDIO:
Codec                           Language        Bitrate         Description
-----                           --------        -------         -----------
LPCM Audio                      English         1536 kbps       2.0 / 48 kHz /  1536 kbps / 16-bit
FILES:
Name            Time In         Length          Size            Total Bitrate
----            -------         ------          ----            -------------
00007.M2TS      0:00:00.000     0:03:21.000     362,812,800     14,438
CHAPTERS:
Number          Time In         Length          Avg Video Rate  Max 1-Sec Rate  Max 1-Sec Time  Max 5-Sec Rate  Max 5-Sec Time  Max 10Sec Rate  Max 10Sec Time  Avg Frame Size  Max Frame Size  Max Frame Time
------          -------         ------          --------------  --------------  --------------  --------------  --------------  --------------  --------------  --------------  --------------  --------------
1               0:00:00.000     0:03:21.000     11,980 kbps     23,822 kbps     00:00:07.807    19,711 kbps     00:01:07.333    17,784 kbps     00:00:07.841    49,985 bytes    413,668 bytes   00:00:16.583
STREAM DIAGNOSTICS:
File            PID             Type            Codec           Language                Seconds                 Bitrate                 Bytes           Packets
----            ---             ----            -----           --------                --------------          --------------          -------------   -----
00007.M2TS      4113 (0x1011)   0x1B            AVC                                     200.934                 11,984                  301,010,999     1,639,487
00007.M2TS      4352 (0x1100)   0x80            LPCM            eng (English)           200.934                 1,543                   38,752,800      241,200


QUICK SUMMARY:
Disc Label: Messe in h-Moll
Disc Size: 23,484,123,518 bytes
Protection: AACS
Playlist: 00007.MPLS
Size: 362,812,800 bytes
Length: 0:03:21.000
Total Bitrate: 14.44 Mbps
Video: MPEG-4 AVC Video / 11978 kbps / 1080i / 29.970 fps / 16:9 / High Profile 4.1
Audio: English / LPCM Audio / 2.0 / 48 kHz /  1536 kbps / 16-bit
********************
PLAYLIST: 01006.MPLS
********************

Код:

                                                                                Total   Video
Title                                                           Codec   Length  Movie Size      Disc Size       Bitrate Bitrate Main Audio Track                          Secondary Audio Track
-----                                                           ------  ------- --------------  --------------  ------- ------- ------------------                        ---------------------
01006.MPLS                                                      AVC     0:03:21 362,812,800     23,484,123,518  14.44   11.98   LPCM 2.0 1536Kbps (48kHz/16-bit)

Код:
DISC INFO:
Disc Label:     Messe in h-Moll
Disc Size:      23,484,123,518 bytes
Protection:     AACS
Extras:         BD-Java
BDInfo:         0.7.5.5
PLAYLIST REPORT:
Name:                   01006.MPLS
Length:                 0:03:21.000 (h:m:s.ms)
Size:                   362,812,800 bytes
Total Bitrate:          14.44 Mbps
VIDEO:
Codec                   Bitrate             Description
-----                   -------             -----------
MPEG-4 AVC Video        11978 kbps          1080i / 29.970 fps / 16:9 / High Profile 4.1
AUDIO:
Codec                           Language        Bitrate         Description
-----                           --------        -------         -----------
LPCM Audio                      English         1536 kbps       2.0 / 48 kHz /  1536 kbps / 16-bit
FILES:
Name            Time In         Length          Size            Total Bitrate
----            -------         ------          ----            -------------
00007.M2TS      0:00:00.000     0:03:21.000     362,812,800     14,438
CHAPTERS:
Number          Time In         Length          Avg Video Rate  Max 1-Sec Rate  Max 1-Sec Time  Max 5-Sec Rate  Max 5-Sec Time  Max 10Sec Rate  Max 10Sec Time  Avg Frame Size  Max Frame Size  Max Frame Time
------          -------         ------          --------------  --------------  --------------  --------------  --------------  --------------  --------------  --------------  --------------  --------------
1               0:00:00.000     0:03:21.000     11,980 kbps     23,822 kbps     00:00:07.807    19,711 kbps     00:01:07.333    17,784 kbps     00:00:07.841    49,985 bytes    413,668 bytes   00:00:16.583
STREAM DIAGNOSTICS:
File            PID             Type            Codec           Language                Seconds                 Bitrate                 Bytes           Packets
----            ---             ----            -----           --------                --------------          --------------          -------------   -----
00007.M2TS      4113 (0x1011)   0x1B            AVC                                     200.934                 11,984                  301,010,999     1,639,487
00007.M2TS      4352 (0x1100)   0x80            LPCM            eng (English)           200.934                 1,543                   38,752,800      241,200


QUICK SUMMARY:
Disc Label: Messe in h-Moll
Disc Size: 23,484,123,518 bytes
Protection: AACS
Playlist: 01006.MPLS
Size: 362,812,800 bytes
Length: 0:03:21.000
Total Bitrate: 14.44 Mbps
Video: MPEG-4 AVC Video / 11978 kbps / 1080i / 29.970 fps / 16:9 / High Profile 4.1
Audio: English / LPCM Audio / 2.0 / 48 kHz /  1536 kbps / 16-bit
********************
PLAYLIST: 00002.MPLS
********************

Код:

                                                                                Total   Video
Title                                                           Codec   Length  Movie Size      Disc Size       Bitrate Bitrate Main Audio Track                          Secondary Audio Track
-----                                                           ------  ------- --------------  --------------  ------- ------- ------------------                        ---------------------
00002.MPLS                                                      AVC     0:02:38 421,463,808     23,484,123,518  21.34   18.00   LPCM 2.0 2304Kbps (48kHz/24-bit)

Код:
DISC INFO:
Disc Label:     Messe in h-Moll
Disc Size:      23,484,123,518 bytes
Protection:     AACS
Extras:         BD-Java
BDInfo:         0.7.5.5
PLAYLIST REPORT:
Name:                   00002.MPLS
Length:                 0:02:38.024 (h:m:s.ms)
Size:                   421,463,808 bytes
Total Bitrate:          21.34 Mbps
VIDEO:
Codec                   Bitrate             Description
-----                   -------             -----------
MPEG-4 AVC Video        17997 kbps          1080i / 29.970 fps / 16:9 / High Profile 4.1
AUDIO:
Codec                           Language        Bitrate         Description
-----                           --------        -------         -----------
LPCM Audio                      English         2304 kbps       2.0 / 48 kHz /  2304 kbps / 24-bit
FILES:
Name            Time In         Length          Size            Total Bitrate
----            -------         ------          ----            -------------
00002.M2TS      0:00:00.000     0:02:38.024     421,463,808     21,332
CHAPTERS:
Number          Time In         Length          Avg Video Rate  Max 1-Sec Rate  Max 1-Sec Time  Max 5-Sec Rate  Max 5-Sec Time  Max 10Sec Rate  Max 10Sec Time  Avg Frame Size  Max Frame Size  Max Frame Time
------          -------         ------          --------------  --------------  --------------  --------------  --------------  --------------  --------------  --------------  --------------  --------------
1               0:00:00.000     0:02:38.024     18,000 kbps     40,448 kbps     00:00:01.401    27,564 kbps     00:00:01.301    23,425 kbps     00:00:01.301    75,108 bytes    433,165 bytes   00:00:01.534
STREAM DIAGNOSTICS:
File            PID             Type            Codec           Language                Seconds                 Bitrate                 Bytes           Packets
----            ---             ----            -----           --------                --------------          --------------          -------------   -----
00002.M2TS      4113 (0x1011)   0x1B            AVC                                     157.924                 18,015                  355,622,454     1,935,553
00002.M2TS      4352 (0x1100)   0x80            LPCM            eng (English)           157.924                 2,312                   45,636,176      252,839


QUICK SUMMARY:
Disc Label: Messe in h-Moll
Disc Size: 23,484,123,518 bytes
Protection: AACS
Playlist: 00002.MPLS
Size: 421,463,808 bytes
Length: 0:02:38.024
Total Bitrate: 21.34 Mbps
Video: MPEG-4 AVC Video / 17997 kbps / 1080i / 29.970 fps / 16:9 / High Profile 4.1
Audio: English / LPCM Audio / 2.0 / 48 kHz /  2304 kbps / 24-bit
********************
PLAYLIST: 00005.MPLS
********************

Код:

                                                                                Total   Video
Title                                                           Codec   Length  Movie Size      Disc Size       Bitrate Bitrate Main Audio Track                          Secondary Audio Track
-----                                                           ------  ------- --------------  --------------  ------- ------- ------------------                        ---------------------
00005.MPLS                                                      AVC     0:02:18 357,909,888     23,484,123,518  20.72   18.00   LPCM 2.0 1536Kbps (48kHz/16-bit)

Код:
DISC INFO:
Disc Label:     Messe in h-Moll
Disc Size:      23,484,123,518 bytes
Protection:     AACS
Extras:         BD-Java
BDInfo:         0.7.5.5
PLAYLIST REPORT:
Name:                   00005.MPLS
Length:                 0:02:18.171 (h:m:s.ms)
Size:                   357,909,888 bytes
Total Bitrate:          20.72 Mbps
VIDEO:
Codec                   Bitrate             Description
-----                   -------             -----------
MPEG-4 AVC Video        17997 kbps          1080i / 29.970 fps / 16:9 / High Profile 4.1
AUDIO:
Codec                           Language        Bitrate         Description
-----                           --------        -------         -----------
LPCM Audio                      English         1536 kbps       2.0 / 48 kHz /  1536 kbps / 16-bit
FILES:
Name            Time In         Length          Size            Total Bitrate
----            -------         ------          ----            -------------
00005.M2TS      0:00:00.000     0:02:18.171     357,909,888     20,718
CHAPTERS:
Number          Time In         Length          Avg Video Rate  Max 1-Sec Rate  Max 1-Sec Time  Max 5-Sec Rate  Max 5-Sec Time  Max 10Sec Rate  Max 10Sec Time  Avg Frame Size  Max Frame Size  Max Frame Time
------          -------         ------          --------------  --------------  --------------  --------------  --------------  --------------  --------------  --------------  --------------  --------------
1               0:00:00.000     0:02:18.171     18,001 kbps     43,525 kbps     00:00:06.773    33,377 kbps     00:00:06.706    31,574 kbps     00:01:21.081    75,115 bytes    596,828 bytes   00:00:07.540
STREAM DIAGNOSTICS:
File            PID             Type            Codec           Language                Seconds                 Bitrate                 Bytes           Packets
----            ---             ----            -----           --------                --------------          --------------          -------------   -----
00005.M2TS      4113 (0x1011)   0x1B            AVC                                     138.105                 18,010                  310,904,044     1,692,113
00005.M2TS      4352 (0x1100)   0x80            LPCM            eng (English)           138.105                 1,544                   26,645,924      165,846


QUICK SUMMARY:
Disc Label: Messe in h-Moll
Disc Size: 23,484,123,518 bytes
Protection: AACS
Playlist: 00005.MPLS
Size: 357,909,888 bytes
Length: 0:02:18.171
Total Bitrate: 20.72 Mbps
Video: MPEG-4 AVC Video / 17997 kbps / 1080i / 29.970 fps / 16:9 / High Profile 4.1
Audio: English / LPCM Audio / 2.0 / 48 kHz /  1536 kbps / 16-bit
********************
PLAYLIST: 01004.MPLS
********************

Код:

                                                                                Total   Video
Title                                                           Codec   Length  Movie Size      Disc Size       Bitrate Bitrate Main Audio Track                          Secondary Audio Track
-----                                                           ------  ------- --------------  --------------  ------- ------- ------------------                        ---------------------
01004.MPLS                                                      AVC     0:02:18 357,909,888     23,484,123,518  20.72   18.00   LPCM 2.0 1536Kbps (48kHz/16-bit)

Код:
DISC INFO:
Disc Label:     Messe in h-Moll
Disc Size:      23,484,123,518 bytes
Protection:     AACS
Extras:         BD-Java
BDInfo:         0.7.5.5
PLAYLIST REPORT:
Name:                   01004.MPLS
Length:                 0:02:18.171 (h:m:s.ms)
Size:                   357,909,888 bytes
Total Bitrate:          20.72 Mbps
VIDEO:
Codec                   Bitrate             Description
-----                   -------             -----------
MPEG-4 AVC Video        17997 kbps          1080i / 29.970 fps / 16:9 / High Profile 4.1
AUDIO:
Codec                           Language        Bitrate         Description
-----                           --------        -------         -----------
LPCM Audio                      English         1536 kbps       2.0 / 48 kHz /  1536 kbps / 16-bit
FILES:
Name            Time In         Length          Size            Total Bitrate
----            -------         ------          ----            -------------
00005.M2TS      0:00:00.000     0:02:18.171     357,909,888     20,718
CHAPTERS:
Number          Time In         Length          Avg Video Rate  Max 1-Sec Rate  Max 1-Sec Time  Max 5-Sec Rate  Max 5-Sec Time  Max 10Sec Rate  Max 10Sec Time  Avg Frame Size  Max Frame Size  Max Frame Time
------          -------         ------          --------------  --------------  --------------  --------------  --------------  --------------  --------------  --------------  --------------  --------------
1               0:00:00.000     0:02:18.171     18,001 kbps     43,525 kbps     00:00:06.773    33,377 kbps     00:00:06.706    31,574 kbps     00:01:21.081    75,115 bytes    596,828 bytes   00:00:07.540
STREAM DIAGNOSTICS:
File            PID             Type            Codec           Language                Seconds                 Bitrate                 Bytes           Packets
----            ---             ----            -----           --------                --------------          --------------          -------------   -----
00005.M2TS      4113 (0x1011)   0x1B            AVC                                     138.105                 18,010                  310,904,044     1,692,113
00005.M2TS      4352 (0x1100)   0x80            LPCM            eng (English)           138.105                 1,544                   26,645,924      165,846


QUICK SUMMARY:
Disc Label: Messe in h-Moll
Disc Size: 23,484,123,518 bytes
Protection: AACS
Playlist: 01004.MPLS
Size: 357,909,888 bytes
Length: 0:02:18.171
Total Bitrate: 20.72 Mbps
Video: MPEG-4 AVC Video / 17997 kbps / 1080i / 29.970 fps / 16:9 / High Profile 4.1
Audio: English / LPCM Audio / 2.0 / 48 kHz /  1536 kbps / 16-bit
********************
PLAYLIST: 01000.MPLS
********************

Код:

                                                                                Total   Video
Title                                                           Codec   Length  Movie Size      Disc Size       Bitrate Bitrate Main Audio Track                          Secondary Audio Track
-----                                                           ------  ------- --------------  --------------  ------- ------- ------------------                        ---------------------
01000.MPLS                                                      AVC     0:00:31 64,248,000      23,484,123,518  16.42   13.27   LPCM 2.0 2304Kbps (48kHz/24-bit)

Код:
DISC INFO:
Disc Label:     Messe in h-Moll
Disc Size:      23,484,123,518 bytes
Protection:     AACS
Extras:         BD-Java
BDInfo:         0.7.5.5
PLAYLIST REPORT:
Name:                   01000.MPLS
Length:                 0:00:31.297 (h:m:s.ms)
Size:                   64,248,000 bytes
Total Bitrate:          16.42 Mbps
VIDEO:
Codec                   Bitrate             Description
-----                   -------             -----------
MPEG-4 AVC Video        13267 kbps          1080i / 29.970 fps / 16:9 / High Profile 4.1
AUDIO:
Codec                           Language        Bitrate         Description
-----                           --------        -------         -----------
LPCM Audio                      English         2304 kbps       2.0 / 48 kHz /  2304 kbps / 24-bit
FILES:
Name            Time In         Length          Size            Total Bitrate
----            -------         ------          ----            -------------
00000.M2TS      0:00:00.000     0:00:13.046     6,276,480       3,839
00001.M2TS      0:00:13.046     0:00:18.251     57,971,520      25,364
CHAPTERS:
Number          Time In         Length          Avg Video Rate  Max 1-Sec Rate  Max 1-Sec Time  Max 5-Sec Rate  Max 5-Sec Time  Max 10Sec Rate  Max 10Sec Time  Avg Frame Size  Max Frame Size  Max Frame Time
------          -------         ------          --------------  --------------  --------------  --------------  --------------  --------------  --------------  --------------  --------------  --------------
1               0:00:00.000     0:00:13.046     1,251 kbps      4,901 kbps      00:00:00.967    1,626 kbps      00:00:00.967    1,217 kbps      00:00:00.967    5,229 bytes     96,438 bytes    00:00:01.968
2               0:00:13.046     0:00:18.251     21,905 kbps     40,615 kbps     00:00:19.786    35,236 kbps     00:00:15.382    34,025 kbps     00:00:15.248    91,865 bytes    468,321 bytes   00:00:19.819
STREAM DIAGNOSTICS:
File            PID             Type            Codec           Language                Seconds                 Bitrate                 Bytes           Packets
----            ---             ----            -----           --------                --------------          --------------          -------------   -----
00000.M2TS      4113 (0x1011)   0x1B            AVC                                     12.980                  1,258                   2,040,859       11,203
00000.M2TS      4352 (0x1100)   0x80            LPCM            eng (English)           12.980                  2,323                   3,768,840       20,880
00001.M2TS      4113 (0x1011)   0x1B            AVC                                     18.185                  22,002                  50,012,372      272,101
00001.M2TS      4352 (0x1100)   0x80            LPCM            eng (English)           18.185                  2,319                   5,272,044       29,208


QUICK SUMMARY:
Disc Label: Messe in h-Moll
Disc Size: 23,484,123,518 bytes
Protection: AACS
Playlist: 01000.MPLS
Size: 64,248,000 bytes
Length: 0:00:31.297
Total Bitrate: 16.42 Mbps
Video: MPEG-4 AVC Video / 13267 kbps / 1080i / 29.970 fps / 16:9 / High Profile 4.1
Audio: English / LPCM Audio / 2.0 / 48 kHz /  2304 kbps / 24-bit
********************
PLAYLIST: 01007.MPLS
********************

Код:

                                                                                Total   Video
Title                                                           Codec   Length  Movie Size      Disc Size       Bitrate Bitrate Main Audio Track                          Secondary Audio Track
-----                                                           ------  ------- --------------  --------------  ------- ------- ------------------                        ---------------------
01007.MPLS                                                      AVC     0:00:31 64,248,000      23,484,123,518  16.42   13.27   LPCM 2.0 2304Kbps (48kHz/24-bit)

Код:
DISC INFO:
Disc Label:     Messe in h-Moll
Disc Size:      23,484,123,518 bytes
Protection:     AACS
Extras:         BD-Java
BDInfo:         0.7.5.5
PLAYLIST REPORT:
Name:                   01007.MPLS
Length:                 0:00:31.297 (h:m:s.ms)
Size:                   64,248,000 bytes
Total Bitrate:          16.42 Mbps
VIDEO:
Codec                   Bitrate             Description
-----                   -------             -----------
MPEG-4 AVC Video        13267 kbps          1080i / 29.970 fps / 16:9 / High Profile 4.1
AUDIO:
Codec                           Language        Bitrate         Description
-----                           --------        -------         -----------
LPCM Audio                      English         2304 kbps       2.0 / 48 kHz /  2304 kbps / 24-bit
FILES:
Name            Time In         Length          Size            Total Bitrate
----            -------         ------          ----            -------------
00000.M2TS      0:00:00.000     0:00:13.046     6,276,480       3,839
00001.M2TS      0:00:13.046     0:00:18.251     57,971,520      25,364
CHAPTERS:
Number          Time In         Length          Avg Video Rate  Max 1-Sec Rate  Max 1-Sec Time  Max 5-Sec Rate  Max 5-Sec Time  Max 10Sec Rate  Max 10Sec Time  Avg Frame Size  Max Frame Size  Max Frame Time
------          -------         ------          --------------  --------------  --------------  --------------  --------------  --------------  --------------  --------------  --------------  --------------
1               0:00:00.000     0:00:13.046     1,251 kbps      4,901 kbps      00:00:00.967    1,626 kbps      00:00:00.967    1,217 kbps      00:00:00.967    5,229 bytes     96,438 bytes    00:00:01.968
2               0:00:13.046     0:00:18.251     21,905 kbps     40,615 kbps     00:00:19.786    35,236 kbps     00:00:15.382    34,025 kbps     00:00:15.248    91,865 bytes    468,321 bytes   00:00:19.819
STREAM DIAGNOSTICS:
File            PID             Type            Codec           Language                Seconds                 Bitrate                 Bytes           Packets
----            ---             ----            -----           --------                --------------          --------------          -------------   -----
00000.M2TS      4113 (0x1011)   0x1B            AVC                                     12.980                  1,258                   2,040,859       11,203
00000.M2TS      4352 (0x1100)   0x80            LPCM            eng (English)           12.980                  2,323                   3,768,840       20,880
00001.M2TS      4113 (0x1011)   0x1B            AVC                                     18.185                  22,002                  50,012,372      272,101
00001.M2TS      4352 (0x1100)   0x80            LPCM            eng (English)           18.185                  2,319                   5,272,044       29,208


QUICK SUMMARY:
Disc Label: Messe in h-Moll
Disc Size: 23,484,123,518 bytes
Protection: AACS
Playlist: 01007.MPLS
Size: 64,248,000 bytes
Length: 0:00:31.297
Total Bitrate: 16.42 Mbps
Video: MPEG-4 AVC Video / 13267 kbps / 1080i / 29.970 fps / 16:9 / High Profile 4.1
Audio: English / LPCM Audio / 2.0 / 48 kHz /  2304 kbps / 24-bit

Скриншоты











                                                                                       
                       
                       
                       
                       
                       
                                 磁力下载(论坛代下载服务)
                                                               
                                       
游客,本主题需向作者支付 10金币 才能浏览,金币充值, 免回复、免金币,直接查看内容请开通VIP支付

                                               
  • 21.87 GB
  • 温馨提示

    记得善用社区搜索功能,那里可能会有你想要的资源;论坛站内搜索

    如果你有什么需要的资源可以去资源求档发帖,求助社区的网友,我们会在第一时间给你回复哦;资源求档

    对于本社区网盘链接失效密码错误各种报错请在反馈板块反馈报错发帖,您的支持,是我们发展的最大动力;投诉建议

    回复

    使用道具 举报

    您需要登录后才可以回帖 登录 | 立即注册 微信登录

    本版积分规则

    关注0

    粉丝1

    帖子29169

    发布主题
    阅读排行更多+
    关闭

    站长推荐上一条 /1 下一条

    收藏帖子 返回列表 这是一个自定义按钮
    音乐分享,音乐下载。
    微信公众号
    微信号:maomiyinyue
    意见反馈:admin@maomicd.com

    加入我们的官方QQ群和微信群

    Powered by Discuz! X3.4 Archiver|手机版|小黑屋|猫咪音乐网 ( 苏ICP备20015413号 )|( 苏公网安备 32030502000272号) 繁體

    JS of wanmeiff.com and vcpic.com Please keep this copyright information, respect of, thank you!JS of wanmeiff.com and vcpic.com Please keep this copyright information, respect of, thank you!

    GMT+8, 2021-1-20 11:14