自购原抓音乐圈:只有自购、合购、原抓级高解析(hires、sacd、dsd)正版音乐资源分享!【点我打开
极速无线网卡:千兆无线网卡、服务器网卡、USB接口台式机笔记本网卡 千兆网线 厂家批发价格最低!【点我打开
广告

[古典音乐] Wolfgang Amadeus Mozart - Konzert NR.9 ES-Dur“Jeunehomme”毛皮Klavier und Orchester KV 271; Robert Schumann - Konzert A-Moll毛皮Violoncello und Orchester Op。 129(Maria Joao Pires,Pa

[复制链接]
lz189 发表于 2020-12-20 20:46:29 | 显示全部楼层 |阅读模式 打印 上一主题 下一主题
Concert Mozart - Schumann
Wolfgang Amadeus Mozart
Konzert Nr.9 Es-Dur "Jeunehomme" für Klavier und Orchester KV 271
Robert Schumann
Konzert a-Moll für Violoncello und Orchester, op. 129


Год выпуска: 2008
Жанр: Classical / Orchestral / Concert
Продолжительность: 01:02:00
Язык: французский, синхр. перевод на немецкий
Перевод: нет
Субтитры: нет
Режиссер: Benoît Vlietinck
Исполнители:
Maria João Pires - piano
Pavel Gomziakov - violoncello
Augustin Duman - direction musicale
l'Orchestre Royal de Chambre de Wallonie
Треклист:
Wolfgang Amadeus Mozart
• Konzert Nr.9 Es-Dur “Jeunehomme” für Klavier und Orchester KV 271
Robert Schumann
• Konzert a-Moll für Violoncello und Orchester, op. 129
Доп. информация:
Aufgezeichnet in Flagey - Brüssel
... в релизе есть небольшое интервью с Maria João Pires
(французский язык, синхр. перевод на немецкий) ...
Maria João Pires und Pavel Gomziakov spielen Mozart und Schumann arte.tv
Maria João Pires from Wikipedia, the free encyclopedia
Pavel Gomziakov mariinsky.ru
Pavel Gomziakov omcroxonmanagement.co.uk
Качество видео: HDTV 720p
Контейнер: MKV
Видео кодек: H.264
Аудио кодек: AC3
Видео поток: 12.1 Mbps, 1280*720 (16:9), at 50.000 fps, AVC (High@L3.2) (CABAC / 4 Ref Frames)
Аудио поток: German, 448 Kbps, 48.0 KHz, 16 bits, 2 channels, AC-3
Источник: Digital Satellite > SkyStar HD2 (TechniSat) > ts > raw data to HDD > Cypheros TS-Doctor > mkv
MediaInfo

General
Unique ID                                : 330160437806949147299241457344596299061 (0xF862965D6287FE26399D7F07D1BE4D35)
Complete name                            : K:\rutracker.org_HD\arte HD_Concert Mozart - Schumann 2008.mkv
Format                                   : Matroska
Format version                           : Version 1
File size                                : 5.56 GiB
Duration                                 : 1h 2mn
Overall bit rate                         : 12.8 Mbps
Encoded date                             : UTC 2013-03-25 10:28:51
Writing library                          : Haali DirectShow Matroska Muxer 1.9.42.1
Video
ID                                       : 1
Format                                   : AVC
Format/Info                              : Advanced Video Codec
Format profile                           : High@L3.2
Format settings, CABAC                   : Yes
Format settings, ReFrames                : 4 frames
Codec ID                                 : V_MPEG4/ISO/AVC
Duration                                 : 1h 2mn
Bit rate                                 : 12.1 Mbps
Width                                    : 1 280 pixels
Height                                   : 720 pixels
Display aspect ratio                     : 16:9
Frame rate                               : 50.000 fps
Color space                              : YUV
Chroma subsampling                       : 4:2:0
Bit depth                                : 8 bits
Scan type                                : Progressive
Bits/(Pixel*Frame)                       : 0.262
Stream size                              : 5.25 GiB (94%)
Title                                    : PID 5111 Video
Default                                  : No
Forced                                   : No
Audio
ID                                       : 2
Format                                   : AC-3
Format/Info                              : Audio Coding 3
Mode extension                           : CM (complete main)
Codec ID                                 : A_AC3
Duration                                 : 1h 2mn
Bit rate mode                            : Constant
Bit rate                                 : 448 Kbps
Channel(s)                               : 2 channels
Channel positions                        : Front: L R
Sampling rate                            : 48.0 KHz
Bit depth                                : 16 bits
Compression mode                         : Lossy
Stream size                              : 200 MiB (4%)
Title                                    : AC3
Language                                 : German
Default                                  : Yes
Forced                                   : No


Скриншоты













                                                                                       
                       
                       
                       
                       
                       
                                 磁力下载(论坛代下载服务)
                                                               
                                       
游客,本主题需向作者支付 10金币 才能浏览,金币充值, 免回复、免金币,直接查看内容请开通VIP支付

                                               
  • 5.56 GB
  • 温馨提示

    记得善用社区搜索功能,那里可能会有你想要的资源;论坛站内搜索

    如果你有什么需要的资源可以去资源求档发帖,求助社区的网友,我们会在第一时间给你回复哦;资源求档

    对于本社区网盘链接失效密码错误各种报错请在反馈板块反馈报错发帖,您的支持,是我们发展的最大动力;投诉建议

    回复

    使用道具 举报

    您需要登录后才可以回帖 登录 | 立即注册 微信登录

    本版积分规则

    关注0

    粉丝0

    帖子29667

    发布主题
    阅读排行更多+
    关闭

    站长推荐上一条 /1 下一条

    收藏帖子 返回列表 这是一个自定义按钮
    音乐分享,音乐下载。
    微信公众号
    微信号:maomiyinyue
    意见反馈:admin@maomicd.com

    加入我们的官方QQ群和微信群

    Powered by Discuz! X3.4 Archiver|手机版|小黑屋|猫咪音乐网 ( 苏ICP备20015413号 )|( 苏公网安备 32030502000272号) 繁體

    JS of wanmeiff.com and vcpic.com Please keep this copyright information, respect of, thank you!JS of wanmeiff.com and vcpic.com Please keep this copyright information, respect of, thank you!

    GMT+8, 2021-1-23 15:00