自购原抓音乐圈:只有自购、合购、原抓级高解析(hires、sacd、dsd)正版音乐资源分享!【点我打开
极速无线网卡:千兆无线网卡、服务器网卡、USB接口台式机笔记本网卡 千兆网线 厂家批发价格最低!【点我打开
广告

[古典音乐] Advantskonert(Andres Orozco-Estrada,Sonya Yoncheva,Cregula Muhlemann,Dresdner Kamerchor,Dresdner Kammerchor,Staatskapelle Dresden)[2016,古典,HDTV 720p]

[复制链接]
lz189 发表于 2020-12-20 20:46:29 | 显示全部楼层 |阅读模式 打印 上一主题 下一主题
Adventskonzert (Advent Concert) aus Dresden
Год выпуска: 2016
Жанр: Classical
Продолжительность: 00:58:19
Дирижер : Andrés Orozco-Estrada
Исполнители: Sonya Yoncheva & Regula Mühlemann - Sopran
Dresdner Kreuzchor - Chor
Dresdner Kammerchor - Chor
Staatskapelle Dresden - Orchester
Треклист:
Felix Mendelssohn Bartholdy
Symphonie Nr. 2 „Lobgesang“:
Alles, was Odem hat, lobe den Herrn
Lobe den Herrn, meine Seele
Sonya Yoncheva, Dresdner Kammerchor, Staatskapelle Dresden
Wolfgang Amadeus Mozart
Exsultate jubilate:
Exsultate jubilate
Alleluia
Regula Mühlemann, Staatskapelle Dresden
Johann Eccard
Übers Gebirg Maria geht
Dresdner Kreuzchor
Franz Schubert
Magnificat:
Magnificat anima mea
Deposuit potentes
Gloria patri
Regula Mühlemann, Solisten der Semperoper, Dresdner Kammerchor, Staatskapelle Dresden
Felix Mendelssohn Bartholdy
Symphonie Nr. 5 „Reformation“:
Finale „Ein feste Burg ist unser Gott“
Staatskapelle Dresden

Georg Friedrich Händel
Rinaldo:
Lascia ch’io pianga
Sonya Yoncheva, Staatskapelle Dresden
Anton Bruckner
Ave Maria
Dresdner Kreuzchor

Felix Mendelssohn Bartholdy
Symphonie Nr. 2 „Lobgesang“:
Ich harrete des Herrn
Sonya Yoncheva, Regula Mühlemann, Kammerchor, Staatskapelle
Macht hoch die Tür
(Arrangement : Jarkko Riihimäki)
Alle Mitwirkenden

Качество видео: HDTV 720p
Формат/Контейнер: TS
Видео кодек: H.264
Аудио кодек: AC3
Видео поток: AVC, 1280x720 (16:9), 50.000 fps, 13.3 Mbps
Аудио поток: AC-3, 48.0 KHz, 2 ch, 448 Kbps
MediaInfo

General
ID                                       : 1011 (0x3F3)
Complete name                            : N:\Adventskonzert Dresden 2016 720p HDTV H.264 DD5.1-rem.ts
Format                                   : MPEG-TS
File size                                : 5.90 GiB
Duration                                 : 58 min 19 s
Overall bit rate mode                    : Variable
Overall bit rate                         : 14.5 Mb/s
Video
ID                                       : 6110 (0x17DE)
Menu ID                                  : 11110 (0x2B66)
Format                                   : AVC
Format/Info                              : Advanced Video Codec
Format profile                           : [email protected]
Format settings, CABAC                   : Yes
Format settings, ReFrames                : 6 frames
Format settings, GOP                     : M=4, N=33
Codec ID                                 : 27
Duration                                 : 58 min 19 s
Bit rate                                 : 13.3 Mb/s
Width                                    : 1 280 pixels
Height                                   : 720 pixels
Display aspect ratio                     : 16:9
Frame rate                               : 50.000 FPS
Color space                              : YUV
Chroma subsampling                       : 4:2:0
Bit depth                                : 8 bits
Scan type                                : Progressive
Bits/(Pixel*Frame)                       : 0.289
Stream size                              : 5.43 GiB (92%)
Color range                              : Limited
Color primaries                          : BT.709
Transfer characteristics                 : BT.709
Matrix coefficients                      : BT.709
Audio
ID                                       : 6122 (0x17EA)
Menu ID                                  : 11110 (0x2B66)
Format                                   : AC-3
Format/Info                              : Audio Coding 3
Mode extension                           : CM (complete main)
Format settings, Endianness              : Big
Codec ID                                 : 6
Duration                                 : 58 min 19 s
Bit rate mode                            : Constant
Bit rate                                 : 448 kb/s
Channel(s)                               : 2 channels
Channel positions                        : Front: L R
Sampling rate                            : 48.0 kHz
Frame rate                               : 31.250 FPS (1536 spf)
Compression mode                         : Lossy
Delay relative to video                  : 8 ms
Stream size                              : 187 MiB (3%)
Language                                 : German

Скриншоты




















                                                                                       
                       
                       
                       
                       
                       
                                 磁力下载(论坛代下载服务)
                                                               
                                       
游客,本主题需向作者支付 10金币 才能浏览,金币充值, 免回复、免金币,直接查看内容请开通VIP支付

                                               
  • 5.9 GB
  • 温馨提示

    记得善用社区搜索功能,那里可能会有你想要的资源;论坛站内搜索

    如果你有什么需要的资源可以去资源求档发帖,求助社区的网友,我们会在第一时间给你回复哦;资源求档

    对于本社区网盘链接失效密码错误各种报错请在反馈板块反馈报错发帖,您的支持,是我们发展的最大动力;投诉建议

    回复

    使用道具 举报

    您需要登录后才可以回帖 登录 | 立即注册 微信登录

    本版积分规则

    关注0

    粉丝0

    帖子29667

    发布主题
    阅读排行更多+
    关闭

    站长推荐上一条 /1 下一条

    收藏帖子 返回列表 这是一个自定义按钮
    音乐分享,音乐下载。
    微信公众号
    微信号:maomiyinyue
    意见反馈:[email protected]

    加入我们的官方QQ群和微信群

    Powered by Discuz! X3.4 Archiver|手机版|小黑屋|猫咪音乐网 ( 苏ICP备20015413号 )|( 苏公网安备 32030502000272号) 繁體

    JS of wanmeiff.com and vcpic.com Please keep this copyright information, respect of, thank you!JS of wanmeiff.com and vcpic.com Please keep this copyright information, respect of, thank you!

    GMT+8, 2021-1-24 00:16