自购原抓音乐圈:只有自购、合购、原抓级高解析(hires、sacd、dsd)正版音乐资源分享!【点我打开
极速无线网卡:千兆无线网卡、服务器网卡、USB接口台式机笔记本网卡 千兆网线 厂家批发价格最低!【点我打开
广告

[古典音乐] 布鲁克纳 - 交响乐数4 - Staatskapelle Berlin,Daniel Barenboim [2013,古典,Blu-ray]

[复制链接]
lz189 发表于 2020-12-20 20:46:28 | 显示全部楼层 |阅读模式 打印 上一主题 下一主题
Bruckner - Symphony No. 4 - Staatskapelle Berlin, Daniel Barenboim
Год выпуска: 2013
Лейбл: Accentus Music
Страна-производитель: Germany
Жанр: Classical
Продолжительность: 01:09:36
Язык: German
Исполнители: Staatskapelle Berlin, Daniel Barenboim
Треклист:
Bruckner: Symphony No. 4 in Eb Major 'Romantic' 1878/1880 Version
Описание:
Daniel Barenboim is an expert in exploiting the impact of cyclical performances of composers works: In this series he focuses his sharp intellect on all six of Anton Bruckners mature symphonies.
Der Tagesspiegel described Barenboim's performance of the works with the Staatskapelle Berlin on six nearly consecutive evenings in June 2010 as a superhuman accomplishment and went on to praise how: His Bruckner is conceived and performed very theatrically, like an opera without words.
Bruckners famous Romantic Symphony No. 4 forms the prelude to a spectacular DVD series from Accentus Music and Unitel Classica, exploring Bruckners symphonic cosmos.
Доп. информация: https://www.prestomusic.com/classical/products/8026710--bruckner-the-mature-symphonies-symphony-no-4
https://www.amazon.co.uk/Anton-Bruckner-Symphony-Barenboim-Staatskapelle/dp/B00AA9QJII
Качество видео: Blu-ray
Формат/Контейнер: BDMV
Видео кодек: H.264
Аудио кодек: PCM + DTS
Видео поток: MPEG-4 AVC Video / 25978 kbps / 1080i / 29.970 fps / 16:9 / High Profile 4.1
Аудио поток #1: German / LPCM Audio / 2.0 / 48 kHz / 2304 kbps / 24-bit
Аудио поток #2: German / DTS-HD Master Audio / 5.1 / 48 kHz / 3884 kbps / 24-bit (DTS Core: 5.1 / 48 kHz / 1509 kbps / 24-bit)
BackCover


Скриншоты













BDInfo
Disc Title: Bruckner - Symphony No. 4 - Staatskapelle Berlin, Daniel Barenboim - 2013
Disc Size: 20,361,006,288 bytes
Protection: AACS
BD-Java: Yes
BDInfo: 0.7.1
Notes:
BDINFO HOME:
Cinema Squid
http://www.cinemasquid.com/blu-ray/tools/bdinfo
INCLUDES FORUMS REPORT FOR:
AVS Forum Blu-ray Audio and Video Specifications Thread
http://www.avsforum.com/avs-vb/showthread.php?t=1155731
********************
PLAYLIST: 00003.MPLS
********************

Код:

                                                                                Total   Video
Title                                                           Codec   Length  Movie Size      Disc Size       Bitrate Bitrate Main Audio Track                          Secondary Audio Track
-----                                                           ------  ------- --------------  --------------  ------- ------- ------------------                        ---------------------
00003.MPLS                                                      AVC     1:09:37 17,730,248,064  20,361,006,288  33.95   25.98   DTS-HD Master 5.1 3884Kbps (48kHz/24-bit) LPCM 2.0 2304Kbps (48kHz/24-bit)

Код:
DISC INFO:
Disc Title:     Bruckner - Symphony No. 4 - Staatskapelle Berlin, Daniel Barenboim - 2013
Disc Size:      20,361,006,288 bytes
Protection:     AACS
BD-Java:        Yes
BDInfo:         0.7.1
PLAYLIST REPORT:
Name:                   00003.MPLS
Length:                 1:09:37.606 (h:m:s.ms)
Size:                   17,730,248,064 bytes
Total Bitrate:          33.95 Mbps
VIDEO:
Codec                   Bitrate             Description
-----                   -------             -----------
MPEG-4 AVC Video        25978 kbps          1080i / 29.970 fps / 16:9 / High Profile 4.1
AUDIO:
Codec                           Language        Bitrate         Description
-----                           --------        -------         -----------
DTS-HD Master Audio             German          3884 kbps       5.1 / 48 kHz / 3884 kbps / 24-bit (DTS Core: 5.1 / 48 kHz / 1509 kbps / 24-bit)
LPCM Audio                      German          2304 kbps       2.0 / 48 kHz / 2304 kbps / 24-bit
FILES:
Name            Time In         Length          Size            Total Bitrate
----            -------         ------          ----            -------------
00003.M2TS      0:00:00.000     1:09:37.606     17,730,248,064  33,953
CHAPTERS:
Number          Time In         Length          Avg Video Rate  Max 1-Sec Rate  Max 1-Sec Time  Max 5-Sec Rate  Max 5-Sec Time  Max 10Sec Rate  Max 10Sec Time  Avg Frame Size  Max Frame Size  Max Frame Time
------          -------         ------          --------------  --------------  --------------  --------------  --------------  --------------  --------------  --------------  --------------  --------------
1               0:00:00.000     1:09:37.606     25,978 kbps     40,866 kbps     01:07:32.214    34,807 kbps     01:06:16.072    33,236 kbps     00:41:30.855    108,352 bytes   497,759 bytes   00:19:10.983
STREAM DIAGNOSTICS:
File            PID             Type            Codec           Language                Seconds                 Bitrate                 Bytes           Packets
----            ---             ----            -----           --------                --------------          --------------          -------------   -----
00003.M2TS      4113 (0x1011)   0x1B            AVC                                     4177.540                25,979                  13,565,781,295  73,801,402
00003.M2TS      4352 (0x1100)   0x86            DTS-HD MA       deu (German)            4177.540                3,884                   2,028,154,576   11,673,811
00003.M2TS      4353 (0x1101)   0x80            LPCM            deu (German)            4177.540                2,310                   1,206,490,880   6,684,160

QUICK SUMMARY:
Disc Title: Bruckner - Symphony No. 4 - Staatskapelle Berlin, Daniel Barenboim - 2013
Disc Size: 20,361,006,288 bytes
Protection: AACS
BD-Java: Yes
Playlist: 00003.MPLS
Size: 17,730,248,064 bytes
Length: 1:09:37.606
Total Bitrate: 33.95 Mbps
Video: MPEG-4 AVC Video / 25978 kbps / 1080i / 29.970 fps / 16:9 / High Profile 4.1
Audio: German / DTS-HD Master Audio / 5.1 / 48 kHz / 3884 kbps / 24-bit (DTS Core: 5.1 / 48 kHz / 1509 kbps / 24-bit)
Audio: German / LPCM Audio / 2.0 / 48 kHz / 2304 kbps / 24-bit
********************
PLAYLIST: 01002.MPLS
********************

Код:

                                                                                Total   Video
Title                                                           Codec   Length  Movie Size      Disc Size       Bitrate Bitrate Main Audio Track                          Secondary Audio Track
-----                                                           ------  ------- --------------  --------------  ------- ------- ------------------                        ---------------------
01002.MPLS                                                      AVC     1:09:37 17,730,248,064  20,361,006,288  33.95   25.98   DTS-HD Master 5.1 3884Kbps (48kHz/24-bit) LPCM 2.0 2304Kbps (48kHz/24-bit)

Код:
DISC INFO:
Disc Title:     Bruckner - Symphony No. 4 - Staatskapelle Berlin, Daniel Barenboim - 2013
Disc Size:      20,361,006,288 bytes
Protection:     AACS
BD-Java:        Yes
BDInfo:         0.7.1
PLAYLIST REPORT:
Name:                   01002.MPLS
Length:                 1:09:37.606 (h:m:s.ms)
Size:                   17,730,248,064 bytes
Total Bitrate:          33.95 Mbps
VIDEO:
Codec                   Bitrate             Description
-----                   -------             -----------
MPEG-4 AVC Video        25978 kbps          1080i / 29.970 fps / 16:9 / High Profile 4.1
AUDIO:
Codec                           Language        Bitrate         Description
-----                           --------        -------         -----------
DTS-HD Master Audio             German          3884 kbps       5.1 / 48 kHz / 3884 kbps / 24-bit (DTS Core: 5.1 / 48 kHz / 1509 kbps / 24-bit)
LPCM Audio                      German          2304 kbps       2.0 / 48 kHz / 2304 kbps / 24-bit
FILES:
Name            Time In         Length          Size            Total Bitrate
----            -------         ------          ----            -------------
00003.M2TS      0:00:00.000     1:09:37.606     17,730,248,064  33,953
CHAPTERS:
Number          Time In         Length          Avg Video Rate  Max 1-Sec Rate  Max 1-Sec Time  Max 5-Sec Rate  Max 5-Sec Time  Max 10Sec Rate  Max 10Sec Time  Avg Frame Size  Max Frame Size  Max Frame Time
------          -------         ------          --------------  --------------  --------------  --------------  --------------  --------------  --------------  --------------  --------------  --------------
1               0:00:00.000     0:01:09.602     22,402 kbps     36,425 kbps     00:01:07.200    32,592 kbps     00:01:02.929    31,436 kbps     00:00:58.558    93,390 bytes    480,616 bytes   00:01:08.168
2               0:01:09.602     0:17:48.333     25,874 kbps     35,976 kbps     00:04:36.109    33,380 kbps     00:15:27.426    32,832 kbps     00:15:22.421    107,914 bytes   453,738 bytes   00:04:34.207
3               0:18:57.936     0:15:02.067     25,257 kbps     36,124 kbps     00:30:11.910    33,648 kbps     00:26:07.866    32,053 kbps     00:26:34.159    105,343 bytes   497,759 bytes   00:19:10.983
4               0:34:00.004     0:10:58.391     26,938 kbps     37,310 kbps     00:43:12.957    34,569 kbps     00:41:36.760    33,236 kbps     00:41:30.855    112,353 bytes   474,919 bytes   00:36:54.845
5               0:44:58.395     0:22:53.371     26,326 kbps     40,866 kbps     01:07:32.214    34,807 kbps     01:06:16.072    32,990 kbps     00:50:39.469    109,801 bytes   493,336 bytes   01:06:14.370
6               1:07:51.767     0:01:45.839     25,045 kbps     40,635 kbps     01:08:05.147    32,379 kbps     01:09:00.469    30,481 kbps     01:08:58.934    104,559 bytes   438,415 bytes   01:09:18.687
STREAM DIAGNOSTICS:
File            PID             Type            Codec           Language                Seconds                 Bitrate                 Bytes           Packets
----            ---             ----            -----           --------                --------------          --------------          -------------   -----
00003.M2TS      4113 (0x1011)   0x1B            AVC                                     4177.540                25,979                  13,565,781,295  73,801,402
00003.M2TS      4352 (0x1100)   0x86            DTS-HD MA       deu (German)            4177.540                3,884                   2,028,154,576   11,673,811
00003.M2TS      4353 (0x1101)   0x80            LPCM            deu (German)            4177.540                2,310                   1,206,490,880   6,684,160

QUICK SUMMARY:
Disc Title: Bruckner - Symphony No. 4 - Staatskapelle Berlin, Daniel Barenboim - 2013
Disc Size: 20,361,006,288 bytes
Protection: AACS
BD-Java: Yes
Playlist: 01002.MPLS
Size: 17,730,248,064 bytes
Length: 1:09:37.606
Total Bitrate: 33.95 Mbps
Video: MPEG-4 AVC Video / 25978 kbps / 1080i / 29.970 fps / 16:9 / High Profile 4.1
Audio: German / DTS-HD Master Audio / 5.1 / 48 kHz / 3884 kbps / 24-bit (DTS Core: 5.1 / 48 kHz / 1509 kbps / 24-bit)
Audio: German / LPCM Audio / 2.0 / 48 kHz / 2304 kbps / 24-bit
********************
PLAYLIST: 00004.MPLS
********************

Код:

                                                                                Total   Video
Title                                                           Codec   Length  Movie Size      Disc Size       Bitrate Bitrate Main Audio Track                          Secondary Audio Track
-----                                                           ------  ------- --------------  --------------  ------- ------- ------------------                        ---------------------
00004.MPLS                                                      AVC     0:04:21 676,046,208     20,361,006,288  20.70   17.97   LPCM 2.0 1536Kbps (48kHz/16-bit)

Код:
DISC INFO:
Disc Title:     Bruckner - Symphony No. 4 - Staatskapelle Berlin, Daniel Barenboim - 2013
Disc Size:      20,361,006,288 bytes
Protection:     AACS
BD-Java:        Yes
BDInfo:         0.7.1
PLAYLIST REPORT:
Name:                   00004.MPLS
Length:                 0:04:21.327 (h:m:s.ms)
Size:                   676,046,208 bytes
Total Bitrate:          20.70 Mbps
VIDEO:
Codec                   Bitrate             Description
-----                   -------             -----------
MPEG-4 AVC Video        17973 kbps          1080i / 29.970 fps / 16:9 / High Profile 4.1
AUDIO:
Codec                           Language        Bitrate         Description
-----                           --------        -------         -----------
LPCM Audio                      English         1536 kbps       2.0 / 48 kHz / 1536 kbps / 16-bit
FILES:
Name            Time In         Length          Size            Total Bitrate
----            -------         ------          ----            -------------
00004.M2TS      0:00:00.000     0:04:21.327     676,046,208     20,693
CHAPTERS:
Number          Time In         Length          Avg Video Rate  Max 1-Sec Rate  Max 1-Sec Time  Max 5-Sec Rate  Max 5-Sec Time  Max 10Sec Rate  Max 10Sec Time  Avg Frame Size  Max Frame Size  Max Frame Time
------          -------         ------          --------------  --------------  --------------  --------------  --------------  --------------  --------------  --------------  --------------  --------------
1               0:00:00.000     0:04:21.327     17,975 kbps     33,726 kbps     00:03:29.375    28,734 kbps     00:03:28.041    26,470 kbps     00:03:50.630    74,992 bytes    417,985 bytes   00:03:29.409
STREAM DIAGNOSTICS:
File            PID             Type            Codec           Language                Seconds                 Bitrate                 Bytes           Packets
----            ---             ----            -----           --------                --------------          --------------          -------------   -----
00004.M2TS      4113 (0x1011)   0x1B            AVC                                     261.261                 17,980                  587,187,991     3,195,858
00004.M2TS      4352 (0x1100)   0x80            LPCM            eng (English)           261.261                 1,543                   50,384,240      313,595

QUICK SUMMARY:
Disc Title: Bruckner - Symphony No. 4 - Staatskapelle Berlin, Daniel Barenboim - 2013
Disc Size: 20,361,006,288 bytes
Protection: AACS
BD-Java: Yes
Playlist: 00004.MPLS
Size: 676,046,208 bytes
Length: 0:04:21.327
Total Bitrate: 20.70 Mbps
Video: MPEG-4 AVC Video / 17973 kbps / 1080i / 29.970 fps / 16:9 / High Profile 4.1
Audio: English / LPCM Audio / 2.0 / 48 kHz / 1536 kbps / 16-bit
********************
PLAYLIST: 01003.MPLS
********************

Код:

                                                                                Total   Video
Title                                                           Codec   Length  Movie Size      Disc Size       Bitrate Bitrate Main Audio Track                          Secondary Audio Track
-----                                                           ------  ------- --------------  --------------  ------- ------- ------------------                        ---------------------
01003.MPLS                                                      AVC     0:04:21 676,046,208     20,361,006,288  20.70   17.97   LPCM 2.0 1536Kbps (48kHz/16-bit)

Код:
DISC INFO:
Disc Title:     Bruckner - Symphony No. 4 - Staatskapelle Berlin, Daniel Barenboim - 2013
Disc Size:      20,361,006,288 bytes
Protection:     AACS
BD-Java:        Yes
BDInfo:         0.7.1
PLAYLIST REPORT:
Name:                   01003.MPLS
Length:                 0:04:21.327 (h:m:s.ms)
Size:                   676,046,208 bytes
Total Bitrate:          20.70 Mbps
VIDEO:
Codec                   Bitrate             Description
-----                   -------             -----------
MPEG-4 AVC Video        17973 kbps          1080i / 29.970 fps / 16:9 / High Profile 4.1
AUDIO:
Codec                           Language        Bitrate         Description
-----                           --------        -------         -----------
LPCM Audio                      English         1536 kbps       2.0 / 48 kHz / 1536 kbps / 16-bit
FILES:
Name            Time In         Length          Size            Total Bitrate
----            -------         ------          ----            -------------
00004.M2TS      0:00:00.000     0:04:21.327     676,046,208     20,693
CHAPTERS:
Number          Time In         Length          Avg Video Rate  Max 1-Sec Rate  Max 1-Sec Time  Max 5-Sec Rate  Max 5-Sec Time  Max 10Sec Rate  Max 10Sec Time  Avg Frame Size  Max Frame Size  Max Frame Time
------          -------         ------          --------------  --------------  --------------  --------------  --------------  --------------  --------------  --------------  --------------  --------------
1               0:00:00.000     0:04:21.327     17,975 kbps     33,726 kbps     00:03:29.375    28,734 kbps     00:03:28.041    26,470 kbps     00:03:50.630    74,992 bytes    417,985 bytes   00:03:29.409
STREAM DIAGNOSTICS:
File            PID             Type            Codec           Language                Seconds                 Bitrate                 Bytes           Packets
----            ---             ----            -----           --------                --------------          --------------          -------------   -----
00004.M2TS      4113 (0x1011)   0x1B            AVC                                     261.261                 17,980                  587,187,991     3,195,858
00004.M2TS      4352 (0x1100)   0x80            LPCM            eng (English)           261.261                 1,543                   50,384,240      313,595

QUICK SUMMARY:
Disc Title: Bruckner - Symphony No. 4 - Staatskapelle Berlin, Daniel Barenboim - 2013
Disc Size: 20,361,006,288 bytes
Protection: AACS
BD-Java: Yes
Playlist: 01003.MPLS
Size: 676,046,208 bytes
Length: 0:04:21.327
Total Bitrate: 20.70 Mbps
Video: MPEG-4 AVC Video / 17973 kbps / 1080i / 29.970 fps / 16:9 / High Profile 4.1
Audio: English / LPCM Audio / 2.0 / 48 kHz / 1536 kbps / 16-bit
********************
PLAYLIST: 00006.MPLS
********************

Код:

                                                                                Total   Video
Title                                                           Codec   Length  Movie Size      Disc Size       Bitrate Bitrate Main Audio Track                          Secondary Audio Track
-----                                                           ------  ------- --------------  --------------  ------- ------- ------------------                        ---------------------
00006.MPLS                                                      AVC     0:03:57 614,114,688     20,361,006,288  20.71   17.99   LPCM 2.0 1536Kbps (48kHz/16-bit)

Код:
DISC INFO:
Disc Title:     Bruckner - Symphony No. 4 - Staatskapelle Berlin, Daniel Barenboim - 2013
Disc Size:      20,361,006,288 bytes
Protection:     AACS
BD-Java:        Yes
BDInfo:         0.7.1
PLAYLIST REPORT:
Name:                   00006.MPLS
Length:                 0:03:57.203 (h:m:s.ms)
Size:                   614,114,688 bytes
Total Bitrate:          20.71 Mbps
VIDEO:
Codec                   Bitrate             Description
-----                   -------             -----------
MPEG-4 AVC Video        17988 kbps          1080i / 29.970 fps / 16:9 / High Profile 4.1
AUDIO:
Codec                           Language        Bitrate         Description
-----                           --------        -------         -----------
LPCM Audio                      English         1536 kbps       2.0 / 48 kHz / 1536 kbps / 16-bit
FILES:
Name            Time In         Length          Size            Total Bitrate
----            -------         ------          ----            -------------
00006.M2TS      0:00:00.000     0:03:57.203     614,114,688     20,709
CHAPTERS:
Number          Time In         Length          Avg Video Rate  Max 1-Sec Rate  Max 1-Sec Time  Max 5-Sec Rate  Max 5-Sec Time  Max 10Sec Rate  Max 10Sec Time  Avg Frame Size  Max Frame Size  Max Frame Time
------          -------         ------          --------------  --------------  --------------  --------------  --------------  --------------  --------------  --------------  --------------  --------------
1               0:00:00.000     0:03:57.203     17,991 kbps     34,260 kbps     00:00:08.308    28,962 kbps     00:00:31.398    27,158 kbps     00:02:58.211    75,058 bytes    416,161 bytes   00:00:09.109
STREAM DIAGNOSTICS:
File            PID             Type            Codec           Language                Seconds                 Bitrate                 Bytes           Packets
----            ---             ----            -----           --------                --------------          --------------          -------------   -----
00006.M2TS      4113 (0x1011)   0x1B            AVC                                     237.137                 17,996                  533,437,169     2,903,311
00006.M2TS      4352 (0x1100)   0x80            LPCM            eng (English)           237.137                 1,543                   45,732,160      284,640

QUICK SUMMARY:
Disc Title: Bruckner - Symphony No. 4 - Staatskapelle Berlin, Daniel Barenboim - 2013
Disc Size: 20,361,006,288 bytes
Protection: AACS
BD-Java: Yes
Playlist: 00006.MPLS
Size: 614,114,688 bytes
Length: 0:03:57.203
Total Bitrate: 20.71 Mbps
Video: MPEG-4 AVC Video / 17988 kbps / 1080i / 29.970 fps / 16:9 / High Profile 4.1
Audio: English / LPCM Audio / 2.0 / 48 kHz / 1536 kbps / 16-bit
********************
PLAYLIST: 01005.MPLS
********************

Код:

                                                                                Total   Video
Title                                                           Codec   Length  Movie Size      Disc Size       Bitrate Bitrate Main Audio Track                          Secondary Audio Track
-----                                                           ------  ------- --------------  --------------  ------- ------- ------------------                        ---------------------
01005.MPLS                                                      AVC     0:03:57 614,114,688     20,361,006,288  20.71   17.99   LPCM 2.0 1536Kbps (48kHz/16-bit)

Код:
DISC INFO:
Disc Title:     Bruckner - Symphony No. 4 - Staatskapelle Berlin, Daniel Barenboim - 2013
Disc Size:      20,361,006,288 bytes
Protection:     AACS
BD-Java:        Yes
BDInfo:         0.7.1
PLAYLIST REPORT:
Name:                   01005.MPLS
Length:                 0:03:57.203 (h:m:s.ms)
Size:                   614,114,688 bytes
Total Bitrate:          20.71 Mbps
VIDEO:
Codec                   Bitrate             Description
-----                   -------             -----------
MPEG-4 AVC Video        17988 kbps          1080i / 29.970 fps / 16:9 / High Profile 4.1
AUDIO:
Codec                           Language        Bitrate         Description
-----                           --------        -------         -----------
LPCM Audio                      English         1536 kbps       2.0 / 48 kHz / 1536 kbps / 16-bit
FILES:
Name            Time In         Length          Size            Total Bitrate
----            -------         ------          ----            -------------
00006.M2TS      0:00:00.000     0:03:57.203     614,114,688     20,709
CHAPTERS:
Number          Time In         Length          Avg Video Rate  Max 1-Sec Rate  Max 1-Sec Time  Max 5-Sec Rate  Max 5-Sec Time  Max 10Sec Rate  Max 10Sec Time  Avg Frame Size  Max Frame Size  Max Frame Time
------          -------         ------          --------------  --------------  --------------  --------------  --------------  --------------  --------------  --------------  --------------  --------------
1               0:00:00.000     0:03:57.203     17,991 kbps     34,260 kbps     00:00:08.308    28,962 kbps     00:00:31.398    27,158 kbps     00:02:58.211    75,058 bytes    416,161 bytes   00:00:09.109
STREAM DIAGNOSTICS:
File            PID             Type            Codec           Language                Seconds                 Bitrate                 Bytes           Packets
----            ---             ----            -----           --------                --------------          --------------          -------------   -----
00006.M2TS      4113 (0x1011)   0x1B            AVC                                     237.137                 17,996                  533,437,169     2,903,311
00006.M2TS      4352 (0x1100)   0x80            LPCM            eng (English)           237.137                 1,543                   45,732,160      284,640

QUICK SUMMARY:
Disc Title: Bruckner - Symphony No. 4 - Staatskapelle Berlin, Daniel Barenboim - 2013
Disc Size: 20,361,006,288 bytes
Protection: AACS
BD-Java: Yes
Playlist: 01005.MPLS
Size: 614,114,688 bytes
Length: 0:03:57.203
Total Bitrate: 20.71 Mbps
Video: MPEG-4 AVC Video / 17988 kbps / 1080i / 29.970 fps / 16:9 / High Profile 4.1
Audio: English / LPCM Audio / 2.0 / 48 kHz / 1536 kbps / 16-bit
********************
PLAYLIST: 00007.MPLS
********************

Код:

                                                                                Total   Video
Title                                                           Codec   Length  Movie Size      Disc Size       Bitrate Bitrate Main Audio Track                          Secondary Audio Track
-----                                                           ------  ------- --------------  --------------  ------- ------- ------------------                        ---------------------
00007.MPLS                                                      AVC     0:03:50 594,793,344     20,361,006,288  20.66   17.93   LPCM 2.0 1536Kbps (48kHz/16-bit)

Код:
DISC INFO:
Disc Title:     Bruckner - Symphony No. 4 - Staatskapelle Berlin, Daniel Barenboim - 2013
Disc Size:      20,361,006,288 bytes
Protection:     AACS
BD-Java:        Yes
BDInfo:         0.7.1
PLAYLIST REPORT:
Name:                   00007.MPLS
Length:                 0:03:50.363 (h:m:s.ms)
Size:                   594,793,344 bytes
Total Bitrate:          20.66 Mbps
VIDEO:
Codec                   Bitrate             Description
-----                   -------             -----------
MPEG-4 AVC Video        17934 kbps          1080i / 29.970 fps / 16:9 / High Profile 4.1
AUDIO:
Codec                           Language        Bitrate         Description
-----                           --------        -------         -----------
LPCM Audio                      English         1536 kbps       2.0 / 48 kHz / 1536 kbps / 16-bit
FILES:
Name            Time In         Length          Size            Total Bitrate
----            -------         ------          ----            -------------
00007.M2TS      0:00:00.000     0:03:50.363     594,793,344     20,653
CHAPTERS:
Number          Time In         Length          Avg Video Rate  Max 1-Sec Rate  Max 1-Sec Time  Max 5-Sec Rate  Max 5-Sec Time  Max 10Sec Rate  Max 10Sec Time  Avg Frame Size  Max Frame Size  Max Frame Time
------          -------         ------          --------------  --------------  --------------  --------------  --------------  --------------  --------------  --------------  --------------  --------------
1               0:00:00.000     0:03:50.363     17,937 kbps     33,867 kbps     00:00:09.576    29,299 kbps     00:00:09.442    27,121 kbps     00:00:09.342    74,833 bytes    353,395 bytes   00:00:10.510
STREAM DIAGNOSTICS:
File            PID             Type            Codec           Language                Seconds                 Bitrate                 Bytes           Packets
----            ---             ----            -----           --------                --------------          --------------          -------------   -----
00007.M2TS      4113 (0x1011)   0x1B            AVC                                     230.297                 17,943                  516,537,250     2,811,373
00007.M2TS      4352 (0x1100)   0x80            LPCM            eng (English)           230.297                 1,543                   44,421,120      276,480

QUICK SUMMARY:
Disc Title: Bruckner - Symphony No. 4 - Staatskapelle Berlin, Daniel Barenboim - 2013
Disc Size: 20,361,006,288 bytes
Protection: AACS
BD-Java: Yes
Playlist: 00007.MPLS
Size: 594,793,344 bytes
Length: 0:03:50.363
Total Bitrate: 20.66 Mbps
Video: MPEG-4 AVC Video / 17934 kbps / 1080i / 29.970 fps / 16:9 / High Profile 4.1
Audio: English / LPCM Audio / 2.0 / 48 kHz / 1536 kbps / 16-bit
********************
PLAYLIST: 01006.MPLS
********************

Код:

                                                                                Total   Video
Title                                                           Codec   Length  Movie Size      Disc Size       Bitrate Bitrate Main Audio Track                          Secondary Audio Track
-----                                                           ------  ------- --------------  --------------  ------- ------- ------------------                        ---------------------
01006.MPLS                                                      AVC     0:03:50 594,793,344     20,361,006,288  20.66   17.93   LPCM 2.0 1536Kbps (48kHz/16-bit)

Код:
DISC INFO:
Disc Title:     Bruckner - Symphony No. 4 - Staatskapelle Berlin, Daniel Barenboim - 2013
Disc Size:      20,361,006,288 bytes
Protection:     AACS
BD-Java:        Yes
BDInfo:         0.7.1
PLAYLIST REPORT:
Name:                   01006.MPLS
Length:                 0:03:50.363 (h:m:s.ms)
Size:                   594,793,344 bytes
Total Bitrate:          20.66 Mbps
VIDEO:
Codec                   Bitrate             Description
-----                   -------             -----------
MPEG-4 AVC Video        17934 kbps          1080i / 29.970 fps / 16:9 / High Profile 4.1
AUDIO:
Codec                           Language        Bitrate         Description
-----                           --------        -------         -----------
LPCM Audio                      English         1536 kbps       2.0 / 48 kHz / 1536 kbps / 16-bit
FILES:
Name            Time In         Length          Size            Total Bitrate
----            -------         ------          ----            -------------
00007.M2TS      0:00:00.000     0:03:50.363     594,793,344     20,653
CHAPTERS:
Number          Time In         Length          Avg Video Rate  Max 1-Sec Rate  Max 1-Sec Time  Max 5-Sec Rate  Max 5-Sec Time  Max 10Sec Rate  Max 10Sec Time  Avg Frame Size  Max Frame Size  Max Frame Time
------          -------         ------          --------------  --------------  --------------  --------------  --------------  --------------  --------------  --------------  --------------  --------------
1               0:00:00.000     0:03:50.363     17,937 kbps     33,867 kbps     00:00:09.576    29,299 kbps     00:00:09.442    27,121 kbps     00:00:09.342    74,833 bytes    353,395 bytes   00:00:10.510
STREAM DIAGNOSTICS:
File            PID             Type            Codec           Language                Seconds                 Bitrate                 Bytes           Packets
----            ---             ----            -----           --------                --------------          --------------          -------------   -----
00007.M2TS      4113 (0x1011)   0x1B            AVC                                     230.297                 17,943                  516,537,250     2,811,373
00007.M2TS      4352 (0x1100)   0x80            LPCM            eng (English)           230.297                 1,543                   44,421,120      276,480

QUICK SUMMARY:
Disc Title: Bruckner - Symphony No. 4 - Staatskapelle Berlin, Daniel Barenboim - 2013
Disc Size: 20,361,006,288 bytes
Protection: AACS
BD-Java: Yes
Playlist: 01006.MPLS
Size: 594,793,344 bytes
Length: 0:03:50.363
Total Bitrate: 20.66 Mbps
Video: MPEG-4 AVC Video / 17934 kbps / 1080i / 29.970 fps / 16:9 / High Profile 4.1
Audio: English / LPCM Audio / 2.0 / 48 kHz / 1536 kbps / 16-bit
********************
PLAYLIST: 00005.MPLS
********************

Код:

                                                                                Total   Video
Title                                                           Codec   Length  Movie Size      Disc Size       Bitrate Bitrate Main Audio Track                          Secondary Audio Track
-----                                                           ------  ------- --------------  --------------  ------- ------- ------------------                        ---------------------
00005.MPLS                                                      AVC     0:03:44 581,907,840     20,361,006,288  20.71   17.99   LPCM 2.0 1536Kbps (48kHz/16-bit)

Код:
DISC INFO:
Disc Title:     Bruckner - Symphony No. 4 - Staatskapelle Berlin, Daniel Barenboim - 2013
Disc Size:      20,361,006,288 bytes
Protection:     AACS
BD-Java:        Yes
BDInfo:         0.7.1
PLAYLIST REPORT:
Name:                   00005.MPLS
Length:                 0:03:44.757 (h:m:s.ms)
Size:                   581,907,840 bytes
Total Bitrate:          20.71 Mbps
VIDEO:
Codec                   Bitrate             Description
-----                   -------             -----------
MPEG-4 AVC Video        17988 kbps          1080i / 29.970 fps / 16:9 / High Profile 4.1
AUDIO:
Codec                           Language        Bitrate         Description
-----                           --------        -------         -----------
LPCM Audio                      English         1536 kbps       2.0 / 48 kHz / 1536 kbps / 16-bit
FILES:
Name            Time In         Length          Size            Total Bitrate
----            -------         ------          ----            -------------
00005.M2TS      0:00:00.000     0:03:44.757     581,907,840     20,709
CHAPTERS:
Number          Time In         Length          Avg Video Rate  Max 1-Sec Rate  Max 1-Sec Time  Max 5-Sec Rate  Max 5-Sec Time  Max 10Sec Rate  Max 10Sec Time  Avg Frame Size  Max Frame Size  Max Frame Time
------          -------         ------          --------------  --------------  --------------  --------------  --------------  --------------  --------------  --------------  --------------  --------------
1               0:00:00.000     0:03:44.757     17,991 kbps     36,840 kbps     00:00:09.075    28,858 kbps     00:00:08.641    26,181 kbps     00:00:08.575    75,060 bytes    372,656 bytes   00:03:31.077
STREAM DIAGNOSTICS:
File            PID             Type            Codec           Language                Seconds                 Bitrate                 Bytes           Packets
----            ---             ----            -----           --------                --------------          --------------          -------------   -----
00005.M2TS      4113 (0x1011)   0x1B            AVC                                     224.691                 17,997                  505,457,720     2,751,055
00005.M2TS      4352 (0x1100)   0x80            LPCM            eng (English)           224.691                 1,543                   43,333,728      269,712

QUICK SUMMARY:
Disc Title: Bruckner - Symphony No. 4 - Staatskapelle Berlin, Daniel Barenboim - 2013
Disc Size: 20,361,006,288 bytes
Protection: AACS
BD-Java: Yes
Playlist: 00005.MPLS
Size: 581,907,840 bytes
Length: 0:03:44.757
Total Bitrate: 20.71 Mbps
Video: MPEG-4 AVC Video / 17988 kbps / 1080i / 29.970 fps / 16:9 / High Profile 4.1
Audio: English / LPCM Audio / 2.0 / 48 kHz / 1536 kbps / 16-bit
********************
PLAYLIST: 01004.MPLS
********************

Код:

                                                                                Total   Video
Title                                                           Codec   Length  Movie Size      Disc Size       Bitrate Bitrate Main Audio Track                          Secondary Audio Track
-----                                                           ------  ------- --------------  --------------  ------- ------- ------------------                        ---------------------
01004.MPLS                                                      AVC     0:03:44 581,907,840     20,361,006,288  20.71   17.99   LPCM 2.0 1536Kbps (48kHz/16-bit)

Код:
DISC INFO:
Disc Title:     Bruckner - Symphony No. 4 - Staatskapelle Berlin, Daniel Barenboim - 2013
Disc Size:      20,361,006,288 bytes
Protection:     AACS
BD-Java:        Yes
BDInfo:         0.7.1
PLAYLIST REPORT:
Name:                   01004.MPLS
Length:                 0:03:44.757 (h:m:s.ms)
Size:                   581,907,840 bytes
Total Bitrate:          20.71 Mbps
VIDEO:
Codec                   Bitrate             Description
-----                   -------             -----------
MPEG-4 AVC Video        17988 kbps          1080i / 29.970 fps / 16:9 / High Profile 4.1
AUDIO:
Codec                           Language        Bitrate         Description
-----                           --------        -------         -----------
LPCM Audio                      English         1536 kbps       2.0 / 48 kHz / 1536 kbps / 16-bit
FILES:
Name            Time In         Length          Size            Total Bitrate
----            -------         ------          ----            -------------
00005.M2TS      0:00:00.000     0:03:44.757     581,907,840     20,709
CHAPTERS:
Number          Time In         Length          Avg Video Rate  Max 1-Sec Rate  Max 1-Sec Time  Max 5-Sec Rate  Max 5-Sec Time  Max 10Sec Rate  Max 10Sec Time  Avg Frame Size  Max Frame Size  Max Frame Time
------          -------         ------          --------------  --------------  --------------  --------------  --------------  --------------  --------------  --------------  --------------  --------------
1               0:00:00.000     0:03:44.757     17,991 kbps     36,840 kbps     00:00:09.075    28,858 kbps     00:00:08.641    26,181 kbps     00:00:08.575    75,060 bytes    372,656 bytes   00:03:31.077
STREAM DIAGNOSTICS:
File            PID             Type            Codec           Language                Seconds                 Bitrate                 Bytes           Packets
----            ---             ----            -----           --------                --------------          --------------          -------------   -----
00005.M2TS      4113 (0x1011)   0x1B            AVC                                     224.691                 17,997                  505,457,720     2,751,055
00005.M2TS      4352 (0x1100)   0x80            LPCM            eng (English)           224.691                 1,543                   43,333,728      269,712

QUICK SUMMARY:
Disc Title: Bruckner - Symphony No. 4 - Staatskapelle Berlin, Daniel Barenboim - 2013
Disc Size: 20,361,006,288 bytes
Protection: AACS
BD-Java: Yes
Playlist: 01004.MPLS
Size: 581,907,840 bytes
Length: 0:03:44.757
Total Bitrate: 20.71 Mbps
Video: MPEG-4 AVC Video / 17988 kbps / 1080i / 29.970 fps / 16:9 / High Profile 4.1
Audio: English / LPCM Audio / 2.0 / 48 kHz / 1536 kbps / 16-bit
********************
PLAYLIST: 00002.MPLS
********************

Код:

                                                                                Total   Video
Title                                                           Codec   Length  Movie Size      Disc Size       Bitrate Bitrate Main Audio Track                          Secondary Audio Track
-----                                                           ------  ------- --------------  --------------  ------- ------- ------------------                        ---------------------
00002.MPLS                                                      AVC     0:00:53 142,385,856     20,361,006,288  21.28   17.94   LPCM 2.0 2304Kbps (48kHz/24-bit)

Код:
DISC INFO:
Disc Title:     Bruckner - Symphony No. 4 - Staatskapelle Berlin, Daniel Barenboim - 2013
Disc Size:      20,361,006,288 bytes
Protection:     AACS
BD-Java:        Yes
BDInfo:         0.7.1
PLAYLIST REPORT:
Name:                   00002.MPLS
Length:                 0:00:53.520 (h:m:s.ms)
Size:                   142,385,856 bytes
Total Bitrate:          21.28 Mbps
VIDEO:
Codec                   Bitrate             Description
-----                   -------             -----------
MPEG-4 AVC Video        17938 kbps          1080i / 29.970 fps / 16:9 / High Profile 4.1
AUDIO:
Codec                           Language        Bitrate         Description
-----                           --------        -------         -----------
LPCM Audio                      English         2304 kbps       2.0 / 48 kHz / 2304 kbps / 24-bit
FILES:
Name            Time In         Length          Size            Total Bitrate
----            -------         ------          ----            -------------
00002.M2TS      0:00:00.000     0:00:53.520     142,385,856     21,270
CHAPTERS:
Number          Time In         Length          Avg Video Rate  Max 1-Sec Rate  Max 1-Sec Time  Max 5-Sec Rate  Max 5-Sec Time  Max 10Sec Rate  Max 10Sec Time  Avg Frame Size  Max Frame Size  Max Frame Time
------          -------         ------          --------------  --------------  --------------  --------------  --------------  --------------  --------------  --------------  --------------  --------------
1               0:00:00.000     0:00:53.520     17,949 kbps     28,581 kbps     00:00:01.935    23,616 kbps     00:00:01.835    21,847 kbps     00:00:41.241    74,955 bytes    359,538 bytes   00:00:02.936
STREAM DIAGNOSTICS:
File            PID             Type            Codec           Language                Seconds                 Bitrate                 Bytes           Packets
----            ---             ----            -----           --------                --------------          --------------          -------------   -----
00002.M2TS      4113 (0x1011)   0x1B            AVC                                     53.453                  17,980                  120,136,191     653,870
00002.M2TS      4352 (0x1100)   0x80            LPCM            eng (English)           53.453                  2,313                   15,458,020      85,640

QUICK SUMMARY:
Disc Title: Bruckner - Symphony No. 4 - Staatskapelle Berlin, Daniel Barenboim - 2013
Disc Size: 20,361,006,288 bytes
Protection: AACS
BD-Java: Yes
Playlist: 00002.MPLS
Size: 142,385,856 bytes
Length: 0:00:53.520
Total Bitrate: 21.28 Mbps
Video: MPEG-4 AVC Video / 17938 kbps / 1080i / 29.970 fps / 16:9 / High Profile 4.1
Audio: English / LPCM Audio / 2.0 / 48 kHz / 2304 kbps / 24-bit
********************
PLAYLIST: 01000.MPLS
********************

Код:

                                                                                Total   Video
Title                                                           Codec   Length  Movie Size      Disc Size       Bitrate Bitrate Main Audio Track                          Secondary Audio Track
-----                                                           ------  ------- --------------  --------------  ------- ------- ------------------                        ---------------------
01000.MPLS                                                      AVC     0:00:20 8,565,504       20,361,006,288  3.39    2.74    DD AC3 2.0 384Kbps

Код:
DISC INFO:
Disc Title:     Bruckner - Symphony No. 4 - Staatskapelle Berlin, Daniel Barenboim - 2013
Disc Size:      20,361,006,288 bytes
Protection:     AACS
BD-Java:        Yes
BDInfo:         0.7.1
PLAYLIST REPORT:
Name:                   01000.MPLS
Length:                 0:00:20.186 (h:m:s.ms)
Size:                   8,565,504 bytes
Total Bitrate:          3.39 Mbps
VIDEO:
Codec                   Bitrate             Description
-----                   -------             -----------
MPEG-4 AVC Video        2744 kbps           1080i / 29.970 fps / 16:9 / High Profile 4.1
AUDIO:
Codec                           Language        Bitrate         Description
-----                           --------        -------         -----------
Dolby Digital Audio             English         384 kbps        2.0 / 48 kHz / 384 kbps / DN -4dB
FILES:
Name            Time In         Length          Size            Total Bitrate
----            -------         ------          ----            -------------
00000.M2TS      0:00:00.000     0:00:13.046     2,971,008       1,817
00001.M2TS      0:00:13.046     0:00:07.140     5,594,496       6,239
CHAPTERS:
Number          Time In         Length          Avg Video Rate  Max 1-Sec Rate  Max 1-Sec Time  Max 5-Sec Rate  Max 5-Sec Time  Max 10Sec Rate  Max 10Sec Time  Avg Frame Size  Max Frame Size  Max Frame Time
------          -------         ------          --------------  --------------  --------------  --------------  --------------  --------------  --------------  --------------  --------------  --------------
1               0:00:00.000     0:00:13.046     1,251 kbps      4,901 kbps      00:00:00.967    1,626 kbps      00:00:00.967    1,217 kbps      00:00:00.967    5,229 bytes     96,438 bytes    00:00:01.968
2               0:00:13.046     0:00:07.140     5,499 kbps      14,714 kbps     00:00:15.348    7,829 kbps      00:00:14.147    0 kbps          00:00:00.000    23,261 bytes    186,933 bytes   00:00:15.982
STREAM DIAGNOSTICS:
File            PID             Type            Codec           Language                Seconds                 Bitrate                 Bytes           Packets
----            ---             ----            -----           --------                --------------          --------------          -------------   -----
00000.M2TS      4113 (0x1011)   0x1B            AVC                                     12.980                  1,258                   2,040,859       11,203
00000.M2TS      4352 (0x1100)   0x81            AC3             eng (English)           12.980                  386                     626,688         3,672
00001.M2TS      4113 (0x1011)   0x1B            AVC                                     7.074                   5,553                   4,909,799       26,789
00001.M2TS      4352 (0x1100)   0x81            AC3             eng (English)           7.074                   389                     344,064         2,016

QUICK SUMMARY:
Disc Title: Bruckner - Symphony No. 4 - Staatskapelle Berlin, Daniel Barenboim - 2013
Disc Size: 20,361,006,288 bytes
Protection: AACS
BD-Java: Yes
Playlist: 01000.MPLS
Size: 8,565,504 bytes
Length: 0:00:20.186
Total Bitrate: 3.39 Mbps
Video: MPEG-4 AVC Video / 2744 kbps / 1080i / 29.970 fps / 16:9 / High Profile 4.1
Audio: English / Dolby Digital Audio / 2.0 / 48 kHz / 384 kbps / DN -4dB
********************
PLAYLIST: 01007.MPLS
********************

Код:

                                                                                Total   Video
Title                                                           Codec   Length  Movie Size      Disc Size       Bitrate Bitrate Main Audio Track                          Secondary Audio Track
-----                                                           ------  ------- --------------  --------------  ------- ------- ------------------                        ---------------------
01007.MPLS                                                      AVC     0:00:20 8,565,504       20,361,006,288  3.39    2.74    DD AC3 2.0 384Kbps

Код:
DISC INFO:
Disc Title:     Bruckner - Symphony No. 4 - Staatskapelle Berlin, Daniel Barenboim - 2013
Disc Size:      20,361,006,288 bytes
Protection:     AACS
BD-Java:        Yes
BDInfo:         0.7.1
PLAYLIST REPORT:
Name:                   01007.MPLS
Length:                 0:00:20.186 (h:m:s.ms)
Size:                   8,565,504 bytes
Total Bitrate:          3.39 Mbps
VIDEO:
Codec                   Bitrate             Description
-----                   -------             -----------
MPEG-4 AVC Video        2744 kbps           1080i / 29.970 fps / 16:9 / High Profile 4.1
AUDIO:
Codec                           Language        Bitrate         Description
-----                           --------        -------         -----------
Dolby Digital Audio             English         384 kbps        2.0 / 48 kHz / 384 kbps / DN -4dB
FILES:
Name            Time In         Length          Size            Total Bitrate
----            -------         ------          ----            -------------
00000.M2TS      0:00:00.000     0:00:13.046     2,971,008       1,817
00001.M2TS      0:00:13.046     0:00:07.140     5,594,496       6,239
CHAPTERS:
Number          Time In         Length          Avg Video Rate  Max 1-Sec Rate  Max 1-Sec Time  Max 5-Sec Rate  Max 5-Sec Time  Max 10Sec Rate  Max 10Sec Time  Avg Frame Size  Max Frame Size  Max Frame Time
------          -------         ------          --------------  --------------  --------------  --------------  --------------  --------------  --------------  --------------  --------------  --------------
1               0:00:00.000     0:00:13.046     1,251 kbps      4,901 kbps      00:00:00.967    1,626 kbps      00:00:00.967    1,217 kbps      00:00:00.967    5,229 bytes     96,438 bytes    00:00:01.968
2               0:00:13.046     0:00:07.140     5,499 kbps      14,714 kbps     00:00:15.348    7,829 kbps      00:00:14.147    0 kbps          00:00:00.000    23,261 bytes    186,933 bytes   00:00:15.982
STREAM DIAGNOSTICS:
File            PID             Type            Codec           Language                Seconds                 Bitrate                 Bytes           Packets
----            ---             ----            -----           --------                --------------          --------------          -------------   -----
00000.M2TS      4113 (0x1011)   0x1B            AVC                                     12.980                  1,258                   2,040,859       11,203
00000.M2TS      4352 (0x1100)   0x81            AC3             eng (English)           12.980                  386                     626,688         3,672
00001.M2TS      4113 (0x1011)   0x1B            AVC                                     7.074                   5,553                   4,909,799       26,789
00001.M2TS      4352 (0x1100)   0x81            AC3             eng (English)           7.074                   389                     344,064         2,016

QUICK SUMMARY:
Disc Title: Bruckner - Symphony No. 4 - Staatskapelle Berlin, Daniel Barenboim - 2013
Disc Size: 20,361,006,288 bytes
Protection: AACS
BD-Java: Yes
Playlist: 01007.MPLS
Size: 8,565,504 bytes
Length: 0:00:20.186
Total Bitrate: 3.39 Mbps
Video: MPEG-4 AVC Video / 2744 kbps / 1080i / 29.970 fps / 16:9 / High Profile 4.1
Audio: English / Dolby Digital Audio / 2.0 / 48 kHz / 384 kbps / DN -4dB
                                                                                       
                       
                       
                       
                       
                       
                                 磁力下载(论坛代下载服务)
                                                               
                                       
游客,本主题需向作者支付 10金币 才能浏览,金币充值, 免回复、免金币,直接查看内容请开通VIP支付

                                               
  • 18.96 GB
  • 温馨提示

    记得善用社区搜索功能,那里可能会有你想要的资源;论坛站内搜索

    如果你有什么需要的资源可以去资源求档发帖,求助社区的网友,我们会在第一时间给你回复哦;资源求档

    对于本社区网盘链接失效密码错误各种报错请在反馈板块反馈报错发帖,您的支持,是我们发展的最大动力;投诉建议

    回复

    使用道具 举报

    您需要登录后才可以回帖 登录 | 立即注册 微信登录

    本版积分规则

    关注0

    粉丝0

    帖子29667

    发布主题
    阅读排行更多+
    关闭

    站长推荐上一条 /1 下一条

    收藏帖子 返回列表 这是一个自定义按钮
    音乐分享,音乐下载。
    微信公众号
    微信号:maomiyinyue
    意见反馈:admin@maomicd.com

    加入我们的官方QQ群和微信群

    Powered by Discuz! X3.4 Archiver|手机版|小黑屋|猫咪音乐网 ( 苏ICP备20015413号 )|( 苏公网安备 32030502000272号) 繁體

    JS of wanmeiff.com and vcpic.com Please keep this copyright information, respect of, thank you!JS of wanmeiff.com and vcpic.com Please keep this copyright information, respect of, thank you!

    GMT+8, 2021-1-20 02:44