自购原抓音乐圈:只有自购、合购、原抓级高解析(hires、sacd、dsd)正版音乐资源分享!【点我打开
极速无线网卡:千兆无线网卡、服务器网卡、USB接口台式机笔记本网卡 千兆网线 厂家批发价格最低!【点我打开
广告

[古典音乐] 维也纳爱尔乐乐团在米兰(Plácidodomingo),Gustavo Dudamel,Jonan Dudamel,Jonas Kaufmann,Yuja Wang,Sonya Yoncheva,Vienna Philharmonic Orchestra)中的维也纳(Plácidodamingo)[2019年,古典,歌剧院,HDTV 720P]

[复制链接]
全球采集 发表于 2020-12-20 20:46:28 | 显示全部楼层 |阅读模式 打印 上一主题 下一主题
Vienna Philharmonic Gala Concert at La Scala, Milano
Год выпуска: 2019
Лейбл: RAI Cultura
Жанр: Classical, Opera
Продолжительность: 01:46:00
Язык: немецкий (комментарии)
Перевод: нет
Дирижеры: Plácido Domingo, Gustavo Dudamel
Исполнители:
Juan Diego Flórez
Jonas Kaufmann
Yuja Wang
Sonya Yoncheva
Vienna Philharmonic Orchestra
Треклист:
Giuseppe Verdi from La forza del destino
Ouverture
Robert Schumann from Concerto in A min. Op. 54 for piano and orchestra
Allegro affettuoso
Yuja Wang, piano
Pietro Mascagni from L’Amico Fritz
Intermezzo
Giuseppe Verdi frp, La Forza del Destino
La vita è inferno... O tu che in seno agli angeli
Jonas Kaufmann, tenor
Charles Gounod from Roméo et Juliette
Ah, lève-toi soleil
Juan Diego Flórez, tenor
Va! Je t’ai pardonné
Juan Diego Flórez, tenor
Sonya Yoncheva, soprano
Giuseppe Verdi from Otello
Già nella notte densa
Sonya Yoncheva, soprano
Jonas Kaufmann, tenor
Gaetano Donizetti from L’elisir d’amore
Una furtiva lagrima
Juan Diego Flórez, tenor
Fromental Halévy from La Juive
Rachel, quand du Seigneur
Jonas Kaufmann, tenor
Giacomo Puccini from Tosca
Vissi d’arte
Sonya Yoncheva, soprano
Описание:Plácido Domingo, Gustavo Dudamel, Jonas Kaufmann, Juan Diego Flórez, Sonya Yoncheva…the classical music scene’s greatest come together at Milan’s La Scala for an exceptional gala soirée! All Rolex ambassadors, they perform some of the most beautiful opera arias ever composed accompanied by the Wiener Philharmoniker under the direction of star tenor Plácido Domingo and maestro Gustavo Dudamel.
Качество видео: HDTV 720p
Формат/Контейнер: TS
Видео кодек: H.264
Аудио кодек: AC3
Видео поток: AVC, 1280x720 (16:9), 50.000 fps, 12.4 Mb/s
Аудио поток: AC-3, 48.0 kHz, 6 ch, 448 kb/s
Mediainfo

General
ID                          : 1010 (0x3F2)
Complete name               : T:\HDTV\Vienna Philharmonic Gala Concert at La Scala, Milano 2019.ts
Format                      : MPEG-TS
File size                   : 10.0 GiB
Duration                    : 1 h 45 min
Overall bit rate mode       : Variable
Overall bit rate            : 13.5 Mb/s
Video
ID                          : 6510 (0x196E)
Menu ID                     : 11150 (0x2B8E)
Format                      : AVC
Format/Info                 : Advanced Video Codec
Format profile              : High@L4
Format settings             : CABAC / 6 Ref Frames
Format settings, CABAC      : Yes
Format settings, Reference  : 6 frames
Codec ID                    : 27
Duration                    : 1 h 45 min
Bit rate                    : 12.4 Mb/s
Width                       : 1 280 pixels
Height                      : 720 pixels
Display aspect ratio        : 16:9
Frame rate                  : 50.000 FPS
Color space                 : YUV
Chroma subsampling          : 4:2:0
Bit depth                   : 8 bits
Scan type                   : Progressive
Bits/(Pixel*Frame)          : 0.269
Stream size                 : 9.17 GiB (92%)
Color range                 : Limited
Color primaries             : BT.709
Transfer characteristics    : BT.709
Matrix coefficients         : BT.709
Audio
ID                          : 6522 (0x197A)
Menu ID                     : 11150 (0x2B8E)
Format                      : AC-3
Format/Info                 : Audio Coding 3
Commercial name             : Dolby Digital
Codec ID                    : 6
Duration                    : 1 h 45 min
Bit rate mode               : Constant
Bit rate                    : 448 kb/s
Channel(s)                  : 6 channels
Channel layout              : L R C LFE Ls Rs
Sampling rate               : 48.0 kHz
Frame rate                  : 31.250 FPS (1536 SPF)
Compression mode            : Lossy
Delay relative to video     : 281 ms
Stream size                 : 340 MiB (3%)
Language                    : German
Service kind                : Complete Main

Скриншоты











                                                                                       
                       
                       
                       
                       
                       
                                 磁力下载(论坛代下载服务)
                                                               
                                       
游客,本主题需向作者支付 10金币 才能浏览,金币充值, 免回复、免金币,直接查看内容请开通VIP支付

                                               
  • 10 GB
  • 温馨提示

    记得善用社区搜索功能,那里可能会有你想要的资源;论坛站内搜索

    如果你有什么需要的资源可以去资源求档发帖,求助社区的网友,我们会在第一时间给你回复哦;资源求档

    对于本社区网盘链接失效密码错误各种报错请在反馈板块反馈报错发帖,您的支持,是我们发展的最大动力;投诉建议

    回复

    使用道具 举报

    您需要登录后才可以回帖 登录 | 立即注册 微信登录

    本版积分规则

    关注0

    粉丝13

    帖子85997

    发布主题
    阅读排行更多+
    关闭

    站长推荐上一条 /1 下一条

    收藏帖子 返回列表 这是一个自定义按钮
    音乐分享,音乐下载。
    微信公众号
    微信号:maomiyinyue
    意见反馈:admin@maomicd.com

    加入我们的官方QQ群和微信群

    Powered by Discuz! X3.4 Archiver|手机版|小黑屋|猫咪音乐网 ( 苏ICP备20015413号 )|( 苏公网安备 32030502000272号) 繁體

    JS of wanmeiff.com and vcpic.com Please keep this copyright information, respect of, thank you!JS of wanmeiff.com and vcpic.com Please keep this copyright information, respect of, thank you!

    GMT+8, 2021-1-20 12:41