自购原抓音乐圈:只有自购、合购、原抓级高解析(hires、sacd、dsd)正版音乐资源分享!【点我打开
极速无线网卡:千兆无线网卡、服务器网卡、USB接口台式机笔记本网卡 千兆网线 厂家批发价格最低!【点我打开
广告

[古典音乐] John Williams - Live在维也纳2020年(约翰威廉姆斯,安妮 - 索菲哗众咕噜声,维也纳爱尔格队列人)[古代,得分,Bdrip 720p]

[复制链接]
如果有神 发表于 2020-12-20 20:46:28 | 显示全部楼层 |阅读模式 打印 上一主题 下一主题
John Williams - Live in Vienna
Год выпуска: 2020
Жанр: Classical, Score
Издатель (лейбл): Deutsche Grammophon
Продолжительность: 02:08:22
Дирижер: John Williams
Исполнители:Anne-Sophie Mutter (violin), Wiener Philharmoniker
Описание: Рип только видео концерта из этой раздачи
Треклист:
Recorded January 18/19, 2020 at the Musikverein, Vienna, Austria
feauture Anne-Sophie Mutter (*)
01. Flight to Neverland from Hook
02. Excerpts from Close Encounters of The Third Kind
03. Hedwig’s Theme from Harry Potter and the Sorcerer’s Stone (*)
04. Theme from Sabrina (*)
05. Donnybrook Fair from Far and Away (*)
06. Devil’s Dance from The Witches of Eastwick (*)
07. Adventures on Earth from E.T. The Extra-Terrestrial
08. Theme from Jurassic Park
09. Dartmoor, 1912 from War Horse
10. Out to Sea and The Shark Cage Fugue from Jaws
11. Marion’s Theme from Raiders of The Lost Ark
12. The Rebellion is Reborn from The Last Jedi
13. Luke & Leia from Return of the Jedi
14. Main Title from Star Wars
15. Nice to be Around from Cinderella Liberty (*)
16. The Duel from The Adventures of Tintin (*)
17. Remembrances from Schindler’s List (*)
18. The Raiders March from Raiders of The Lost Ark (*)
19. The Imperial March from The Empire Strikes Back
Качество видео: BDRip 720p
Формат/Контейнер: MKV
Видео кодек: H.264
Аудио кодек: FLAC, DTS
Видео поток: AVC, 1280x720 (16:9), 29.970 fps, 6 200 kb/s
Аудио#1: DTS, 48.0 kHz, 6 ch, 1 509 kb/s
Аудио#2: FLAC, 48.0 kHz, 2 ch, 1 446 kb/s
MediaInfo/x264Log

x264Log

[Information] [16.08.2020 19:37:24] Standard error stream
-[Information] [16.08.2020 19:38:32] y4m [info]: 1280x720p 1:1 @ 30000/1001 fps (cfr)
-[Information] [16.08.2020 19:38:32] x264 [info]: using SAR=1/1
-[Information] [16.08.2020 19:38:32] x264 [info]: using cpu capabilities: MMX2 SSE2Fast SSSE3 SSE4.2 AVX FMA3 BMI2 AVX2
-[Information] [16.08.2020 19:38:32] x264 [info]: profile Progressive High, level 4.1, 4:2:0, 8-bit
-[Information] [16.08.2020 23:07:56] x264 [info]: frame I:1405  Avg QP:14.78  size:227446
-[Information] [16.08.2020 23:07:56] x264 [info]: frame P:55474 Avg QP:17.31  size: 63140
-[Information] [16.08.2020 23:07:56] x264 [info]: frame B:173942 Avg QP:22.62  size: 12341
-[Information] [16.08.2020 23:07:56] x264 [info]: consecutive B-frames:  1.3%  2.0% 10.7% 49.1% 11.9% 23.6%  1.4%
-[Information] [16.08.2020 23:07:56] x264 [info]: mb I  I16..4:  6.1% 44.9% 49.0%
-[Information] [16.08.2020 23:07:56] x264 [info]: mb P  I16..4:  0.6%  7.2%  1.8%  P16..4: 27.2% 31.4% 18.8%  5.6%  1.5%    skip: 6.0%
-[Information] [16.08.2020 23:07:56] x264 [info]: mb B  I16..4:  0.1%  1.1%  0.2%  B16..8: 31.0% 15.8%  2.8%  direct: 5.9%  skip:43.0%  L0:39.5% L1:42.2% BI:18.3%
-[Information] [16.08.2020 23:07:56] x264 [info]: 8x8 transform intra:71.2% inter:41.3%
-[Information] [16.08.2020 23:07:56] x264 [info]: direct mvs  spatial:99.1% temporal:0.9%
-[Information] [16.08.2020 23:07:56] x264 [info]: coded y,uvDC,uvAC intra: 80.6% 77.9% 50.9% inter: 22.8% 17.1% 3.9%
-[Information] [16.08.2020 23:07:56] x264 [info]: i16 v,h,dc,p: 28% 16%  9% 47%
-[Information] [16.08.2020 23:07:56] x264 [info]: i8 v,h,dc,ddl,ddr,vr,hd,vl,hu: 11%  8% 10%  8% 12% 13% 12% 12% 12%
-[Information] [16.08.2020 23:07:56] x264 [info]: i4 v,h,dc,ddl,ddr,vr,hd,vl,hu: 12%  9%  8%  8% 15% 14% 13% 10% 11%
-[Information] [16.08.2020 23:07:56] x264 [info]: i8c dc,h,v,p: 39% 22% 19% 20%
-[Information] [16.08.2020 23:07:56] x264 [info]: Weighted P-Frames: Y:0.3% UV:0.1%
-[Information] [16.08.2020 23:07:56] x264 [info]: ref P L0: 46.8%  9.8% 20.3%  5.5%  5.6%  3.5%  3.9%  2.0%  2.6%  0.0%  0.0%
-[Information] [16.08.2020 23:07:56] x264 [info]: ref B L0: 79.8% 10.0%  4.2%  2.1%  1.4%  1.2%  0.8%  0.4%
-[Information] [16.08.2020 23:07:56] x264 [info]: ref B L1: 96.5%  3.5%
-[Information] [16.08.2020 23:07:56] x264 [info]: kb/s:6199.95
-[Information] [16.08.2020 23:07:56] encoded 230821 frames, 18.37 fps, 6199.95 kb/s


General
Unique ID                   : 273001525467431118157048227657024116578 (0xCD622E681C7CA841932853DB3A599762)
Complete name               : D:\John Williams - Live in Vienna.2020.BDRip720p.mkv
Format                      : Matroska
Format version              : Version 2
File size                   : 8.21 GiB
Duration                    : 2 h 8 min
Overall bit rate mode       : Variable
Overall bit rate            : 9 158 kb/s
Movie name                  : John Williams - Live in Vienna (Anne-Sophie Mutter, Wiener Philharmoniker) 2020.BDRip720p @ rutracker.org
Encoded date                : UTC 2020-08-16 20:23:51
Writing application         : mkvmerge v46.0.0 ('No Deeper Escape') 64-bit
Writing library             : libebml v1.3.10 + libmatroska v1.5.2
Video
ID                          : 1
Format                      : AVC
Format/Info                 : Advanced Video Codec
Format profile              : [email protected]
Format settings             : CABAC / 9 Ref Frames
Format settings, CABAC      : Yes
Format settings, Reference  : 9 frames
Codec ID                    : V_MPEG4/ISO/AVC
Duration                    : 2 h 8 min
Bit rate                    : 6 200 kb/s
Width                       : 1 280 pixels
Height                      : 720 pixels
Display aspect ratio        : 16:9
Frame rate mode             : Constant
Frame rate                  : 29.970 (30000/1001) FPS
Color space                 : YUV
Chroma subsampling          : 4:2:0
Bit depth                   : 8 bits
Scan type                   : Progressive
Bits/(Pixel*Frame)          : 0.224
Stream size                 : 5.56 GiB (68%)
Title                       : anbelk27 @ rutracker.org
Writing library             : x264 core 157 r2969 d4099dd
Encoding settings           : cabac=1 / ref=9 / deblock=1:-3:-3 / analyse=0x3:0x133 / me=umh / subme=11 / psy=1 / psy_rd=1.15:0.10 / mixed_ref=1 / me_range=40 / chroma_me=1 / trellis=2 / 8x8dct=1 / cqm=0 / deadzone=21,11 / fast_pskip=1 / chroma_qp_offset=-3 / threads=12 / lookahead_threads=1 / sliced_threads=0 / nr=0 / decimate=1 / interlaced=0 / bluray_compat=0 / constrained_intra=0 / bframes=6 / b_pyramid=2 / b_adapt=2 / b_bias=0 / direct=3 / weightb=1 / open_gop=0 / weightp=2 / keyint=300 / keyint_min=29 / scenecut=50 / intra_refresh=0 / rc_lookahead=100 / rc=2pass / mbtree=1 / bitrate=6200 / ratetol=1.0 / qcomp=0.60 / qpmin=0 / qpmax=69 / qpstep=4 / cplxblur=20.0 / qblur=0.5 / vbv_maxrate=50000 / vbv_bufsize=62500 / nal_hrd=none / filler=0 / ip_ratio=1.40 / aq=1:1.00
Default                     : Yes
Forced                      : No
Audio #1
ID                          : 2
Format                      : DTS
Format/Info                 : Digital Theater Systems
Codec ID                    : A_DTS
Duration                    : 2 h 8 min
Bit rate mode               : Constant
Bit rate                    : 1 509 kb/s
Channel(s)                  : 6 channels
Channel layout              : C L R Ls Rs LFE
Sampling rate               : 48.0 kHz
Frame rate                  : 93.750 FPS (512 SPF)
Bit depth                   : 24 bits
Compression mode            : Lossy
Stream size                 : 1.35 GiB (16%)
Title                       : DTS 5.1 @ 24 bit
Default                     : Yes
Forced                      : No
Audio #2
ID                          : 3
Format                      : FLAC
Format/Info                 : Free Lossless Audio Codec
Codec ID                    : A_FLAC
Duration                    : 2 h 8 min
Bit rate mode               : Variable
Bit rate                    : 1 446 kb/s
Channel(s)                  : 2 channels
Channel layout              : L R
Sampling rate               : 48.0 kHz
Frame rate                  : 11.719 FPS (4096 SPF)
Bit depth                   : 24 bits
Compression mode            : Lossless
Stream size                 : 1.30 GiB (16%)
Title                       : FLAC 2.0 @ 24 bit
Writing library             : libFLAC 1.2.1 (UTC 2007-09-17)
Default                     : No
Forced                      : No

Скриншоты











                                                                                       
                       
                       
                       
                       
                       
                                 磁力下载(论坛代下载服务)
                                                               
                                       
游客,本主题需向作者支付 10金币 才能浏览,金币充值, 免回复、免金币,直接查看内容请开通VIP支付

                                               
  • 8.21 GB
  • 温馨提示

    记得善用社区搜索功能,那里可能会有你想要的资源;论坛站内搜索

    如果你有什么需要的资源可以去资源求档发帖,求助社区的网友,我们会在第一时间给你回复哦;资源求档

    对于本社区网盘链接失效密码错误各种报错请在反馈板块反馈报错发帖,您的支持,是我们发展的最大动力;投诉建议

    回复

    使用道具 举报

    您需要登录后才可以回帖 登录 | 立即注册 微信登录

    本版积分规则

    关注0

    粉丝0

    帖子29431

    发布主题
    阅读排行更多+
    关闭

    站长推荐上一条 /1 下一条

    收藏帖子 返回列表 这是一个自定义按钮
    音乐分享,音乐下载。
    微信公众号
    微信号:maomiyinyue
    意见反馈:[email protected]

    加入我们的官方QQ群和微信群

    Powered by Discuz! X3.4 Archiver|手机版|小黑屋|猫咪音乐网 ( 苏ICP备20015413号 )|( 苏公网安备 32030502000272号) 繁體

    JS of wanmeiff.com and vcpic.com Please keep this copyright information, respect of, thank you!JS of wanmeiff.com and vcpic.com Please keep this copyright information, respect of, thank you!

    GMT+8, 2021-1-27 09:11