自购原抓音乐圈:只有自购、合购、原抓级高解析(hires、sacd、dsd)正版音乐资源分享!【点我打开
极速无线网卡:千兆无线网卡、服务器网卡、USB接口台式机笔记本网卡 千兆网线 厂家批发价格最低!【点我打开
广告

[古典音乐] 马勒:交响乐数2'复活'(Gustavo Dudamel,Chen Reiss,Tamara Mumford,Munich Philharconic Orchestra)[2020,古典,蓝光1080i]

[复制链接]
韬199435 发表于 2020-12-20 20:46:28 | 显示全部楼层 |阅读模式 打印 上一主题 下一主题
Mahler: Symphony No. 2 'Resurrection'
Год выпуска: 2020
Лейбл: UNITEL Edition
Жанр: Classical
Продолжительность: 01:30:53
Перевод: нет
Субтитры: German, English, French, Italian, Spanish, Korean, Japanes
Дирижер: Gustavo Dudamel
Исполнители:
Chen Reiss, soprano
Tamara Mumford, mezzo-soprano
Orfeó Català
Palau de la Música Catalana Chamber Choir
Munich Philharmonic Orchestra
Треклист:
Mahler: Symphony No. 2 'Resurrection'
Recorded live at the Palau de la Música Catalana, 27 June 2019.
I. Allegro maestoso
II. Andante moderato
III. Scherzo. In ruhig fließender Bewegung
IV. "Urlicht"
V. Im Tempo des Scherzo
Описание: Barcelona’s Palau de la Música Catalana, world heritage site and one of the world’s most beautiful concert halls, hosted Gustavo Dudamel and the Münchner Philharmoniker with an unforgettable performance of Mahler’s Symphony No. 2 “The Resurrection.“ The composer emphasizes life and death in all its terrible and stunning splendor in this overwhelming opus: “There is nothing except the complete substance of my whole life”, he remarked on his all-embracing oeuvre. Gustavo Dudamel, who said it was “a privilege to conduct this work in this unique venue,“ and his ensemble were celebrated with more than then minutes of applause. American mezzo-soprano Tamara Mumford and Israeli soprano Chen Reiss as well as the seemingly weightless choirs of Orfeó Català and Cor de Cambra del Palau de la Música Catalana perform “a mark-shattering finale with goosebumps” (Münchner Merkur). “The dynamic range is enormous. But most fascinating are the moments of absolute silence, in which you can feel how the dramaturgy of the evening comes together: An audience holds its breath” (Süddeutsche Zeitung). “Really an event … a phantastic conjunction of stars … a memorable interpretation“. (El Periódico)
Качество видео: Blu-ray 1080i
Формат/Контейнер: BDMV
Видео кодек: H.264
Аудио кодек: PCM, DTS
Видео: MPEG-4 AVC Video / 24976 kbps / 1080i / 29.970 fps / 16:9 / High Profile 4.1
Аудио#1: LPCM Audio / 2.0 / 48 kHz / 2304 kbps / 24-bit
Аудио#2: DTS-HD Master Audio / 5.1 / 48 kHz / 3742 kbps / 24-bit (DTS Core: 5.1 / 48 kHz / 1509 kbps / 24-bit)
BDInfo

Disc Title:     Mahler Symphony No.2 - Resurrection
Disc Label:     MAHLER_2
Disc Size:      23,127,548,236 bytes
Protection:     AACS
BDInfo:         0.7.5.5
Notes:
BDINFO HOME:
  Cinema Squid (old)
    http://www.cinemasquid.com/blu-ray/tools/bdinfo
  UniqProject GitHub (new)
   https://github.com/UniqProject/BDInfo
INCLUDES FORUMS REPORT FOR:
  AVS Forum Blu-ray Audio and Video Specifications Thread
    http://www.avsforum.com/avs-vb/showthread.php?t=1155731
********************
PLAYLIST: 00009.MPLS
********************

Код:

                                                                                Total   Video
Title                                                           Codec   Length  Movie Size      Disc Size       Bitrate Bitrate Main Audio Track                          Secondary Audio Track
-----                                                           ------  ------- --------------  --------------  ------- ------- ------------------                        ---------------------
00009.MPLS                                                      AVC     1:30:53 22,326,844,800  23,127,548,236  32.75   24.98   LPCM 2.0 2304Kbps (48kHz/24-bit)          DTS-HD Master 5.1 3742Kbps (48kHz/24-bit)

Код:
DISC INFO:
Disc Title:     Mahler Symphony No.2 - Resurrection
Disc Label:     MAHLER_2
Disc Size:      23,127,548,236 bytes
Protection:     AACS
BDInfo:         0.7.5.5
PLAYLIST REPORT:
Name:                   00009.MPLS
Length:                 1:30:53.948 (h:m:s.ms)
Size:                   22,326,844,800 bytes
Total Bitrate:          32.75 Mbps
VIDEO:
Codec                   Bitrate             Description
-----                   -------             -----------
MPEG-4 AVC Video        24976 kbps          1080i / 29.970 fps / 16:9 / High Profile 4.1
AUDIO:
Codec                           Language        Bitrate         Description
-----                           --------        -------         -----------
LPCM Audio                      German          2304 kbps       2.0 / 48 kHz /  2304 kbps / 24-bit
DTS-HD Master Audio             German          3742 kbps       5.1 / 48 kHz /  3742 kbps / 24-bit (DTS Core: 5.1 / 48 kHz /  1509 kbps / 24-bit)
SUBTITLES:
Codec                           Language        Bitrate         Description
-----                           --------        -------         -----------
Presentation Graphics           German          1.169 kbps
Presentation Graphics           English         1.084 kbps
Presentation Graphics           French          1.151 kbps
Presentation Graphics           Italian         1.062 kbps
Presentation Graphics           Spanish         1.116 kbps
Presentation Graphics           Korean          1.329 kbps
Presentation Graphics           Japanese        1.253 kbps
FILES:
Name            Time In         Length          Size            Total Bitrate
----            -------         ------          ----            -------------
00001.M2TS      0:00:00.000     1:30:48.943     22,314,519,936  32,761
00010.M2TS      1:30:48.943     0:00:04.671     12,312,576      21,086
00000.M2TS      1:30:53.614     0:00:00.333     12,288          295
CHAPTERS:
Number          Time In         Length          Avg Video Rate  Max 1-Sec Rate  Max 1-Sec Time  Max 5-Sec Rate  Max 5-Sec Time  Max 10Sec Rate  Max 10Sec Time  Avg Frame Size  Max Frame Size  Max Frame Time
------          -------         ------          --------------  --------------  --------------  --------------  --------------  --------------  --------------  --------------  --------------  --------------
1               0:00:00.000     0:01:01.461     28,985 kbps     44,740 kbps     00:00:43.543    36,112 kbps     00:00:39.539    34,443 kbps     00:00:40.206    120,828 bytes   740,680 bytes   00:00:19.886
2               0:01:01.461     0:23:38.884     24,443 kbps     50,616 kbps     00:22:22.007    37,564 kbps     00:10:39.305    34,781 kbps     00:18:27.906    101,949 bytes   704,423 bytes   00:04:15.722
3               0:24:40.345     0:11:20.446     23,891 kbps     50,491 kbps     00:25:00.465    35,826 kbps     00:24:42.180    33,316 kbps     00:35:48.813    99,644 bytes    712,438 bytes   00:25:00.532
4               0:36:00.791     0:10:47.279     26,308 kbps     48,116 kbps     00:39:43.013    36,130 kbps     00:44:22.526    33,890 kbps     00:43:59.336    109,727 bytes   689,679 bytes   00:43:21.899
5               0:46:48.071     0:05:16.082     22,055 kbps     42,448 kbps     00:50:56.586    35,757 kbps     00:49:39.876    31,986 kbps     00:49:39.876    91,989 bytes    654,640 bytes   00:47:39.022
6               0:52:04.154     0:36:41.032     25,363 kbps     52,636 kbps     01:03:21.130    37,383 kbps     00:52:08.592    34,600 kbps     01:06:37.426    105,785 bytes   706,463 bytes   01:12:12.961
7               1:28:45.186     0:02:08.761     28,534 kbps     40,640 kbps     01:29:51.986    35,053 kbps     01:30:39.233    33,966 kbps     01:30:02.397    119,073 bytes   648,252 bytes   01:28:47.889
STREAM DIAGNOSTICS:
File            PID             Type            Codec           Language                Seconds                 Bitrate                 Bytes           Packets
----            ---             ----            -----           --------                --------------          --------------          -------------   -----
00001.M2TS      4113 (0x1011)   0x1B            AVC                                     5448.877                24,982                  17,015,628,987  92,574,128
00001.M2TS      4352 (0x1100)   0x80            LPCM            deu (German)            5448.877                2,310                   1,573,648,096   8,718,272
00001.M2TS      4353 (0x1101)   0x86            DTS-HD MA       deu (German)            5448.877                3,745                   2,550,987,328   14,714,004
00001.M2TS      4608 (0x1200)   0x90            PGS             deu (German)            5448.877                1                       797,043         4,658
00001.M2TS      4609 (0x1201)   0x90            PGS             eng (English)           5448.877                1                       738,844         4,342
00001.M2TS      4610 (0x1202)   0x90            PGS             fra (French)            5448.877                1                       784,375         4,592
00001.M2TS      4611 (0x1203)   0x90            PGS             ita (Italian)           5448.877                1                       723,987         4,263
00001.M2TS      4612 (0x1204)   0x90            PGS             spa (Spanish)           5448.877                1                       760,721         4,463
00001.M2TS      4613 (0x1205)   0x90            PGS             kor (Korean)            5448.877                1                       906,255         5,251
00001.M2TS      4614 (0x1206)   0x90            PGS             jpn (Japanese)          5448.877                1                       854,246         4,971
00010.M2TS      4113 (0x1011)   0x1B            AVC                                     4.605                   20,427                  11,757,327      63,947
00000.M2TS      4113 (0x1011)   0x1B            AVC                                     0.200                   244                     6,108           41


QUICK SUMMARY:
Disc Title: Mahler Symphony No.2 - Resurrection
Disc Label: MAHLER_2
Disc Size: 23,127,548,236 bytes
Protection: AACS
Playlist: 00009.MPLS
Size: 22,326,844,800 bytes
Length: 1:30:53.948
Total Bitrate: 32.75 Mbps
Video: MPEG-4 AVC Video / 24976 kbps / 1080i / 29.970 fps / 16:9 / High Profile 4.1
Audio: German / LPCM Audio / 2.0 / 48 kHz /  2304 kbps / 24-bit
Audio: German / DTS-HD Master Audio / 5.1 / 48 kHz /  3742 kbps / 24-bit (DTS Core: 5.1 / 48 kHz /  1509 kbps / 24-bit)
Subtitle: German / 1.169 kbps
Subtitle: English / 1.084 kbps
Subtitle: French / 1.151 kbps
Subtitle: Italian / 1.062 kbps
Subtitle: Spanish / 1.116 kbps
Subtitle: Korean / 1.329 kbps
Subtitle: Japanese / 1.253 kbps
********************
PLAYLIST: 00007.MPLS
********************

Код:

                                                                                Total   Video
Title                                                           Codec   Length  Movie Size      Disc Size       Bitrate Bitrate Main Audio Track                          Secondary Audio Track
-----                                                           ------  ------- --------------  --------------  ------- ------- ------------------                        ---------------------
00007.MPLS                                                      AVC     0:01:45 224,507,904     23,127,548,236  17.09   13.95   LPCM 2.0 2304Kbps (48kHz/24-bit)

Код:
DISC INFO:
Disc Title:     Mahler Symphony No.2 - Resurrection
Disc Label:     MAHLER_2
Disc Size:      23,127,548,236 bytes
Protection:     AACS
BDInfo:         0.7.5.5
PLAYLIST REPORT:
Name:                   00007.MPLS
Length:                 0:01:45.105 (h:m:s.ms)
Size:                   224,507,904 bytes
Total Bitrate:          17.09 Mbps
VIDEO:
Codec                   Bitrate             Description
-----                   -------             -----------
MPEG-4 AVC Video        13953 kbps          1080i / 29.970 fps / 16:9 / High Profile 4.1
AUDIO:
Codec                           Language        Bitrate         Description
-----                           --------        -------         -----------
LPCM Audio                      Undetermined    2304 kbps       2.0 / 48 kHz /  2304 kbps / 24-bit
FILES:
Name            Time In         Length          Size            Total Bitrate
----            -------         ------          ----            -------------
00009.M2TS      0:00:00.000     0:01:44.771     224,495,616     17,142
00000.M2TS      0:01:44.771     0:00:00.333     12,288          295
CHAPTERS:
Number          Time In         Length          Avg Video Rate  Max 1-Sec Rate  Max 1-Sec Time  Max 5-Sec Rate  Max 5-Sec Time  Max 10Sec Rate  Max 10Sec Time  Avg Frame Size  Max Frame Size  Max Frame Time
------          -------         ------          --------------  --------------  --------------  --------------  --------------  --------------  --------------  --------------  --------------  --------------
1               0:00:00.000     0:01:45.105     13,953 kbps     22,593 kbps     00:00:58.491    19,032 kbps     00:00:54.521    16,656 kbps     00:00:52.352    58,196 bytes    487,908 bytes   00:01:07.200
STREAM DIAGNOSTICS:
File            PID             Type            Codec           Language                Seconds                 Bitrate                 Bytes           Packets
----            ---             ----            -----           --------                --------------          --------------          -------------   -----
00009.M2TS      4113 (0x1011)   0x1B            AVC                                     104.705                 14,006                  183,310,693     998,091
00009.M2TS      4352 (0x1100)   0x80            LPCM            und (Undetermined)      104.705                 2,312                   30,254,688      167,616
00000.M2TS      4113 (0x1011)   0x1B            AVC                                     0.200                   244                     6,108           41


QUICK SUMMARY:
Disc Title: Mahler Symphony No.2 - Resurrection
Disc Label: MAHLER_2
Disc Size: 23,127,548,236 bytes
Protection: AACS
Playlist: 00007.MPLS
Size: 224,507,904 bytes
Length: 0:01:45.105
Total Bitrate: 17.09 Mbps
Video: MPEG-4 AVC Video / 13953 kbps / 1080i / 29.970 fps / 16:9 / High Profile 4.1
Audio: Undetermined / LPCM Audio / 2.0 / 48 kHz /  2304 kbps / 24-bit
********************
PLAYLIST: 00002.MPLS
********************

Код:

                                                                                Total   Video
Title                                                           Codec   Length  Movie Size      Disc Size       Bitrate Bitrate Main Audio Track                          Secondary Audio Track
-----                                                           ------  ------- --------------  --------------  ------- ------- ------------------                        ---------------------
00002.MPLS                                                      AVC     0:01:18 166,963,200     23,127,548,236  17.06   13.93   LPCM 2.0 2304Kbps (48kHz/24-bit)

Код:
DISC INFO:
Disc Title:     Mahler Symphony No.2 - Resurrection
Disc Label:     MAHLER_2
Disc Size:      23,127,548,236 bytes
Protection:     AACS
BDInfo:         0.7.5.5
PLAYLIST REPORT:
Name:                   00002.MPLS
Length:                 0:01:18.311 (h:m:s.ms)
Size:                   166,963,200 bytes
Total Bitrate:          17.06 Mbps
VIDEO:
Codec                   Bitrate             Description
-----                   -------             -----------
MPEG-4 AVC Video        13926 kbps          1080i / 29.970 fps / 16:9 / High Profile 4.1
AUDIO:
Codec                           Language        Bitrate         Description
-----                           --------        -------         -----------
LPCM Audio                      Undetermined    2304 kbps       2.0 / 48 kHz /  2304 kbps / 24-bit
FILES:
Name            Time In         Length          Size            Total Bitrate
----            -------         ------          ----            -------------
00002.M2TS      0:00:00.000     0:01:17.977     166,950,912     17,128
00000.M2TS      0:01:17.977     0:00:00.333     12,288          295
CHAPTERS:
Number          Time In         Length          Avg Video Rate  Max 1-Sec Rate  Max 1-Sec Time  Max 5-Sec Rate  Max 5-Sec Time  Max 10Sec Rate  Max 10Sec Time  Avg Frame Size  Max Frame Size  Max Frame Time
------          -------         ------          --------------  --------------  --------------  --------------  --------------  --------------  --------------  --------------  --------------  --------------
1               0:00:00.000     0:01:18.311     13,926 kbps     33,055 kbps     00:01:10.603    25,342 kbps     00:01:08.201    19,830 kbps     00:01:01.594    58,083 bytes    456,923 bytes   00:00:42.409
STREAM DIAGNOSTICS:
File            PID             Type            Codec           Language                Seconds                 Bitrate                 Bytes           Packets
----            ---             ----            -----           --------                --------------          --------------          -------------   -----
00002.M2TS      4113 (0x1011)   0x1B            AVC                                     77.878                  14,003                  136,313,810     742,186
00002.M2TS      4352 (0x1100)   0x80            LPCM            und (Undetermined)      77.878                  2,313                   22,514,848      124,736
00000.M2TS      4113 (0x1011)   0x1B            AVC                                     0.200                   244                     6,108           41


QUICK SUMMARY:
Disc Title: Mahler Symphony No.2 - Resurrection
Disc Label: MAHLER_2
Disc Size: 23,127,548,236 bytes
Protection: AACS
Playlist: 00002.MPLS
Size: 166,963,200 bytes
Length: 0:01:18.311
Total Bitrate: 17.06 Mbps
Video: MPEG-4 AVC Video / 13926 kbps / 1080i / 29.970 fps / 16:9 / High Profile 4.1
Audio: Undetermined / LPCM Audio / 2.0 / 48 kHz /  2304 kbps / 24-bit
********************
PLAYLIST: 00005.MPLS
********************

Код:

                                                                                Total   Video
Title                                                           Codec   Length  Movie Size      Disc Size       Bitrate Bitrate Main Audio Track                          Secondary Audio Track
-----                                                           ------  ------- --------------  --------------  ------- ------- ------------------                        ---------------------
00005.MPLS                                                      AVC     0:01:10 149,846,016     23,127,548,236  17.05   13.92   LPCM 2.0 2304Kbps (48kHz/24-bit)

Код:
DISC INFO:
Disc Title:     Mahler Symphony No.2 - Resurrection
Disc Label:     MAHLER_2
Disc Size:      23,127,548,236 bytes
Protection:     AACS
BDInfo:         0.7.5.5
PLAYLIST REPORT:
Name:                   00005.MPLS
Length:                 0:01:10.303 (h:m:s.ms)
Size:                   149,846,016 bytes
Total Bitrate:          17.05 Mbps
VIDEO:
Codec                   Bitrate             Description
-----                   -------             -----------
MPEG-4 AVC Video        13921 kbps          1080i / 29.970 fps / 16:9 / High Profile 4.1
AUDIO:
Codec                           Language        Bitrate         Description
-----                           --------        -------         -----------
LPCM Audio                      Undetermined    2304 kbps       2.0 / 48 kHz /  2304 kbps / 24-bit
FILES:
Name            Time In         Length          Size            Total Bitrate
----            -------         ------          ----            -------------
00005.M2TS      0:00:00.000     0:01:09.969     149,833,728     17,131
00000.M2TS      0:01:09.969     0:00:00.333     12,288          295
CHAPTERS:
Number          Time In         Length          Avg Video Rate  Max 1-Sec Rate  Max 1-Sec Time  Max 5-Sec Rate  Max 5-Sec Time  Max 10Sec Rate  Max 10Sec Time  Avg Frame Size  Max Frame Size  Max Frame Time
------          -------         ------          --------------  --------------  --------------  --------------  --------------  --------------  --------------  --------------  --------------  --------------
1               0:00:00.000     0:01:10.303     13,921 kbps     38,358 kbps     00:00:25.859    26,389 kbps     00:00:25.792    22,093 kbps     00:00:22.555    58,062 bytes    575,174 bytes   00:00:19.486
STREAM DIAGNOSTICS:
File            PID             Type            Codec           Language                Seconds                 Bitrate                 Bytes           Packets
----            ---             ----            -----           --------                --------------          --------------          -------------   -----
00005.M2TS      4113 (0x1011)   0x1B            AVC                                     69.903                  14,000                  122,331,539     666,085
00005.M2TS      4352 (0x1100)   0x80            LPCM            und (Undetermined)      69.903                  2,312                   20,204,448      111,936
00000.M2TS      4113 (0x1011)   0x1B            AVC                                     0.200                   244                     6,108           41


QUICK SUMMARY:
Disc Title: Mahler Symphony No.2 - Resurrection
Disc Label: MAHLER_2
Disc Size: 23,127,548,236 bytes
Protection: AACS
Playlist: 00005.MPLS
Size: 149,846,016 bytes
Length: 0:01:10.303
Total Bitrate: 17.05 Mbps
Video: MPEG-4 AVC Video / 13921 kbps / 1080i / 29.970 fps / 16:9 / High Profile 4.1
Audio: Undetermined / LPCM Audio / 2.0 / 48 kHz /  2304 kbps / 24-bit
********************
PLAYLIST: 00004.MPLS
********************

Код:

                                                                                Total   Video
Title                                                           Codec   Length  Movie Size      Disc Size       Bitrate Bitrate Main Audio Track                          Secondary Audio Track
-----                                                           ------  ------- --------------  --------------  ------- ------- ------------------                        ---------------------
00004.MPLS                                                      AVC     0:00:43 90,427,392      23,127,548,236  16.63   13.52   LPCM 2.0 2304Kbps (48kHz/24-bit)

Код:
DISC INFO:
Disc Title:     Mahler Symphony No.2 - Resurrection
Disc Label:     MAHLER_2
Disc Size:      23,127,548,236 bytes
Protection:     AACS
BDInfo:         0.7.5.5
PLAYLIST REPORT:
Name:                   00004.MPLS
Length:                 0:00:43.510 (h:m:s.ms)
Size:                   90,427,392 bytes
Total Bitrate:          16.63 Mbps
VIDEO:
Codec                   Bitrate             Description
-----                   -------             -----------
MPEG-4 AVC Video        13521 kbps          1080i / 29.970 fps / 16:9 / High Profile 4.1
AUDIO:
Codec                           Language        Bitrate         Description
-----                           --------        -------         -----------
LPCM Audio                      Undetermined    2304 kbps       2.0 / 48 kHz /  2304 kbps / 24-bit
FILES:
Name            Time In         Length          Size            Total Bitrate
----            -------         ------          ----            -------------
00003.M2TS      0:00:00.000     0:00:43.176     90,415,104      16,753
00000.M2TS      0:00:43.176     0:00:00.333     12,288          295
CHAPTERS:
Number          Time In         Length          Avg Video Rate  Max 1-Sec Rate  Max 1-Sec Time  Max 5-Sec Rate  Max 5-Sec Time  Max 10Sec Rate  Max 10Sec Time  Avg Frame Size  Max Frame Size  Max Frame Time
------          -------         ------          --------------  --------------  --------------  --------------  --------------  --------------  --------------  --------------  --------------  --------------
1               0:00:00.000     0:00:43.510     13,521 kbps     32,084 kbps     00:00:09.609    21,663 kbps     00:00:09.075    18,980 kbps     00:00:07.240    56,394 bytes    695,688 bytes   00:00:13.013
STREAM DIAGNOSTICS:
File            PID             Type            Codec           Language                Seconds                 Bitrate                 Bytes           Packets
----            ---             ----            -----           --------                --------------          --------------          -------------   -----
00003.M2TS      4113 (0x1011)   0x1B            AVC                                     43.076                  13,656                  73,531,402      400,386
00003.M2TS      4352 (0x1100)   0x80            LPCM            und (Undetermined)      43.076                  2,315                   12,464,608      69,056
00000.M2TS      4113 (0x1011)   0x1B            AVC                                     0.200                   244                     6,108           41


QUICK SUMMARY:
Disc Title: Mahler Symphony No.2 - Resurrection
Disc Label: MAHLER_2
Disc Size: 23,127,548,236 bytes
Protection: AACS
Playlist: 00004.MPLS
Size: 90,427,392 bytes
Length: 0:00:43.510
Total Bitrate: 16.63 Mbps
Video: MPEG-4 AVC Video / 13521 kbps / 1080i / 29.970 fps / 16:9 / High Profile 4.1
Audio: Undetermined / LPCM Audio / 2.0 / 48 kHz /  2304 kbps / 24-bit
********************
PLAYLIST: 00006.MPLS
********************

Код:

                                                                                Total   Video
Title                                                           Codec   Length  Movie Size      Disc Size       Bitrate Bitrate Main Audio Track                          Secondary Audio Track
-----                                                           ------  ------- --------------  --------------  ------- ------- ------------------                        ---------------------
00006.MPLS                                                      AVC     0:00:30 62,631,936      23,127,548,236  16.54   13.44   LPCM 2.0 2304Kbps (48kHz/24-bit)

Код:
DISC INFO:
Disc Title:     Mahler Symphony No.2 - Resurrection
Disc Label:     MAHLER_2
Disc Size:      23,127,548,236 bytes
Protection:     AACS
BDInfo:         0.7.5.5
PLAYLIST REPORT:
Name:                   00006.MPLS
Length:                 0:00:30.296 (h:m:s.ms)
Size:                   62,631,936 bytes
Total Bitrate:          16.54 Mbps
VIDEO:
Codec                   Bitrate             Description
-----                   -------             -----------
MPEG-4 AVC Video        13443 kbps          1080i / 29.970 fps / 16:9 / High Profile 4.1
AUDIO:
Codec                           Language        Bitrate         Description
-----                           --------        -------         -----------
LPCM Audio                      Undetermined    2304 kbps       2.0 / 48 kHz /  2304 kbps / 24-bit
FILES:
Name            Time In         Length          Size            Total Bitrate
----            -------         ------          ----            -------------
00007.M2TS      0:00:00.000     0:00:29.963     62,619,648      16,719
00000.M2TS      0:00:29.963     0:00:00.333     12,288          295
CHAPTERS:
Number          Time In         Length          Avg Video Rate  Max 1-Sec Rate  Max 1-Sec Time  Max 5-Sec Rate  Max 5-Sec Time  Max 10Sec Rate  Max 10Sec Time  Avg Frame Size  Max Frame Size  Max Frame Time
------          -------         ------          --------------  --------------  --------------  --------------  --------------  --------------  --------------  --------------  --------------  --------------
1               0:00:00.000     0:00:30.296     13,443 kbps     32,214 kbps     00:00:03.136    23,934 kbps     00:00:00.066    17,358 kbps     00:00:00.133    56,068 bytes    458,424 bytes   00:00:08.041
STREAM DIAGNOSTICS:
File            PID             Type            Codec           Language                Seconds                 Bitrate                 Bytes           Packets
----            ---             ----            -----           --------                --------------          --------------          -------------   -----
00007.M2TS      4113 (0x1011)   0x1B            AVC                                     29.830                  13,652                  50,903,598      277,176
00007.M2TS      4352 (0x1100)   0x80            LPCM            und (Undetermined)      29.830                  2,321                   8,653,892       47,944
00000.M2TS      4113 (0x1011)   0x1B            AVC                                     0.200                   244                     6,108           41


QUICK SUMMARY:
Disc Title: Mahler Symphony No.2 - Resurrection
Disc Label: MAHLER_2
Disc Size: 23,127,548,236 bytes
Protection: AACS
Playlist: 00006.MPLS
Size: 62,631,936 bytes
Length: 0:00:30.296
Total Bitrate: 16.54 Mbps
Video: MPEG-4 AVC Video / 13443 kbps / 1080i / 29.970 fps / 16:9 / High Profile 4.1
Audio: Undetermined / LPCM Audio / 2.0 / 48 kHz /  2304 kbps / 24-bit

Скриншоты











                                                                                       
                       
                       
                       
                       
                       
                                 磁力下载(论坛代下载服务)
                                                               
                                       
游客,本主题需向作者支付 10金币 才能浏览,金币充值, 免回复、免金币,直接查看内容请开通VIP支付

                                               
  • 21.54 GB
  • 温馨提示

    记得善用社区搜索功能,那里可能会有你想要的资源;论坛站内搜索

    如果你有什么需要的资源可以去资源求档发帖,求助社区的网友,我们会在第一时间给你回复哦;资源求档

    对于本社区网盘链接失效密码错误各种报错请在反馈板块反馈报错发帖,您的支持,是我们发展的最大动力;投诉建议

    回复

    使用道具 举报

    您需要登录后才可以回帖 登录 | 立即注册 微信登录

    本版积分规则

    关注0

    粉丝0

    帖子29332

    发布主题
    阅读排行更多+
    关闭

    站长推荐上一条 /1 下一条

    收藏帖子 返回列表 这是一个自定义按钮
    音乐分享,音乐下载。
    微信公众号
    微信号:maomiyinyue
    意见反馈:[email protected]

    加入我们的官方QQ群和微信群

    Powered by Discuz! X3.4 Archiver|手机版|小黑屋|猫咪音乐网 ( 苏ICP备20015413号 )|( 苏公网安备 32030502000272号) 繁體

    JS of wanmeiff.com and vcpic.com Please keep this copyright information, respect of, thank you!JS of wanmeiff.com and vcpic.com Please keep this copyright information, respect of, thank you!

    GMT+8, 2021-1-28 13:33