自购原抓音乐圈:只有自购、合购、原抓级高解析(hires、sacd、dsd)正版音乐资源分享!【点我打开
极速无线网卡:千兆无线网卡、服务器网卡、USB接口台式机笔记本网卡 千兆网线 厂家批发价格最低!【点我打开
广告

[古典音乐] Ludwig van Beethoven,Joaquin Rodrigo,Rechard Strauss,RafaelFrühbeckde Burgos丹麦国家交响乐团 - 哥本哈根2016年[2016,古典,蓝光]

[复制链接]
全球采集 发表于 2020-12-20 20:46:28 | 显示全部楼层 |阅读模式 打印 上一主题 下一主题
Rafael Frühbeck de Burgos conducts the Danish National Symphony Orchestra - Copenhagen 2012-2014
Год выпуска: 2016
Лейбл: Dacapo
Жанр: Classical
Продолжительность: 09:13:48
Дирижер: Rafael Frühbeck de Burgos
Исполнители: Danish National Symphony Orchestra; Albina Shagimuratova, soprano; Charlotte Hellekant, mezzo-soprano; Scott MacAllister, tenor; Johan Reuter, bass; the Danish National Concert Choir; Pepe Romero, guitar
Описание: The Spanish Maestro Rafael Frühbeck de Burgos (1933-2014) concluded his acclaimed international conducting career of almost six decades with two memorable years as the venerated Principal Conductor of the Danish National Symphony Orchestra. Recorded live in concert at the new DR Koncerthuset in Copenhagen, this exclusive Blu-ray box set combines Frühbeck de Burgos’ powerful interpretation of the complete Symphonies by Ludwig van Beethoven with his spectacular renderings of Symphonie fantastique by Hector Berlioz and Richard Strauss’s Eine Alpensinfonie as well as Joaquín Rodrigo’s popular Concierto de Aranjuez, featuring the world-renowned Spanish guitarist Pepe Romero.
Качество видео: Blu-ray
Формат/Контейнер: BDMV
Видео кодек: H.264
Аудио кодек: DTS, PCM
Источник

Disc 1
Продолжительность: 02:50:35
Треклист:
Ludwig van Beethoven (1770-1827)
Symphony No. 1 in C major, Op. 21 (1799/1800)
1. 1. Adagio molto - Allegro con brio
2. 2. Andante cantabile con moto
3. 3. Menuetto: Allegro molto e vivace
4. 4. Adagio - Allegro molto e vivace
Symphony No. 2 in D major, Op. 36 (1801-1802)
5. 1. Adagio molto
6. 2. Larghetto
7. 3. Scherzo: Allegro
8. 4. Allegro molto
Symphony No. 3 in E-flat major, Op. 55 “Eroica” (1803-05)
9. 1. Allegro con brio
10. 2. Marcia funebre: Adagio assai
11. 3. Scherzo: Allegro vivace
12. 4. Finale: Allegro molto
Symphony No. 4 in B-flat major, Op. 60 (1806)
13. 1. Adagio - Allegro vivace
14. 2. Adagio
15. 3. Allegro vivace
16. 4. Allegro ma non troppo
Видео поток: MPEG-4 AVC Video / 24 977 - 24992 kbps / 1080p / 23,976 fps / 16:9 / High Profile 4.1
Аудио #1: English / LPCM Audio / 2.0 / 48 kHz / 2304 kbps / 24-bit
Аудио #2: English / DTS-HD Master Audio / 5.0 / 48 kHz / 3722 kbps / 24-bit (DTS Core: 5.0 / 48 kHz / 1509 kbps / 24-bit)
BDInfo

Disc Title:     RAFAEL FRUHBECK DE BURGOS_1
Disc Size:      41 838 911 908 bytes
Protection:     AACS
BD-Java:        No
BDInfo:         0.5.8
Notes:
BDINFO HOME:
  Cinema Squid
    http://www.cinemasquid.com/blu-ray/tools/bdinfo
INCLUDES FORUMS REPORT FOR:
  AVS Forum Blu-ray Audio and Video Specifications Thread
    http://www.avsforum.com/avs-vb/showthread.php?t=1155731
********************
PLAYLIST: 00002.MPLS
********************

Код:

                                                                                Total   Video
Title                                                           Codec   Length  Movie Size      Disc Size       Bitrate Bitrate Main Audio Track                          Secondary Audio Track
-----                                                           ------  ------- --------------  --------------  ------- ------- ------------------                        ---------------------
00002.MPLS                                                      AVC     0:56:25 13 851 721 728  41 838 911 908  32,73   24,99   LPCM 2.0 2304Kbps (48kHz/24-bit)          DTS-HD Master 5.0 3722Kbps (48kHz/24-bit)

Код:
DISC INFO:
Disc Title:     RAFAEL FRUHBECK DE BURGOS_1
Disc Size:      41 838 911 908 bytes
Protection:     AACS
BD-Java:        No
BDInfo:         0.5.8
PLAYLIST REPORT:
Name:                   00002.MPLS
Length:                 0:56:25.548 (h:m:s.ms)
Size:                   13 851 721 728 bytes
Total Bitrate:          32,73 Mbps
VIDEO:
Codec                   Bitrate             Description
-----                   -------             -----------
MPEG-4 AVC Video        24992 kbps          1080p / 23,976 fps / 16:9 / High Profile 4.1
AUDIO:
Codec                           Language        Bitrate         Description
-----                           --------        -------         -----------
LPCM Audio                      English         2304 kbps       2.0 / 48 kHz / 2304 kbps / 24-bit
DTS-HD Master Audio             English         3722 kbps       5.0 / 48 kHz / 3722 kbps / 24-bit (DTS Core: 5.0 / 48 kHz / 1509 kbps / 24-bit)
FILES:
Name            Time In         Length          Size            Total Bitrate
----            -------         ------          ----            -------------
00002.M2TS      0:00:00.000     0:56:24.547     13 851 697 152  32 741
00007.M2TS      0:56:24.547     0:00:01.000     24 576          196
CHAPTERS:
Number          Time In         Length          Avg Video Rate  Max 1-Sec Rate  Max 1-Sec Time  Max 5-Sec Rate  Max 5-Sec Time  Max 10Sec Rate  Max 10Sec Time  Avg Frame Size  Max Frame Size  Max Frame Time
------          -------         ------          --------------  --------------  --------------  --------------  --------------  --------------  --------------  --------------  --------------  --------------
1               0:00:00.000     0:01:08.777     24 697 kbps     35 748 kbps     00:00:30.321    35 328 kbps     00:00:27.402    34 297 kbps     00:00:24.524    128 681 bytes   531 548 bytes   00:00:28.737
2               0:01:08.777     0:18:43.080     24 417 kbps     44 486 kbps     00:08:13.159    37 440 kbps     00:03:38.468    34 415 kbps     00:08:52.531    127 297 bytes   578 709 bytes   00:11:33.693
3               0:19:51.857     0:15:30.596     24 353 kbps     41 220 kbps     00:31:11.411    36 137 kbps     00:25:53.385    34 523 kbps     00:25:48.380    126 967 bytes   563 521 bytes   00:31:14.163
4               0:35:22.453     0:06:01.027     25 815 kbps     40 689 kbps     00:39:09.263    37 012 kbps     00:37:42.218    34 066 kbps     00:37:39.215    134 585 bytes   552 189 bytes   00:39:29.450
5               0:41:23.481     0:12:26.162     25 958 kbps     43 624 kbps     00:45:55.627    37 189 kbps     00:45:55.627    34 484 kbps     00:47:27.052    135 331 bytes   557 380 bytes   00:48:42.377
6               0:53:49.643     0:02:34.904     26 733 kbps     36 347 kbps     00:54:58.003    33 213 kbps     00:55:18.356    32 479 kbps     00:54:00.320    139 374 bytes   494 981 bytes   00:55:17.856
7               0:56:24.547     0:00:01.000     75 kbps         0 kbps          00:00:00.000    0 kbps          00:00:00.000    0 kbps          00:00:00.000    409 bytes       2 423 bytes     00:56:25.048
STREAM DIAGNOSTICS:
File            PID             Type            Codec           Language                Seconds                 Bitrate                 Bytes           Packets
----            ---             ----            -----           --------                --------------          --------------          -------------   -----
00002.M2TS      4113 (0x1011)   0x1B            AVC                                     3384,464                25 000                  10 576 625 721  57 529 154
00002.M2TS      4352 (0x1100)   0x80            LPCM            eng (English)           3384,464                2 310                   977 449 376     5 415 232
00002.M2TS      4353 (0x1101)   0x86            DTS-HD MA       eng (English)           3384,464                3 724                   1 575 305 592   9 086 467
00007.M2TS      4113 (0x1011)   0x1B            AVC                                     0,876                   108                     11 837          72


QUICK SUMMARY:
Disc Title: RAFAEL FRUHBECK DE BURGOS_1
Disc Size: 41 838 911 908 bytes
Protection: AACS
BD-Java: No
Playlist: 00002.MPLS
Size: 13 851 721 728 bytes
Length: 0:56:25.548
Total Bitrate: 32,73 Mbps
Video: MPEG-4 AVC Video / 24992 kbps / 1080p / 23,976 fps / 16:9 / High Profile 4.1
Audio: English / LPCM Audio / 2.0 / 48 kHz / 2304 kbps / 24-bit
Audio: English / DTS-HD Master Audio / 5.0 / 48 kHz / 3722 kbps / 24-bit (DTS Core: 5.0 / 48 kHz / 1509 kbps / 24-bit)
********************
PLAYLIST: 00001.MPLS
********************

Код:

                                                                                Total   Video
Title                                                           Codec   Length  Movie Size      Disc Size       Bitrate Bitrate Main Audio Track                          Secondary Audio Track
-----                                                           ------  ------- --------------  --------------  ------- ------- ------------------                        ---------------------
00001.MPLS                                                      AVC     0:40:48 10 001 418 240  41 838 911 908  32,68   24,97   LPCM 2.0 2304Kbps (48kHz/24-bit)          DTS-HD Master 5.0 3688Kbps (48kHz/24-bit)

Код:
DISC INFO:
Disc Title:     RAFAEL FRUHBECK DE BURGOS_1
Disc Size:      41 838 911 908 bytes
Protection:     AACS
BD-Java:        No
BDInfo:         0.5.8
PLAYLIST REPORT:
Name:                   00001.MPLS
Length:                 0:40:48.612 (h:m:s.ms)
Size:                   10 001 418 240 bytes
Total Bitrate:          32,68 Mbps
VIDEO:
Codec                   Bitrate             Description
-----                   -------             -----------
MPEG-4 AVC Video        24972 kbps          1080p / 23,976 fps / 16:9 / High Profile 4.1
AUDIO:
Codec                           Language        Bitrate         Description
-----                           --------        -------         -----------
LPCM Audio                      English         2304 kbps       2.0 / 48 kHz / 2304 kbps / 24-bit
DTS-HD Master Audio             English         3688 kbps       5.0 / 48 kHz / 3688 kbps / 24-bit (DTS Core: 5.0 / 48 kHz / 1509 kbps / 24-bit)
FILES:
Name            Time In         Length          Size            Total Bitrate
----            -------         ------          ----            -------------
00001.M2TS      0:00:00.000     0:40:47.611     10 001 393 664  32 689
00007.M2TS      0:40:47.611     0:00:01.000     24 576          196
CHAPTERS:
Number          Time In         Length          Avg Video Rate  Max 1-Sec Rate  Max 1-Sec Time  Max 5-Sec Rate  Max 5-Sec Time  Max 10Sec Rate  Max 10Sec Time  Avg Frame Size  Max Frame Size  Max Frame Time
------          -------         ------          --------------  --------------  --------------  --------------  --------------  --------------  --------------  --------------  --------------  --------------
1               0:00:00.000     0:00:48.757     23 068 kbps     34 319 kbps     00:00:21.438    31 527 kbps     00:00:21.563    27 439 kbps     00:00:21.438    120 165 bytes   474 615 bytes   00:00:04.004
2               0:00:48.757     0:14:27.157     24 632 kbps     42 993 kbps     00:14:31.662    37 447 kbps     00:13:45.950    34 557 kbps     00:10:49.857    128 421 bytes   517 888 bytes   00:01:56.658
3               0:15:15.915     0:11:36.278     24 037 kbps     43 330 kbps     00:25:30.278    37 520 kbps     00:18:24.353    34 377 kbps     00:17:22.374    125 317 bytes   590 816 bytes   00:16:03.379
4               0:26:52.193     0:04:51.165     25 779 kbps     47 159 kbps     00:29:02.365    36 966 kbps     00:28:10.730    32 750 kbps     00:31:31.639    134 399 bytes   528 212 bytes   00:29:02.741
5               0:31:43.359     0:06:40.900     26 178 kbps     45 895 kbps     00:33:48.776    36 751 kbps     00:35:42.348    34 233 kbps     00:37:29.914    136 483 bytes   516 162 bytes   00:34:28.900
6               0:38:24.260     0:02:23.351     27 382 kbps     37 950 kbps     00:40:06.487    35 247 kbps     00:40:04.693    33 078 kbps     00:40:04.193    142 757 bytes   484 016 bytes   00:39:16.520
7               0:40:47.611     0:00:01.001     75 kbps         0 kbps          00:00:00.000    0 kbps          00:00:00.000    0 kbps          00:00:00.000    409 bytes       2 423 bytes     00:40:48.112
STREAM DIAGNOSTICS:
File            PID             Type            Codec           Language                Seconds                 Bitrate                 Bytes           Packets
----            ---             ----            -----           --------                --------------          --------------          -------------   -----
00001.M2TS      4113 (0x1011)   0x1B            AVC                                     2447,487                24 984                  7 643 398 792   41 574 662
00001.M2TS      4352 (0x1100)   0x80            LPCM            eng (English)           2447,487                2 311                   706 866 880     3 916 160
00001.M2TS      4353 (0x1101)   0x86            DTS-HD MA       eng (English)           2447,487                3 690                   1 128 899 512   6 517 730
00007.M2TS      4113 (0x1011)   0x1B            AVC                                     0,876                   108                     11 837          72


QUICK SUMMARY:
Disc Title: RAFAEL FRUHBECK DE BURGOS_1
Disc Size: 41 838 911 908 bytes
Protection: AACS
BD-Java: No
Playlist: 00001.MPLS
Size: 10 001 418 240 bytes
Length: 0:40:48.612
Total Bitrate: 32,68 Mbps
Video: MPEG-4 AVC Video / 24972 kbps / 1080p / 23,976 fps / 16:9 / High Profile 4.1
Audio: English / LPCM Audio / 2.0 / 48 kHz / 2304 kbps / 24-bit
Audio: English / DTS-HD Master Audio / 5.0 / 48 kHz / 3688 kbps / 24-bit (DTS Core: 5.0 / 48 kHz / 1509 kbps / 24-bit)
********************
PLAYLIST: 00003.MPLS
********************

Код:

                                                                                Total   Video
Title                                                           Codec   Length  Movie Size      Disc Size       Bitrate Bitrate Main Audio Track                          Secondary Audio Track
-----                                                           ------  ------- --------------  --------------  ------- ------- ------------------                        ---------------------
00003.MPLS                                                      AVC     0:40:10 9 843 836 928   41 838 911 908  32,67   25,00   LPCM 2.0 2304Kbps (48kHz/24-bit)          DTS-HD Master 5.0 3658Kbps (48kHz/24-bit)

Код:
DISC INFO:
Disc Title:     RAFAEL FRUHBECK DE BURGOS_1
Disc Size:      41 838 911 908 bytes
Protection:     AACS
BD-Java:        No
BDInfo:         0.5.8
PLAYLIST REPORT:
Name:                   00003.MPLS
Length:                 0:40:10.449 (h:m:s.ms)
Size:                   9 843 836 928 bytes
Total Bitrate:          32,67 Mbps
VIDEO:
Codec                   Bitrate             Description
-----                   -------             -----------
MPEG-4 AVC Video        24996 kbps          1080p / 23,976 fps / 16:9 / High Profile 4.1
AUDIO:
Codec                           Language        Bitrate         Description
-----                           --------        -------         -----------
LPCM Audio                      English         2304 kbps       2.0 / 48 kHz / 2304 kbps / 24-bit
DTS-HD Master Audio             English         3658 kbps       5.0 / 48 kHz / 3658 kbps / 24-bit (DTS Core: 5.0 / 48 kHz / 1509 kbps / 24-bit)
FILES:
Name            Time In         Length          Size            Total Bitrate
----            -------         ------          ----            -------------
00003.M2TS      0:00:00.000     0:40:09.448     9 843 812 352   32 684
00007.M2TS      0:40:09.448     0:00:01.000     24 576          196
CHAPTERS:
Number          Time In         Length          Avg Video Rate  Max 1-Sec Rate  Max 1-Sec Time  Max 5-Sec Rate  Max 5-Sec Time  Max 10Sec Rate  Max 10Sec Time  Avg Frame Size  Max Frame Size  Max Frame Time
------          -------         ------          --------------  --------------  --------------  --------------  --------------  --------------  --------------  --------------  --------------  --------------
1               0:00:00.000     0:01:30.590     28 189 kbps     35 882 kbps     00:01:25.043    34 522 kbps     00:00:00.917    33 769 kbps     00:00:00.917    146 898 bytes   524 280 bytes   00:00:01.000
2               0:01:30.590     0:12:37.006     25 148 kbps     45 900 kbps     00:08:07.111    37 290 kbps     00:05:13.479    34 112 kbps     00:05:13.062    131 109 bytes   553 247 bytes   00:13:33.979
3               0:14:07.596     0:11:11.253     24 108 kbps     38 286 kbps     00:19:23.620    35 531 kbps     00:18:19.098    34 593 kbps     00:22:00.444    125 688 bytes   562 007 bytes   00:24:25.922
4               0:25:18.850     0:06:14.123     24 594 kbps     41 858 kbps     00:26:14.489    35 289 kbps     00:29:36.775    32 984 kbps     00:30:43.758    128 221 bytes   565 568 bytes   00:26:33.300
5               0:31:32.974     0:06:48.116     25 389 kbps     42 343 kbps     00:35:44.892    36 255 kbps     00:32:48.925    33 878 kbps     00:32:47.757    132 368 bytes   562 334 bytes   00:34:16.804
6               0:38:21.090     0:01:48.358     26 903 kbps     36 482 kbps     00:39:49.678    32 389 kbps     00:39:31.368    31 355 kbps     00:38:57.835    140 259 bytes   480 548 bytes   00:39:10.890
7               0:40:09.448     0:00:01.001     75 kbps         0 kbps          00:00:00.000    0 kbps          00:00:00.000    0 kbps          00:00:00.000    409 bytes       2 423 bytes     00:40:09.949
STREAM DIAGNOSTICS:
File            PID             Type            Codec           Language                Seconds                 Bitrate                 Bytes           Packets
----            ---             ----            -----           --------                --------------          --------------          -------------   -----
00003.M2TS      4113 (0x1011)   0x1B            AVC                                     2409,282                25 008                  7 531 425 516   40 965 567
00003.M2TS      4352 (0x1100)   0x80            LPCM            eng (English)           2409,282                2 310                   695 719 200     3 854 400
00003.M2TS      4353 (0x1101)   0x86            DTS-HD MA       eng (English)           2409,282                3 660                   1 102 263 832   6 369 151
00007.M2TS      4113 (0x1011)   0x1B            AVC                                     0,876                   108                     11 837          72


QUICK SUMMARY:
Disc Title: RAFAEL FRUHBECK DE BURGOS_1
Disc Size: 41 838 911 908 bytes
Protection: AACS
BD-Java: No
Playlist: 00003.MPLS
Size: 9 843 836 928 bytes
Length: 0:40:10.449
Total Bitrate: 32,67 Mbps
Video: MPEG-4 AVC Video / 24996 kbps / 1080p / 23,976 fps / 16:9 / High Profile 4.1
Audio: English / LPCM Audio / 2.0 / 48 kHz / 2304 kbps / 24-bit
Audio: English / DTS-HD Master Audio / 5.0 / 48 kHz / 3658 kbps / 24-bit (DTS Core: 5.0 / 48 kHz / 1509 kbps / 24-bit)
********************
PLAYLIST: 00000.MPLS
********************

Код:

                                                                                Total   Video
Title                                                           Codec   Length  Movie Size      Disc Size       Bitrate Bitrate Main Audio Track                          Secondary Audio Track
-----                                                           ------  ------- --------------  --------------  ------- ------- ------------------                        ---------------------
00000.MPLS                                                      AVC     0:33:12 8 138 975 232   41 838 911 908  32,68   24,98   LPCM 2.0 2304Kbps (48kHz/24-bit)          DTS-HD Master 5.0 3684Kbps (48kHz/24-bit)

Код:
DISC INFO:
Disc Title:     RAFAEL FRUHBECK DE BURGOS_1
Disc Size:      41 838 911 908 bytes
Protection:     AACS
BD-Java:        No
BDInfo:         0.5.8
PLAYLIST REPORT:
Name:                   00000.MPLS
Length:                 0:33:12.573 (h:m:s.ms)
Size:                   8 138 975 232 bytes
Total Bitrate:          32,68 Mbps
VIDEO:
Codec                   Bitrate             Description
-----                   -------             -----------
MPEG-4 AVC Video        24977 kbps          1080p / 23,976 fps / 16:9 / High Profile 4.1
AUDIO:
Codec                           Language        Bitrate         Description
-----                           --------        -------         -----------
LPCM Audio                      English         2304 kbps       2.0 / 48 kHz / 2304 kbps / 24-bit
DTS-HD Master Audio             English         3684 kbps       5.0 / 48 kHz / 3684 kbps / 24-bit (DTS Core: 5.0 / 48 kHz / 1509 kbps / 24-bit)
FILES:
Name            Time In         Length          Size            Total Bitrate
----            -------         ------          ----            -------------
00000.M2TS      0:00:00.000     0:33:11.572     8 138 950 656   32 694
00007.M2TS      0:33:11.572     0:00:01.000     24 576          196
CHAPTERS:
Number          Time In         Length          Avg Video Rate  Max 1-Sec Rate  Max 1-Sec Time  Max 5-Sec Rate  Max 5-Sec Time  Max 10Sec Rate  Max 10Sec Time  Avg Frame Size  Max Frame Size  Max Frame Time
------          -------         ------          --------------  --------------  --------------  --------------  --------------  --------------  --------------  --------------  --------------  --------------
1               0:00:00.000     0:00:57.515     25 665 kbps     31 104 kbps     00:00:25.817    30 035 kbps     00:00:45.295    28 497 kbps     00:00:06.840    133 708 bytes   496 314 bytes   00:00:20.019
2               0:00:57.515     0:10:59.784     25 284 kbps     40 658 kbps     00:03:59.864    36 935 kbps     00:06:52.453    34 511 kbps     00:03:54.567    131 817 bytes   497 820 bytes   00:02:25.979
3               0:11:57.299     0:08:50.530     24 763 kbps     42 737 kbps     00:20:25.474    37 507 kbps     00:14:11.976    34 584 kbps     00:19:54.776    129 102 bytes   632 343 bytes   00:20:25.515
4               0:20:47.829     0:04:25.431     23 070 kbps     43 155 kbps     00:22:58.919    36 152 kbps     00:21:21.571    32 817 kbps     00:24:01.606    120 276 bytes   537 295 bytes   00:22:59.461
5               0:25:13.261     0:06:15.208     24 909 kbps     44 523 kbps     00:30:58.398    37 018 kbps     00:30:58.273    32 419 kbps     00:28:30.125    129 863 bytes   496 210 bytes   00:30:07.847
6               0:31:28.469     0:01:43.102     29 139 kbps     39 935 kbps     00:32:03.921    36 986 kbps     00:32:02.837    34 299 kbps     00:32:02.837    151 916 bytes   490 929 bytes   00:32:03.171
7               0:33:11.572     0:00:01.000     75 kbps         0 kbps          00:00:00.000    0 kbps          00:00:00.000    0 kbps          00:00:00.000    409 bytes       2 423 bytes     00:33:12.073
STREAM DIAGNOSTICS:
File            PID             Type            Codec           Language                Seconds                 Bitrate                 Bytes           Packets
----            ---             ----            -----           --------                --------------          --------------          -------------   -----
00000.M2TS      4113 (0x1011)   0x1B            AVC                                     1991,406                24 992                  6 221 121 113   33 838 338
00000.M2TS      4352 (0x1100)   0x80            LPCM            eng (English)           1991,406                2 311                   575 166 860     3 186 520
00000.M2TS      4353 (0x1101)   0x86            DTS-HD MA       eng (English)           1991,406                3 686                   917 628 004     5 298 746
00007.M2TS      4113 (0x1011)   0x1B            AVC                                     0,876                   108                     11 837          72


QUICK SUMMARY:
Disc Title: RAFAEL FRUHBECK DE BURGOS_1
Disc Size: 41 838 911 908 bytes
Protection: AACS
BD-Java: No
Playlist: 00000.MPLS
Size: 8 138 975 232 bytes
Length: 0:33:12.573
Total Bitrate: 32,68 Mbps
Video: MPEG-4 AVC Video / 24977 kbps / 1080p / 23,976 fps / 16:9 / High Profile 4.1
Audio: English / LPCM Audio / 2.0 / 48 kHz / 2304 kbps / 24-bit
Audio: English / DTS-HD Master Audio / 5.0 / 48 kHz / 3684 kbps / 24-bit (DTS Core: 5.0 / 48 kHz / 1509 kbps / 24-bit)

Скриншоты



























Disc 2
Продолжительность: 02:42:51
Треклист:
Ludwig van Beethoven (1770-1827)
Symphony No. 5 in C minor, Op. 67 (1804-1808)
1. 1. Allegro con brio
2. 2. Andante con moto
3. 3. Scherzo: Allegro
4. 4. Allegro
Symphony No. 6 in F major, Op. 68 “Pastoral” (1808)
5. 1. Erwachen heiterer Empfindungen bei der Ankunft auf dem Lande: Allegro, ma non troppo
6. 2. Szene am Bach: Andante molto mosso
7. 3. Lustiges Zusammensein der Landleute: Allegro
8. 4. Gewitter, Sturm: Allegro
9. 5. Hirtengesang. Frohe und dankbare Gefühle nach dem Sturm
Symphony No. 7 in A major, Op. 92 (1811-12)
10. 1. Poco sostenuto - Vivace
11. 2. Allegretto
12. 3. Scherzo: Presto
13. 4. Allegro con brio
Symphony No. 8 in F major, Op. 93 (1812)
14. 1. Allegro vivace e con brio
15. 2. Allegretto scherzando
16. 3. Tempo di menuetto
17. 4. Allegro vivace
Видео поток: MPEG-4 AVC Video / 24982 - 24991 kbps / 1080p / 23,976 fps / 16:9 / High Profile 4.1
Аудио #1: English / LPCM Audio / 2.0 / 48 kHz / 2304 kbps / 24-bit
Аудио #2: English / DTS-HD Master Audio / 5.0 / 48 kHz / 3667 kbps / 24-bit (DTS Core: 5.0 / 48 kHz / 1509 kbps / 24-bit)
BDInfo

Disc Title:     RAFAEL FRUHBECK DE BURGOS_2
Disc Size:      40 031 763 552 bytes
Protection:     AACS
BD-Java:        No
BDInfo:         0.5.8
Notes:
BDINFO HOME:
  Cinema Squid
    http://www.cinemasquid.com/blu-ray/tools/bdinfo
INCLUDES FORUMS REPORT FOR:
  AVS Forum Blu-ray Audio and Video Specifications Thread
    http://www.avsforum.com/avs-vb/showthread.php?t=1155731
********************
PLAYLIST: 00001.MPLS
********************

Код:

                                                                                Total   Video
Title                                                           Codec   Length  Movie Size      Disc Size       Bitrate Bitrate Main Audio Track                          Secondary Audio Track
-----                                                           ------  ------- --------------  --------------  ------- ------- ------------------                        ---------------------
00001.MPLS                                                      AVC     0:48:22 11 853 453 312  40 031 763 552  32,67   24,99   LPCM 2.0 2304Kbps (48kHz/24-bit)          DTS-HD Master 5.0 3667Kbps (48kHz/24-bit)

Код:
DISC INFO:
Disc Title:     RAFAEL FRUHBECK DE BURGOS_2
Disc Size:      40 031 763 552 bytes
Protection:     AACS
BD-Java:        No
BDInfo:         0.5.8
PLAYLIST REPORT:
Name:                   00001.MPLS
Length:                 0:48:22.566 (h:m:s.ms)
Size:                   11 853 453 312 bytes
Total Bitrate:          32,67 Mbps
VIDEO:
Codec                   Bitrate             Description
-----                   -------             -----------
MPEG-4 AVC Video        24991 kbps          1080p / 23,976 fps / 16:9 / High Profile 4.1
AUDIO:
Codec                           Language        Bitrate         Description
-----                           --------        -------         -----------
LPCM Audio                      English         2304 kbps       2.0 / 48 kHz / 2304 kbps / 24-bit
DTS-HD Master Audio             English         3667 kbps       5.0 / 48 kHz / 3667 kbps / 24-bit (DTS Core: 5.0 / 48 kHz / 1509 kbps / 24-bit)
FILES:
Name            Time In         Length          Size            Total Bitrate
----            -------         ------          ----            -------------
00001.M2TS      0:00:00.000     0:48:21.565     11 853 428 736  32 681
00007.M2TS      0:48:21.565     0:00:01.000     24 576          196
CHAPTERS:
Number          Time In         Length          Avg Video Rate  Max 1-Sec Rate  Max 1-Sec Time  Max 5-Sec Rate  Max 5-Sec Time  Max 10Sec Rate  Max 10Sec Time  Avg Frame Size  Max Frame Size  Max Frame Time
------          -------         ------          --------------  --------------  --------------  --------------  --------------  --------------  --------------  --------------  --------------  --------------
1               0:00:00.000     0:01:01.895     24 146 kbps     36 640 kbps     00:00:25.275    34 367 kbps     00:00:21.312    29 244 kbps     00:00:19.394    125 801 bytes   515 509 bytes   00:00:23.440
2               0:01:01.895     0:12:45.264     25 139 kbps     39 738 kbps     00:04:00.782    36 964 kbps     00:07:44.255    34 422 kbps     00:08:50.279    131 062 bytes   555 706 bytes   00:01:02.896
3               0:13:47.159     0:12:24.452     23 880 kbps     38 508 kbps     00:17:39.683    36 383 kbps     00:17:39.683    34 190 kbps     00:19:34.590    124 498 bytes   528 771 bytes   00:14:32.538
4               0:26:11.611     0:05:48.306     26 289 kbps     39 740 kbps     00:30:59.649    36 266 kbps     00:26:40.640    33 950 kbps     00:27:03.204    137 060 bytes   520 982 bytes   00:31:54.954
5               0:31:59.918     0:04:00.031     24 954 kbps     40 864 kbps     00:34:21.100    36 235 kbps     00:33:57.201    32 567 kbps     00:33:54.532    130 100 bytes   532 423 bytes   00:33:40.977
6               0:35:59.949     0:10:01.225     24 912 kbps     43 367 kbps     00:36:36.569    37 208 kbps     00:40:44.400    34 332 kbps     00:42:50.359    129 881 bytes   557 462 bytes   00:36:37.778
7               0:46:01.175     0:02:20.390     27 812 kbps     36 584 kbps     00:46:39.087    33 964 kbps     00:46:35.083    32 433 kbps     00:46:16.648    145 002 bytes   516 596 bytes   00:46:22.613
8               0:48:21.565     0:00:01.000     75 kbps         0 kbps          00:00:00.000    0 kbps          00:00:00.000    0 kbps          00:00:00.000    409 bytes       2 423 bytes     00:48:22.065
STREAM DIAGNOSTICS:
File            PID             Type            Codec           Language                Seconds                 Bitrate                 Bytes           Packets
----            ---             ----            -----           --------                --------------          --------------          -------------   -----
00001.M2TS      4113 (0x1011)   0x1B            AVC                                     2901,482                25 001                  9 067 328 296   49 319 774
00001.M2TS      4352 (0x1100)   0x80            LPCM            eng (English)           2901,482                2 309                   837 473 792     4 639 744
00001.M2TS      4353 (0x1101)   0x86            DTS-HD MA       eng (English)           2901,482                3 669                   1 330 522 008   7 679 875
00007.M2TS      4113 (0x1011)   0x1B            AVC                                     0,876                   108                     11 837          72


QUICK SUMMARY:
Disc Title: RAFAEL FRUHBECK DE BURGOS_2
Disc Size: 40 031 763 552 bytes
Protection: AACS
BD-Java: No
Playlist: 00001.MPLS
Size: 11 853 453 312 bytes
Length: 0:48:22.566
Total Bitrate: 32,67 Mbps
Video: MPEG-4 AVC Video / 24991 kbps / 1080p / 23,976 fps / 16:9 / High Profile 4.1
Audio: English / LPCM Audio / 2.0 / 48 kHz / 2304 kbps / 24-bit
Audio: English / DTS-HD Master Audio / 5.0 / 48 kHz / 3667 kbps / 24-bit (DTS Core: 5.0 / 48 kHz / 1509 kbps / 24-bit)
********************
PLAYLIST: 00002.MPLS
********************

Код:

                                                                                Total   Video
Title                                                           Codec   Length  Movie Size      Disc Size       Bitrate Bitrate Main Audio Track                          Secondary Audio Track
-----                                                           ------  ------- --------------  --------------  ------- ------- ------------------                        ---------------------
00002.MPLS                                                      AVC     0:44:35 10 970 720 256  40 031 763 552  32,80   24,98   LPCM 2.0 2304Kbps (48kHz/24-bit)          DTS-HD Master 5.0 3799Kbps (48kHz/24-bit)

Код:
DISC INFO:
Disc Title:     RAFAEL FRUHBECK DE BURGOS_2
Disc Size:      40 031 763 552 bytes
Protection:     AACS
BD-Java:        No
BDInfo:         0.5.8
PLAYLIST REPORT:
Name:                   00002.MPLS
Length:                 0:44:35.756 (h:m:s.ms)
Size:                   10 970 720 256 bytes
Total Bitrate:          32,80 Mbps
VIDEO:
Codec                   Bitrate             Description
-----                   -------             -----------
MPEG-4 AVC Video        24982 kbps          1080p / 23,976 fps / 16:9 / High Profile 4.1
AUDIO:
Codec                           Language        Bitrate         Description
-----                           --------        -------         -----------
LPCM Audio                      English         2304 kbps       2.0 / 48 kHz / 2304 kbps / 24-bit
DTS-HD Master Audio             English         3799 kbps       5.0 / 48 kHz / 3799 kbps / 24-bit (DTS Core: 5.0 / 48 kHz / 1509 kbps / 24-bit)
FILES:
Name            Time In         Length          Size            Total Bitrate
----            -------         ------          ----            -------------
00002.M2TS      0:00:00.000     0:44:34.755     10 970 695 680  32 813
00007.M2TS      0:44:34.755     0:00:01.000     24 576          196
CHAPTERS:
Number          Time In         Length          Avg Video Rate  Max 1-Sec Rate  Max 1-Sec Time  Max 5-Sec Rate  Max 5-Sec Time  Max 10Sec Rate  Max 10Sec Time  Avg Frame Size  Max Frame Size  Max Frame Time
------          -------         ------          --------------  --------------  --------------  --------------  --------------  --------------  --------------  --------------  --------------  --------------
1               0:00:00.000     0:00:47.714     26 630 kbps     37 919 kbps     00:00:46.713    35 790 kbps     00:00:42.333    32 364 kbps     00:00:10.385    138 715 bytes   573 799 bytes   00:00:14.931
2               0:00:47.714     0:13:47.785     25 521 kbps     44 170 kbps     00:02:30.525    37 389 kbps     00:01:55.949    33 710 kbps     00:05:34.042    133 056 bytes   508 909 bytes   00:08:59.830
3               0:14:35.499     0:08:46.442     22 493 kbps     40 778 kbps     00:16:34.660    37 012 kbps     00:16:34.618    33 819 kbps     00:16:34.535    117 270 bytes   504 334 bytes   00:16:35.619
4               0:23:21.942     0:09:19.809     25 061 kbps     41 070 kbps     00:24:22.752    36 060 kbps     00:27:06.958    33 858 kbps     00:27:05.081    130 654 bytes   493 250 bytes   00:31:26.843
5               0:32:41.751     0:09:08.089     25 516 kbps     41 702 kbps     00:34:43.748    37 659 kbps     00:34:43.748    34 104 kbps     00:36:16.007    133 030 bytes   492 121 bytes   00:34:43.790
6               0:41:49.840     0:02:44.914     27 844 kbps     40 253 kbps     00:42:23.207    34 886 kbps     00:43:13.173    33 881 kbps     00:42:22.373    145 167 bytes   546 677 bytes   00:43:25.853
7               0:44:34.755     0:00:01.001     75 kbps         0 kbps          00:00:00.000    0 kbps          00:00:00.000    0 kbps          00:00:00.000    409 bytes       2 423 bytes     00:44:35.255
STREAM DIAGNOSTICS:
File            PID             Type            Codec           Language                Seconds                 Bitrate                 Bytes           Packets
----            ---             ----            -----           --------                --------------          --------------          -------------   -----
00002.M2TS      4113 (0x1011)   0x1B            AVC                                     2674,589                24 992                  8 355 545 149   45 448 149
00002.M2TS      4352 (0x1100)   0x80            LPCM            eng (English)           2674,589                2 310                   772 453 360     4 279 520
00002.M2TS      4353 (0x1101)   0x86            DTS-HD MA       eng (English)           2674,589                3 801                   1 270 653 376   7 321 736
00007.M2TS      4113 (0x1011)   0x1B            AVC                                     0,876                   108                     11 837          72


QUICK SUMMARY:
Disc Title: RAFAEL FRUHBECK DE BURGOS_2
Disc Size: 40 031 763 552 bytes
Protection: AACS
BD-Java: No
Playlist: 00002.MPLS
Size: 10 970 720 256 bytes
Length: 0:44:35.756
Total Bitrate: 32,80 Mbps
Video: MPEG-4 AVC Video / 24982 kbps / 1080p / 23,976 fps / 16:9 / High Profile 4.1
Audio: English / LPCM Audio / 2.0 / 48 kHz / 2304 kbps / 24-bit
Audio: English / DTS-HD Master Audio / 5.0 / 48 kHz / 3799 kbps / 24-bit (DTS Core: 5.0 / 48 kHz / 1509 kbps / 24-bit)
********************
PLAYLIST: 00000.MPLS
********************

Код:

                                                                                Total   Video
Title                                                           Codec   Length  Movie Size      Disc Size       Bitrate Bitrate Main Audio Track                          Secondary Audio Track
-----                                                           ------  ------- --------------  --------------  ------- ------- ------------------                        ---------------------
00000.MPLS                                                      AVC     0:39:39 9 766 250 496   40 031 763 552  32,84   24,99   LPCM 2.0 2304Kbps (48kHz/24-bit)          DTS-HD Master 5.0 3829Kbps (48kHz/24-bit)

Код:
DISC INFO:
Disc Title:     RAFAEL FRUHBECK DE BURGOS_2
Disc Size:      40 031 763 552 bytes
Protection:     AACS
BD-Java:        No
BDInfo:         0.5.8
PLAYLIST REPORT:
Name:                   00000.MPLS
Length:                 0:39:39.293 (h:m:s.ms)
Size:                   9 766 250 496 bytes
Total Bitrate:          32,84 Mbps
VIDEO:
Codec                   Bitrate             Description
-----                   -------             -----------
MPEG-4 AVC Video        24989 kbps          1080p / 23,976 fps / 16:9 / High Profile 4.1
AUDIO:
Codec                           Language        Bitrate         Description
-----                           --------        -------         -----------
LPCM Audio                      English         2304 kbps       2.0 / 48 kHz / 2304 kbps / 24-bit
DTS-HD Master Audio             English         3829 kbps       5.0 / 48 kHz / 3829 kbps / 24-bit (DTS Core: 5.0 / 48 kHz / 1509 kbps / 24-bit)
FILES:
Name            Time In         Length          Size            Total Bitrate
----            -------         ------          ----            -------------
00000.M2TS      0:00:00.000     0:39:38.292     9 766 225 920   32 851
00007.M2TS      0:39:38.292     0:00:01.000     24 576          196
CHAPTERS:
Number          Time In         Length          Avg Video Rate  Max 1-Sec Rate  Max 1-Sec Time  Max 5-Sec Rate  Max 5-Sec Time  Max 10Sec Rate  Max 10Sec Time  Avg Frame Size  Max Frame Size  Max Frame Time
------          -------         ------          --------------  --------------  --------------  --------------  --------------  --------------  --------------  --------------  --------------  --------------
1               0:00:00.000     0:00:52.093     22 919 kbps     31 671 kbps     00:00:45.879    30 107 kbps     00:00:41.916    27 279 kbps     00:00:36.870    119 394 bytes   514 382 bytes   00:00:39.998
2               0:00:52.093     0:07:57.810     24 204 kbps     40 476 kbps     00:04:46.536    37 690 kbps     00:04:45.034    33 438 kbps     00:06:05.448    126 189 bytes   586 027 bytes   00:04:08.498
3               0:08:49.904     0:10:26.000     25 109 kbps     39 242 kbps     00:19:00.430    36 512 kbps     00:18:56.301    34 503 kbps     00:08:50.154    130 904 bytes   527 635 bytes   00:14:53.058
4               0:19:15.904     0:05:22.947     24 071 kbps     38 166 kbps     00:22:49.743    35 253 kbps     00:20:26.558    33 285 kbps     00:20:21.553    125 493 bytes   499 107 bytes   00:22:53.538
5               0:24:38.852     0:11:30.648     25 494 kbps     44 708 kbps     00:28:48.476    36 758 kbps     00:24:55.160    34 501 kbps     00:27:41.576    132 913 bytes   534 708 bytes   00:35:19.659
6               0:36:09.500     0:03:28.791     26 817 kbps     40 506 kbps     00:39:05.051    36 502 kbps     00:39:04.300    34 221 kbps     00:39:03.924    139 814 bytes   520 743 bytes   00:36:39.655
7               0:39:38.292     0:00:01.000     75 kbps         0 kbps          00:00:00.000    0 kbps          00:00:00.000    0 kbps          00:00:00.000    409 bytes       2 423 bytes     00:39:38.793
STREAM DIAGNOSTICS:
File            PID             Type            Codec           Language                Seconds                 Bitrate                 Bytes           Packets
----            ---             ----            -----           --------                --------------          --------------          -------------   -----
00000.M2TS      4113 (0x1011)   0x1B            AVC                                     2378,167                25 001                  7 432 112 576   40 425 217
00000.M2TS      4352 (0x1100)   0x80            LPCM            eng (English)           2378,167                2 311                   686 851 596     3 805 272
00000.M2TS      4353 (0x1101)   0x86            DTS-HD MA       eng (English)           2378,167                3 831                   1 138 825 880   6 555 566
00007.M2TS      4113 (0x1011)   0x1B            AVC                                     0,876                   108                     11 837          72


QUICK SUMMARY:
Disc Title: RAFAEL FRUHBECK DE BURGOS_2
Disc Size: 40 031 763 552 bytes
Protection: AACS
BD-Java: No
Playlist: 00000.MPLS
Size: 9 766 250 496 bytes
Length: 0:39:39.293
Total Bitrate: 32,84 Mbps
Video: MPEG-4 AVC Video / 24989 kbps / 1080p / 23,976 fps / 16:9 / High Profile 4.1
Audio: English / LPCM Audio / 2.0 / 48 kHz / 2304 kbps / 24-bit
Audio: English / DTS-HD Master Audio / 5.0 / 48 kHz / 3829 kbps / 24-bit (DTS Core: 5.0 / 48 kHz / 1509 kbps / 24-bit)
********************
PLAYLIST: 00003.MPLS
********************

Код:

                                                                                Total   Video
Title                                                           Codec   Length  Movie Size      Disc Size       Bitrate Bitrate Main Audio Track                          Secondary Audio Track
-----                                                           ------  ------- --------------  --------------  ------- ------- ------------------                        ---------------------
00003.MPLS                                                      AVC     0:30:15 7 438 270 464   40 031 763 552  32,77   24,99   LPCM 2.0 2304Kbps (48kHz/24-bit)          DTS-HD Master 5.0 3765Kbps (48kHz/24-bit)

Код:
DISC INFO:
Disc Title:     RAFAEL FRUHBECK DE BURGOS_2
Disc Size:      40 031 763 552 bytes
Protection:     AACS
BD-Java:        No
BDInfo:         0.5.8
PLAYLIST REPORT:
Name:                   00003.MPLS
Length:                 0:30:15.897 (h:m:s.ms)
Size:                   7 438 270 464 bytes
Total Bitrate:          32,77 Mbps
VIDEO:
Codec                   Bitrate             Description
-----                   -------             -----------
MPEG-4 AVC Video        24985 kbps          1080p / 23,976 fps / 16:9 / High Profile 4.1
AUDIO:
Codec                           Language        Bitrate         Description
-----                           --------        -------         -----------
LPCM Audio                      English         2304 kbps       2.0 / 48 kHz / 2304 kbps / 24-bit
DTS-HD Master Audio             English         3765 kbps       5.0 / 48 kHz / 3765 kbps / 24-bit (DTS Core: 5.0 / 48 kHz / 1509 kbps / 24-bit)
FILES:
Name            Time In         Length          Size            Total Bitrate
----            -------         ------          ----            -------------
00003.M2TS      0:00:00.000     0:30:14.896     7 438 245 888   32 788
00007.M2TS      0:30:14.896     0:00:01.000     24 576          196
CHAPTERS:
Number          Time In         Length          Avg Video Rate  Max 1-Sec Rate  Max 1-Sec Time  Max 5-Sec Rate  Max 5-Sec Time  Max 10Sec Rate  Max 10Sec Time  Avg Frame Size  Max Frame Size  Max Frame Time
------          -------         ------          --------------  --------------  --------------  --------------  --------------  --------------  --------------  --------------  --------------  --------------
1               0:00:00.000     0:01:05.940     24 951 kbps     38 680 kbps     00:01:02.103    35 197 kbps     00:00:37.287    34 279 kbps     00:00:32.240    130 001 bytes   513 710 bytes   00:00:26.985
2               0:01:05.940     0:10:13.362     24 923 kbps     38 773 kbps     00:10:09.817    36 365 kbps     00:07:21.774    34 352 kbps     00:07:20.356    129 939 bytes   513 695 bytes   00:05:38.171
3               0:11:19.303     0:04:07.538     25 062 kbps     41 842 kbps     00:12:02.763    35 491 kbps     00:11:29.647    32 689 kbps     00:11:27.353    130 663 bytes   495 589 bytes   00:14:37.042
4               0:15:26.842     0:04:58.047     25 338 kbps     43 897 kbps     00:19:59.489    36 561 kbps     00:16:04.588    32 984 kbps     00:18:18.931    132 101 bytes   509 057 bytes   00:18:52.047
5               0:20:24.890     0:08:04.901     24 981 kbps     44 309 kbps     00:23:40.669    37 126 kbps     00:26:33.049    33 507 kbps     00:23:38.291    130 241 bytes   534 167 bytes   00:27:50.377
6               0:28:29.791     0:01:45.105     24 444 kbps     39 113 kbps     00:29:43.198    33 637 kbps     00:29:39.235    30 975 kbps     00:29:11.207    127 437 bytes   516 394 bytes   00:29:43.448
7               0:30:14.896     0:00:01.000     75 kbps         0 kbps          00:00:00.000    0 kbps          00:00:00.000    0 kbps          00:00:00.000    409 bytes       2 423 bytes     00:30:15.396
STREAM DIAGNOSTICS:
File            PID             Type            Codec           Language                Seconds                 Bitrate                 Bytes           Packets
----            ---             ----            -----           --------                --------------          --------------          -------------   -----
00003.M2TS      4113 (0x1011)   0x1B            AVC                                     1814,730                25 001                  5 671 338 174   30 847 840
00003.M2TS      4352 (0x1100)   0x80            LPCM            eng (English)           1814,730                2 311                   524 137 344     2 903 808
00003.M2TS      4353 (0x1101)   0x86            DTS-HD MA       eng (English)           1814,730                3 768                   854 663 884     4 928 377
00007.M2TS      4113 (0x1011)   0x1B            AVC                                     0,876                   108                     11 837          72


QUICK SUMMARY:
Disc Title: RAFAEL FRUHBECK DE BURGOS_2
Disc Size: 40 031 763 552 bytes
Protection: AACS
BD-Java: No
Playlist: 00003.MPLS
Size: 7 438 270 464 bytes
Length: 0:30:15.897
Total Bitrate: 32,77 Mbps
Video: MPEG-4 AVC Video / 24985 kbps / 1080p / 23,976 fps / 16:9 / High Profile 4.1
Audio: English / LPCM Audio / 2.0 / 48 kHz / 2304 kbps / 24-bit
Audio: English / DTS-HD Master Audio / 5.0 / 48 kHz / 3765 kbps / 24-bit (DTS Core: 5.0 / 48 kHz / 1509 kbps / 24-bit)

Скриншоты



























Disc 3
Продолжительность: 03:40:22
Треклист:
Ludwig van Beethoven (1770-1827)
Symphony No. 9 in D minor, Op. 125 “Choral” (1822-1824)
1. 1. Allegro ma non troppo, un poco maestoso
2. 2. Scherzo: Molto vivace - Presto
3. 3. Adagio molto e cantabile
4. 4. Finale: Presto - O Freunde, nicht diese Töne! - Freude, schöner Götterfunken
Joaquin Rodrigo (1901-1999)
Concierto de Aranjuez (1939)
5. 1. Allegro con spirito
6. 2. Adagio
7. 3. Allegro gentile
Hector Berlioz (1803-1869)
Symphonie fantastique, Op. 14 (1830)
8. 1. Rêveries, Passions: Largo - Allegro agitato
9. 2. Un bal: Valse allegro non troppo
10. 3. Scène aux champs: Adagio
11. 4. Marche au supplice: Allegretto non troppo
12. 5. Songe d'une nuit du Sabbat: Larghetto - Allegro - Ronde du Sabbat
Richard Strauss (1864-1949)
Eine Alpensinfonie (An Alpine Symphony), Op. 64 (1911-1915)
13. 1. Nacht
14. 2. Sonnenaufgang
15. 3. Der Anstieg
16. 4. Eintritt in den Wald
17. 5. Wanderung neben dem Bache
18. 6. Am Wasserfall
19. 7. Erschenung
20. 8. Auf blumigen Wiesen
21. 9. Auf der Alm
22. 10. Durch Dickicht und Gestrüpp auf Irrwegen
23. 11. Auf dem Gletscher
24. 12. Gefahrvolle Augenblicke
25. 13. Auf dem Gipfel
26. 14. Vision
27. 15. Nebel steigen auf
28. 16. Die Sonne verdüstert sich allmählich
29. 17. Elegie
30. 18. Stille vor dem Sturm
31. 19. Gewitter und Sturm, Abstieg
32. 20. Sonnenuntergang
33. 21. Ausklang
34. 22. Nacht
Видео поток: MPEG-4 AVC Video / 19988 - 19995 kbps / 1080p / 23,976 fps / 16:9 / High Profile 4.1
Аудио #1: English / LPCM Audio / 2.0 / 48 kHz / 2304 kbps / 24-bit
Аудио #2: English / DTS-HD Master Audio / 5.1 / 48 kHz / 3912 kbps / 24-bit (DTS Core: 5.1 / 48 kHz / 1509 kbps / 24-bit)
BDInfo

Disc Title:     RAFAEL FRUHBECK DE BURGOS_3
Disc Size:      45 672 810 012 bytes
Protection:     AACS
BD-Java:        No
BDInfo:         0.5.8
Notes:
BDINFO HOME:
  Cinema Squid
    http://www.cinemasquid.com/blu-ray/tools/bdinfo
INCLUDES FORUMS REPORT FOR:
  AVS Forum Blu-ray Audio and Video Specifications Thread
    http://www.avsforum.com/avs-vb/showthread.php?t=1155731
********************
PLAYLIST: 00000.MPLS
********************

Код:

                                                                                Total   Video
Title                                                           Codec   Length  Movie Size      Disc Size       Bitrate Bitrate Main Audio Track                          Secondary Audio Track
-----                                                           ------  ------- --------------  --------------  ------- ------- ------------------                        ---------------------
00000.MPLS                                                      AVC     1:15:53 15 776 342 016  45 672 810 012  27,72   20,00   LPCM 2.0 2304Kbps (48kHz/24-bit)          DTS-HD Master 5.1 3912Kbps (48kHz/24-bit)

Код:
DISC INFO:
Disc Title:     RAFAEL FRUHBECK DE BURGOS_3
Disc Size:      45 672 810 012 bytes
Protection:     AACS
BD-Java:        No
BDInfo:         0.5.8
PLAYLIST REPORT:
Name:                   00000.MPLS
Length:                 1:15:53.715 (h:m:s.ms)
Size:                   15 776 342 016 bytes
Total Bitrate:          27,72 Mbps
VIDEO:
Codec                   Bitrate             Description
-----                   -------             -----------
MPEG-4 AVC Video        19995 kbps          1080p / 23,976 fps / 16:9 / High Profile 4.1
AUDIO:
Codec                           Language        Bitrate         Description
-----                           --------        -------         -----------
LPCM Audio                      English         2304 kbps       2.0 / 48 kHz / 2304 kbps / 24-bit
DTS-HD Master Audio             English         3912 kbps       5.1 / 48 kHz / 3912 kbps / 24-bit (DTS Core: 5.1 / 48 kHz / 1509 kbps / 24-bit)
FILES:
Name            Time In         Length          Size            Total Bitrate
----            -------         ------          ----            -------------
00000.M2TS      0:00:00.000     1:15:52.714     15 776 317 440  27 722
00007.M2TS      1:15:52.714     0:00:01.000     24 576          196
CHAPTERS:
Number          Time In         Length          Avg Video Rate  Max 1-Sec Rate  Max 1-Sec Time  Max 5-Sec Rate  Max 5-Sec Time  Max 10Sec Rate  Max 10Sec Time  Avg Frame Size  Max Frame Size  Max Frame Time
------          -------         ------          --------------  --------------  --------------  --------------  --------------  --------------  --------------  --------------  --------------  --------------
1               0:00:00.000     0:01:12.614     19 532 kbps     25 785 kbps     00:01:09.694    22 704 kbps     00:00:58.433    22 150 kbps     00:00:54.220    101 775 bytes   466 212 bytes   00:00:48.840
2               0:01:12.614     0:16:05.339     20 010 kbps     39 193 kbps     00:13:16.545    34 309 kbps     00:03:59.489    31 118 kbps     00:10:14.405    104 324 bytes   468 751 bytes   00:01:14.616
3               0:17:17.953     0:14:00.172     20 418 kbps     36 035 kbps     00:21:28.328    33 083 kbps     00:21:27.035    29 778 kbps     00:23:43.130    106 450 bytes   483 118 bytes   00:30:55.019
4               0:31:18.126     0:14:31.620     18 390 kbps     33 566 kbps     00:33:51.696    31 990 kbps     00:33:51.571    28 691 kbps     00:35:41.931    95 877 bytes    475 302 bytes   00:41:42.416
5               0:45:49.747     0:24:51.114     20 042 kbps     37 989 kbps     01:09:39.508    36 111 kbps     01:09:35.504    32 640 kbps     01:07:22.997    104 490 bytes   483 148 bytes   01:07:39.889
6               1:10:40.861     0:05:11.853     23 248 kbps     36 291 kbps     01:11:57.604    34 990 kbps     01:11:57.604    34 766 kbps     01:11:57.604    121 205 bytes   502 213 bytes   01:12:08.449
7               1:15:52.714     0:00:01.001     75 kbps         0 kbps          00:00:00.000    0 kbps          00:00:00.000    0 kbps          00:00:00.000    409 bytes       2 423 bytes     01:15:53.215
STREAM DIAGNOSTICS:
File            PID             Type            Codec           Language                Seconds                 Bitrate                 Bytes           Packets
----            ---             ----            -----           --------                --------------          --------------          -------------   -----
00000.M2TS      4113 (0x1011)   0x1B            AVC                                     4552,631                20 000                  11 381 695 188  61 921 037
00000.M2TS      4352 (0x1100)   0x80            LPCM            eng (English)           4552,631                2 310                   1 314 824 092   7 284 344
00000.M2TS      4353 (0x1101)   0x86            DTS-HD MA       eng (English)           4552,631                3 913                   2 226 585 772   12 810 372
00007.M2TS      4113 (0x1011)   0x1B            AVC                                     0,876                   108                     11 837          72


QUICK SUMMARY:
Disc Title: RAFAEL FRUHBECK DE BURGOS_3
Disc Size: 45 672 810 012 bytes
Protection: AACS
BD-Java: No
Playlist: 00000.MPLS
Size: 15 776 342 016 bytes
Length: 1:15:53.715
Total Bitrate: 27,72 Mbps
Video: MPEG-4 AVC Video / 19995 kbps / 1080p / 23,976 fps / 16:9 / High Profile 4.1
Audio: English / LPCM Audio / 2.0 / 48 kHz / 2304 kbps / 24-bit
Audio: English / DTS-HD Master Audio / 5.1 / 48 kHz / 3912 kbps / 24-bit (DTS Core: 5.1 / 48 kHz / 1509 kbps / 24-bit)
********************
PLAYLIST: 00003.MPLS
********************

Код:

                                                                                Total   Video
Title                                                           Codec   Length  Movie Size      Disc Size       Bitrate Bitrate Main Audio Track                          Secondary Audio Track
-----                                                           ------  ------- --------------  --------------  ------- ------- ------------------                        ---------------------
00003.MPLS                                                      AVC     0:59:41 12 425 121 792  45 672 810 012  27,75   19,99   LPCM 2.0 2304Kbps (48kHz/24-bit)          DTS-HD Master 5.1 3947Kbps (48kHz/24-bit)

Код:
DISC INFO:
Disc Title:     RAFAEL FRUHBECK DE BURGOS_3
Disc Size:      45 672 810 012 bytes
Protection:     AACS
BD-Java:        No
BDInfo:         0.5.8
PLAYLIST REPORT:
Name:                   00003.MPLS
Length:                 0:59:41.744 (h:m:s.ms)
Size:                   12 425 121 792 bytes
Total Bitrate:          27,75 Mbps
VIDEO:
Codec                   Bitrate             Description
-----                   -------             -----------
MPEG-4 AVC Video        19994 kbps          1080p / 23,976 fps / 16:9 / High Profile 4.1
AUDIO:
Codec                           Language        Bitrate         Description
-----                           --------        -------         -----------
LPCM Audio                      English         2304 kbps       2.0 / 48 kHz / 2304 kbps / 24-bit
DTS-HD Master Audio             English         3947 kbps       5.1 / 48 kHz / 3947 kbps / 24-bit (DTS Core: 5.1 / 48 kHz / 1509 kbps / 24-bit)
FILES:
Name            Time In         Length          Size            Total Bitrate
----            -------         ------          ----            -------------
00003.M2TS      0:00:00.000     0:59:40.743     12 425 097 216  27 760
00007.M2TS      0:59:40.743     0:00:01.000     24 576          196
CHAPTERS:
Number          Time In         Length          Avg Video Rate  Max 1-Sec Rate  Max 1-Sec Time  Max 5-Sec Rate  Max 5-Sec Time  Max 10Sec Rate  Max 10Sec Time  Avg Frame Size  Max Frame Size  Max Frame Time
------          -------         ------          --------------  --------------  --------------  --------------  --------------  --------------  --------------  --------------  --------------  --------------
1               0:00:00.000     0:00:52.218     18 901 kbps     25 669 kbps     00:00:43.918    21 672 kbps     00:00:39.914    20 653 kbps     00:00:09.759    98 465 bytes    391 615 bytes   00:00:13.013
2               0:00:52.218     0:05:04.053     20 653 kbps     34 048 kbps     00:04:44.158    33 692 kbps     00:04:41.155    32 902 kbps     00:04:39.237    107 676 bytes   417 769 bytes   00:02:16.094
3               0:05:56.272     0:08:54.242     19 984 kbps     37 743 kbps     00:07:28.281    35 283 kbps     00:14:37.334    33 519 kbps     00:14:36.333    104 187 bytes   429 562 bytes   00:06:45.738
4               0:14:50.514     0:08:36.766     19 673 kbps     36 905 kbps     00:21:28.036    35 067 kbps     00:21:24.533    32 978 kbps     00:21:19.778    102 565 bytes   441 460 bytes   00:16:36.578
5               0:23:27.280     0:10:11.444     20 720 kbps     37 976 kbps     00:25:35.075    35 162 kbps     00:32:42.377    34 180 kbps     00:28:23.535    108 025 bytes   432 269 bytes   00:32:42.043
6               0:33:38.725     0:05:19.569     17 688 kbps     33 576 kbps     00:34:49.003    30 962 kbps     00:34:44.999    30 306 kbps     00:34:39.994    92 216 bytes    478 653 bytes   00:38:25.219
7               0:38:58.294     0:04:14.504     21 266 kbps     38 536 kbps     00:39:09.263    36 872 kbps     00:39:05.217    32 431 kbps     00:42:15.533    110 870 bytes   444 284 bytes   00:39:09.930
8               0:43:12.798     0:02:29.065     20 072 kbps     39 346 kbps     00:43:44.496    38 568 kbps     00:43:41.493    37 451 kbps     00:43:39.116    104 645 bytes   433 678 bytes   00:43:45.372
9               0:45:41.864     0:09:57.054     18 030 kbps     35 735 kbps     00:47:48.991    34 254 kbps     00:50:41.997    33 403 kbps     00:50:38.118    94 001 bytes    442 754 bytes   00:54:56.459
10              0:55:38.918     0:04:01.824     24 866 kbps     38 952 kbps     00:56:44.859    38 125 kbps     00:56:43.233    36 106 kbps     00:56:43.233    129 641 bytes   462 407 bytes   00:56:46.778
11              0:59:40.743     0:00:01.001     75 kbps         0 kbps          00:00:00.000    0 kbps          00:00:00.000    0 kbps          00:00:00.000    409 bytes       2 423 bytes     00:59:41.244
STREAM DIAGNOSTICS:
File            PID             Type            Codec           Language                Seconds                 Bitrate                 Bytes           Packets
----            ---             ----            -----           --------                --------------          --------------          -------------   -----
00003.M2TS      4113 (0x1011)   0x1B            AVC                                     3580,660                20 000                  8 951 646 487   48 700 453
00003.M2TS      4352 (0x1100)   0x80            LPCM            eng (English)           3580,660                2 310                   1 034 107 604   5 729 128
00003.M2TS      4353 (0x1101)   0x86            DTS-HD MA       eng (English)           3580,660                3 948                   1 767 198 912   10 164 476
00007.M2TS      4113 (0x1011)   0x1B            AVC                                     0,876                   108                     11 837          72


QUICK SUMMARY:
Disc Title: RAFAEL FRUHBECK DE BURGOS_3
Disc Size: 45 672 810 012 bytes
Protection: AACS
BD-Java: No
Playlist: 00003.MPLS
Size: 12 425 121 792 bytes
Length: 0:59:41.744
Total Bitrate: 27,75 Mbps
Video: MPEG-4 AVC Video / 19994 kbps / 1080p / 23,976 fps / 16:9 / High Profile 4.1
Audio: English / LPCM Audio / 2.0 / 48 kHz / 2304 kbps / 24-bit
Audio: English / DTS-HD Master Audio / 5.1 / 48 kHz / 3947 kbps / 24-bit (DTS Core: 5.1 / 48 kHz / 1509 kbps / 24-bit)
********************
PLAYLIST: 00002.MPLS
********************

Код:

                                                                                Total   Video
Title                                                           Codec   Length  Movie Size      Disc Size       Bitrate Bitrate Main Audio Track                          Secondary Audio Track
-----                                                           ------  ------- --------------  --------------  ------- ------- ------------------                        ---------------------
00002.MPLS                                                      AVC     0:56:37 11 651 137 536  45 672 810 012  27,44   19,99   LPCM 2.0 2304Kbps (48kHz/24-bit)          DTS-HD Master 5.1 3646Kbps (48kHz/24-bit)

Код:
DISC INFO:
Disc Title:     RAFAEL FRUHBECK DE BURGOS_3
Disc Size:      45 672 810 012 bytes
Protection:     AACS
BD-Java:        No
BDInfo:         0.5.8
PLAYLIST REPORT:
Name:                   00002.MPLS
Length:                 0:56:37.143 (h:m:s.ms)
Size:                   11 651 137 536 bytes
Total Bitrate:          27,44 Mbps
VIDEO:
Codec                   Bitrate             Description
-----                   -------             -----------
MPEG-4 AVC Video        19994 kbps          1080p / 23,976 fps / 16:9 / High Profile 4.1
AUDIO:
Codec                           Language        Bitrate         Description
-----                           --------        -------         -----------
LPCM Audio                      English         2304 kbps       2.0 / 48 kHz / 2304 kbps / 24-bit
DTS-HD Master Audio             English         3646 kbps       5.1 / 48 kHz / 3646 kbps / 24-bit (DTS Core: 5.1 / 48 kHz / 1509 kbps / 24-bit)
FILES:
Name            Time In         Length          Size            Total Bitrate
----            -------         ------          ----            -------------
00002.M2TS      0:00:00.000     0:56:36.142     11 651 112 960  27 446
00007.M2TS      0:56:36.142     0:00:01.000     24 576          196
CHAPTERS:
Number          Time In         Length          Avg Video Rate  Max 1-Sec Rate  Max 1-Sec Time  Max 5-Sec Rate  Max 5-Sec Time  Max 10Sec Rate  Max 10Sec Time  Avg Frame Size  Max Frame Size  Max Frame Time
------          -------         ------          --------------  --------------  --------------  --------------  --------------  --------------  --------------  --------------  --------------  --------------
1               0:00:00.000     0:00:56.931     21 537 kbps     30 566 kbps     00:00:16.266    29 790 kbps     00:00:15.974    27 542 kbps     00:00:15.598    112 201 bytes   442 683 bytes   00:00:18.727
2               0:00:56.931     0:14:34.707     19 655 kbps     35 552 kbps     00:03:29.959    33 726 kbps     00:03:26.039    33 323 kbps     00:03:22.327    102 473 bytes   475 559 bytes   00:05:55.897
3               0:15:31.639     0:07:04.715     18 659 kbps     35 592 kbps     00:20:23.513    34 225 kbps     00:20:23.597    28 500 kbps     00:20:22.095    97 282 bytes    439 108 bytes   00:20:16.298
4               0:22:36.355     0:15:29.720     19 583 kbps     37 139 kbps     00:26:05.522    36 463 kbps     00:26:05.397    35 476 kbps     00:25:59.891    102 094 bytes   500 355 bytes   00:26:00.642
5               0:38:06.075     0:04:52.667     19 966 kbps     34 144 kbps     00:40:38.561    33 153 kbps     00:40:35.349    29 194 kbps     00:40:30.553    104 096 bytes   463 020 bytes   00:38:10.079
6               0:42:58.742     0:09:54.010     21 319 kbps     35 495 kbps     00:50:54.801    34 094 kbps     00:50:50.756    30 785 kbps     00:50:47.836    111 145 bytes   499 452 bytes   00:50:28.775
7               0:52:52.752     0:03:43.389     21 776 kbps     32 683 kbps     00:56:09.449    30 777 kbps     00:56:05.445    29 834 kbps     00:56:00.440    113 531 bytes   464 555 bytes   00:53:17.819
8               0:56:36.142     0:00:01.001     75 kbps         0 kbps          00:00:00.000    0 kbps          00:00:00.000    0 kbps          00:00:00.000    409 bytes       2 423 bytes     00:56:36.643
STREAM DIAGNOSTICS:
File            PID             Type            Codec           Language                Seconds                 Bitrate                 Bytes           Packets
----            ---             ----            -----           --------                --------------          --------------          -------------   -----
00002.M2TS      4113 (0x1011)   0x1B            AVC                                     3396,059                20 000                  8 490 171 172   46 189 981
00002.M2TS      4352 (0x1100)   0x80            LPCM            eng (English)           3396,059                2 310                   980 792 236     5 433 752
00002.M2TS      4353 (0x1101)   0x86            DTS-HD MA       eng (English)           3396,059                3 647                   1 548 194 600   8 945 331
00007.M2TS      4113 (0x1011)   0x1B            AVC                                     0,876                   108                     11 837          72


QUICK SUMMARY:
Disc Title: RAFAEL FRUHBECK DE BURGOS_3
Disc Size: 45 672 810 012 bytes
Protection: AACS
BD-Java: No
Playlist: 00002.MPLS
Size: 11 651 137 536 bytes
Length: 0:56:37.143
Total Bitrate: 27,44 Mbps
Video: MPEG-4 AVC Video / 19994 kbps / 1080p / 23,976 fps / 16:9 / High Profile 4.1
Audio: English / LPCM Audio / 2.0 / 48 kHz / 2304 kbps / 24-bit
Audio: English / DTS-HD Master Audio / 5.1 / 48 kHz / 3646 kbps / 24-bit (DTS Core: 5.1 / 48 kHz / 1509 kbps / 24-bit)
********************
PLAYLIST: 00001.MPLS
********************

Код:

                                                                                Total   Video
Title                                                           Codec   Length  Movie Size      Disc Size       Bitrate Bitrate Main Audio Track                          Secondary Audio Track
-----                                                           ------  ------- --------------  --------------  ------- ------- ------------------                        ---------------------
00001.MPLS                                                      AVC     0:28:11 5 817 913 344   45 672 810 012  27,52   19,99   LPCM 2.0 2304Kbps (48kHz/24-bit)          DTS-HD Master 5.0 3728Kbps (48kHz/24-bit)

Код:
DISC INFO:
Disc Title:     RAFAEL FRUHBECK DE BURGOS_3
Disc Size:      45 672 810 012 bytes
Protection:     AACS
BD-Java:        No
BDInfo:         0.5.8
PLAYLIST REPORT:
Name:                   00001.MPLS
Length:                 0:28:11.523 (h:m:s.ms)
Size:                   5 817 913 344 bytes
Total Bitrate:          27,52 Mbps
VIDEO:
Codec                   Bitrate             Description
-----                   -------             -----------
MPEG-4 AVC Video        19988 kbps          1080p / 23,976 fps / 16:9 / High Profile 4.1
AUDIO:
Codec                           Language        Bitrate         Description
-----                           --------        -------         -----------
LPCM Audio                      English         2304 kbps       2.0 / 48 kHz / 2304 kbps / 24-bit
DTS-HD Master Audio             English         3728 kbps       5.0 / 48 kHz / 3728 kbps / 24-bit (DTS Core: 5.0 / 48 kHz / 1509 kbps / 24-bit)
FILES:
Name            Time In         Length          Size            Total Bitrate
----            -------         ------          ----            -------------
00001.M2TS      0:00:00.000     0:28:10.522     5 817 888 768   27 532
00007.M2TS      0:28:10.522     0:00:01.000     24 576          196
CHAPTERS:
Number          Time In         Length          Avg Video Rate  Max 1-Sec Rate  Max 1-Sec Time  Max 5-Sec Rate  Max 5-Sec Time  Max 10Sec Rate  Max 10Sec Time  Avg Frame Size  Max Frame Size  Max Frame Time
------          -------         ------          --------------  --------------  --------------  --------------  --------------  --------------  --------------  --------------  --------------  --------------
1               0:00:00.000     0:01:01.227     20 679 kbps     27 921 kbps     00:00:58.475    26 550 kbps     00:00:56.056    24 568 kbps     00:00:51.217    107 737 bytes   441 806 bytes   00:00:23.523
2               0:01:01.227     0:06:49.700     19 758 kbps     31 569 kbps     00:03:10.899    28 656 kbps     00:03:07.896    27 685 kbps     00:03:07.896    103 007 bytes   447 843 bytes   00:03:29.459
3               0:07:50.928     0:11:43.994     19 641 kbps     35 335 kbps     00:10:31.714    31 014 kbps     00:10:29.378    29 002 kbps     00:10:24.415    102 399 bytes   461 664 bytes   00:13:33.938
4               0:19:34.923     0:05:32.707     20 390 kbps     33 406 kbps     00:23:40.043    29 325 kbps     00:22:22.674    28 119 kbps     00:22:47.616    106 303 bytes   441 441 bytes   00:20:21.178
5               0:25:07.631     0:03:02.891     20 985 kbps     29 722 kbps     00:25:36.201    28 266 kbps     00:27:33.735    27 567 kbps     00:27:28.730    109 404 bytes   452 216 bytes   00:25:56.054
6               0:28:10.522     0:00:01.000     75 kbps         0 kbps          00:00:00.000    0 kbps          00:00:00.000    0 kbps          00:00:00.000    409 bytes       2 423 bytes     00:28:11.022
STREAM DIAGNOSTICS:
File            PID             Type            Codec           Language                Seconds                 Bitrate                 Bytes           Packets
----            ---             ----            -----           --------                --------------          --------------          -------------   -----
00001.M2TS      4113 (0x1011)   0x1B            AVC                                     1690,397                20 001                  4 226 206 124   22 992 175
00001.M2TS      4352 (0x1100)   0x80            LPCM            eng (English)           1690,397                2 310                   488 164 416     2 704 512
00001.M2TS      4353 (0x1101)   0x86            DTS-HD MA       eng (English)           1690,397                3 731                   788 329 964     4 548 148
00007.M2TS      4113 (0x1011)   0x1B            AVC                                     0,876                   108                     11 837          72


QUICK SUMMARY:
Disc Title: RAFAEL FRUHBECK DE BURGOS_3
Disc Size: 45 672 810 012 bytes
Protection: AACS
BD-Java: No
Playlist: 00001.MPLS
Size: 5 817 913 344 bytes
Length: 0:28:11.523
Total Bitrate: 27,52 Mbps
Video: MPEG-4 AVC Video / 19988 kbps / 1080p / 23,976 fps / 16:9 / High Profile 4.1
Audio: English / LPCM Audio / 2.0 / 48 kHz / 2304 kbps / 24-bit
Audio: English / DTS-HD Master Audio / 5.0 / 48 kHz / 3728 kbps / 24-bit (DTS Core: 5.0 / 48 kHz / 1509 kbps / 24-bit)

Скриншоты



























                                                                                       
                       
                       
                       
                       
                       
                                 磁力下载(论坛代下载服务)
                                                               
                                       
游客,本主题需向作者支付 10金币 才能浏览,金币充值, 免回复、免金币,直接查看内容请开通VIP支付

                                               
  • 118.78 GB
  • 温馨提示

    记得善用社区搜索功能,那里可能会有你想要的资源;论坛站内搜索

    如果你有什么需要的资源可以去资源求档发帖,求助社区的网友,我们会在第一时间给你回复哦;资源求档

    对于本社区网盘链接失效密码错误各种报错请在反馈板块反馈报错发帖,您的支持,是我们发展的最大动力;投诉建议

    回复

    使用道具 举报

    您需要登录后才可以回帖 登录 | 立即注册 微信登录

    本版积分规则

    关注0

    粉丝13

    帖子85997

    发布主题
    阅读排行更多+
    关闭

    站长推荐上一条 /1 下一条

    收藏帖子 返回列表 这是一个自定义按钮
    音乐分享,音乐下载。
    微信公众号
    微信号:maomiyinyue
    意见反馈:[email protected]

    加入我们的官方QQ群和微信群

    Powered by Discuz! X3.4 Archiver|手机版|小黑屋|猫咪音乐网 ( 苏ICP备20015413号 )|( 苏公网安备 32030502000272号) 繁體

    JS of wanmeiff.com and vcpic.com Please keep this copyright information, respect of, thank you!JS of wanmeiff.com and vcpic.com Please keep this copyright information, respect of, thank you!

    GMT+8, 2021-1-24 10:15