自购原抓音乐圈:只有自购、合购、原抓级高解析(hires、sacd、dsd)正版音乐资源分享!【点我打开
极速无线网卡:千兆无线网卡、服务器网卡、USB接口台式机笔记本网卡 千兆网线 厂家批发价格最低!【点我打开
广告

[古典音乐] (分数)在交响乐团(丹麦国家交响乐团)[2019年,得分,新经典,Blu-ray 1080i]

[复制链接]
韬199435 发表于 2020-12-20 20:46:28 | 显示全部楼层 |阅读模式 打印 上一主题 下一主题
Gaming in Symphony - Danish National Symphony Orchestra
Год выпуска: 2019
Лейбл: Euroarts
Жанр: Score, Neo-classic
Продолжительность: 01:08:11
Дирижер: Eímear Noone
Исполнители: Danish National Concert Choir, Tuva Semmingsen - soloist, Christine Nonbo Andersen - soloist, Danish National Symphony Orchestra
Треклист:
  • Brian Tyler: Call of Duty - Modern Warfare III
  • Greg Edmonson: Uncharted II
  • Jesper Kyd: Ezio's Family (Assassin's Creed)
  • Eimear Noone: Malach, the Angke Messenger (from World of Warcraft)
  • Pascal Michael Stiefel: A hat in Time
  • Gary Schyman: Main theme/Bathysphere Ride (From Bioshock)
  • Kow Otani: Shadow of the Colossus
  • Yumiko Kanki, Robert Prince, Michiru Yamane, Masato Namamur, Isao Abe & Koji Kondo: Gaming Legacy Medley
  • Peter Due: Forgotton Anne – suite
  • Nobuo Uematsu: One Winged Angel (From Final Fantasy VII)
  • Peter McConnell: Grim Fandango
  • Jason Hayes: World of Warcraft Suite
  • M. O'Donnell & M Salvatory: Halo Suite
    [/ol]
    Описание: "Gaming in Symphony” is an epic concert performed by the Danish National Symphony Orchestra with the Danish National Concert Choir and various soloists conducted by Eímear Noone. The visual design and the light effects during the performance are spectacular, drawing you into the fascinating world of video games.
    Качество видео: Blu-ray 1080i
    Формат/Контейнер: BDMV
    Видео кодек: H.264
    Аудио кодек: DTS, PCM
    Видео: MPEG-4 AVC Video / 30118 kbps / 1080i / 29,970 fps / 16:9 / High Profile 4.1
    Аудио#1: LPCM Audio / 2.0 / 48 kHz / 2304 kbps / 24-bit
    Аудио#2: DTS-HD Master Audio / 5.1 / 48 kHz / 4164 kbps / 24-bit (DTS Core: 5.1 / 48 kHz / 1509 kbps / 24-bit)
    BDInfo

    Disc Title:     Gaming in Symphony.2019 Bluray
    Disc Size:      20 007 537 667 bytes
    Protection:     AACS
    BD-Java:        No
    BDInfo:         0.7.1
    Notes:
    BDINFO HOME:
      Cinema Squid
        http://www.cinemasquid.com/blu-ray/tools/bdinfo
    INCLUDES FORUMS REPORT FOR:
      AVS Forum Blu-ray Audio and Video Specifications Thread
        http://www.avsforum.com/avs-vb/showthread.php?t=1155731
    ********************
    PLAYLIST: 00000.MPLS
    ********************

    Код:

                                                                                    Total   Video
    Title                                                           Codec   Length  Movie Size      Disc Size       Bitrate Bitrate Main Audio Track                          Secondary Audio Track
    -----                                                           ------  ------- --------------  --------------  ------- ------- ------------------                        ---------------------
    00000.MPLS                                                      AVC     1:08:11 19 709 884 416  20 007 537 667  38,54   30,12   LPCM 2.0 2304Kbps (48kHz/24-bit)          DTS-HD Master 5.1 4164Kbps (48kHz/24-bit)

    Код:
    DISC INFO:
    Disc Title:     Gaming in Symphony.2019 Bluray
    Disc Size:      20 007 537 667 bytes
    Protection:     AACS
    BD-Java:        No
    BDInfo:         0.7.1
    PLAYLIST REPORT:
    Name:                   00000.MPLS
    Length:                 1:08:11.020 (h:m:s.ms)
    Size:                   19 709 884 416 bytes
    Total Bitrate:          38,54 Mbps
    VIDEO:
    Codec                   Bitrate             Description
    -----                   -------             -----------
    MPEG-4 AVC Video        30118 kbps          1080i / 29,970 fps / 16:9 / High Profile 4.1
    AUDIO:
    Codec                           Language        Bitrate         Description
    -----                           --------        -------         -----------
    LPCM Audio                      Undetermined    2304 kbps       2.0 / 48 kHz / 2304 kbps / 24-bit
    DTS-HD Master Audio             Undetermined    4164 kbps       5.1 / 48 kHz / 4164 kbps / 24-bit (DTS Core: 5.1 / 48 kHz / 1509 kbps / 24-bit)
    FILES:
    Name            Time In         Length          Size            Total Bitrate
    ----            -------         ------          ----            -------------
    00000.M2TS      0:00:00.000     1:08:02.645     19 707 777 024  38 618
    00008.M2TS      1:08:02.645     0:00:08.041     2 095 104       2 084
    00007.M2TS      1:08:10.686     0:00:00.333     12 288          295
    CHAPTERS:
    Number          Time In         Length          Avg Video Rate  Max 1-Sec Rate  Max 1-Sec Time  Max 5-Sec Rate  Max 5-Sec Time  Max 10Sec Rate  Max 10Sec Time  Avg Frame Size  Max Frame Size  Max Frame Time
    ------          -------         ------          --------------  --------------  --------------  --------------  --------------  --------------  --------------  --------------  --------------  --------------
    1               0:00:00.000     0:00:14.681     34 929 kbps     44 783 kbps     00:00:00.100    39 822 kbps     00:00:00.100    35 950 kbps     00:00:00.100    145 354 bytes   637 994 bytes   00:00:04.804
    2               0:00:14.681     0:03:04.183     30 188 kbps     41 594 kbps     00:03:17.730    34 578 kbps     00:00:55.622    33 690 kbps     00:00:54.421    125 910 bytes   595 415 bytes   00:03:16.162
    3               0:03:18.865     0:04:14.921     29 668 kbps     43 561 kbps     00:07:31.417    33 394 kbps     00:06:43.169    32 462 kbps     00:06:32.291    123 739 bytes   655 962 bytes   00:07:31.617
    4               0:07:33.786     0:04:56.629     30 288 kbps     36 769 kbps     00:08:25.204    33 803 kbps     00:09:31.971    32 559 kbps     00:09:28.568    126 325 bytes   338 196 bytes   00:11:26.886
    5               0:12:30.416     0:06:51.778     30 121 kbps     36 307 kbps     00:12:44.430    33 817 kbps     00:16:36.895    32 709 kbps     00:17:32.317    125 628 bytes   402 428 bytes   00:12:44.530
    6               0:19:22.194     0:03:44.090     29 803 kbps     39 005 kbps     00:19:25.364    34 859 kbps     00:19:24.496    33 125 kbps     00:19:24.163    124 301 bytes   561 684 bytes   00:19:26.031
    7               0:23:06.284     0:04:58.398     30 440 kbps     41 287 kbps     00:23:06.451    34 085 kbps     00:23:39.551    33 605 kbps     00:27:00.685    126 960 bytes   456 185 bytes   00:25:16.481
    8               0:28:04.683     0:03:48.895     30 436 kbps     37 120 kbps     00:31:44.969    35 049 kbps     00:31:44.469    33 507 kbps     00:28:08.319    126 944 bytes   392 144 bytes   00:31:32.924
    9               0:31:53.578     0:06:59.252     30 231 kbps     38 273 kbps     00:38:51.796    34 447 kbps     00:34:14.852    32 978 kbps     00:34:31.035    126 088 bytes   384 735 bytes   00:37:39.991
    10              0:38:52.830     0:06:34.894     30 100 kbps     37 358 kbps     00:44:44.381    34 287 kbps     00:44:43.814    32 571 kbps     00:42:37.588    125 543 bytes   396 067 bytes   00:40:22.753
    11              0:45:27.725     0:05:13.313     30 300 kbps     43 328 kbps     00:46:30.420    35 208 kbps     00:46:30.420    33 493 kbps     00:47:54.004    126 378 bytes   653 242 bytes   00:46:30.487
    12              0:50:41.038     0:04:55.962     30 350 kbps     36 195 kbps     00:52:36.119    33 946 kbps     00:54:06.409    32 536 kbps     00:54:04.140    126 584 bytes   451 444 bytes   00:55:36.733
    13              0:55:37.000     0:06:05.364     30 200 kbps     40 143 kbps     00:55:40.970    33 941 kbps     01:00:43.373    32 918 kbps     00:59:31.301    125 961 bytes   617 901 bytes   00:55:41.004
    14              1:01:42.365     0:05:50.383     29 911 kbps     39 691 kbps     01:06:34.423    34 321 kbps     01:06:09.165    32 689 kbps     01:01:47.136    124 753 bytes   612 997 bytes   01:06:31.420
    15              1:07:32.748     0:00:29.896     29 931 kbps     36 346 kbps     01:07:52.968    32 647 kbps     01:07:53.135    31 845 kbps     01:07:51.901    124 837 bytes   322 657 bytes   01:07:53.002
    16              1:08:02.645     0:00:08.375     1 820 kbps      3 711 kbps      01:08:03.746    2 363 kbps      01:08:02.645    0 kbps          00:00:00.000    7 619 bytes     26 315 bytes    01:08:05.848
    STREAM DIAGNOSTICS:
    File            PID             Type            Codec           Language                Seconds                 Bitrate                 Bytes           Packets
    ----            ---             ----            -----           --------                --------------          --------------          -------------   -----
    00000.M2TS      4113 (0x1011)   0x1B            AVC                                     4082,579                30 176                  15 399 689 257  83 765 383
    00000.M2TS      4352 (0x1100)   0x80            LPCM            und (Undetermined)      4082,579                2 310                   1 179 069 320   6 532 240
    00000.M2TS      4353 (0x1101)   0x86            DTS-HD MA       und (Undetermined)      4082,579                4 173                   2 129 530 652   12 210 256
    00008.M2TS      4113 (0x1011)   0x1B            AVC                                     7,975                   1 906                   1 900 213       10 633
    00007.M2TS      4113 (0x1011)   0x1B            AVC                                     0,200                   244                     6 107           41


    QUICK SUMMARY:
    Disc Title: Gaming in Symphony.2019 Bluray
    Disc Size: 20 007 537 667 bytes
    Protection: AACS
    BD-Java: No
    Playlist: 00000.MPLS
    Size: 19 709 884 416 bytes
    Length: 1:08:11.020
    Total Bitrate: 38,54 Mbps
    Video: MPEG-4 AVC Video / 30118 kbps / 1080i / 29,970 fps / 16:9 / High Profile 4.1
    Audio: Undetermined / LPCM Audio / 2.0 / 48 kHz / 2304 kbps / 24-bit
    Audio: Undetermined / DTS-HD Master Audio / 5.1 / 48 kHz / 4164 kbps / 24-bit (DTS Core: 5.1 / 48 kHz / 1509 kbps / 24-bit)
    ********************
    PLAYLIST: 00007.MPLS
    ********************

    Код:

                                                                                    Total   Video
    Title                                                           Codec   Length  Movie Size      Disc Size       Bitrate Bitrate Main Audio Track                          Secondary Audio Track
    -----                                                           ------  ------- --------------  --------------  ------- ------- ------------------                        ---------------------
    00007.MPLS                                                      AVC     0:00:22 6 402 048       20 007 537 667  2,28    2,10

    Код:
    DISC INFO:
    Disc Title:     Gaming in Symphony.2019 Bluray
    Disc Size:      20 007 537 667 bytes
    Protection:     AACS
    BD-Java:        No
    BDInfo:         0.7.1
    PLAYLIST REPORT:
    Name:                   00007.MPLS
    Length:                 0:00:22.422 (h:m:s.ms)
    Size:                   6 402 048 bytes
    Total Bitrate:          2,28 Mbps
    VIDEO:
    Codec                   Bitrate             Description
    -----                   -------             -----------
    MPEG-4 AVC Video        2098 kbps           1080i / 29,970 fps / 16:9 / High Profile 4.1
    FILES:
    Name            Time In         Length          Size            Total Bitrate
    ----            -------         ------          ----            -------------
    00011.M2TS      0:00:00.000     0:00:14.047     4 294 656       2 446
    00008.M2TS      0:00:14.047     0:00:08.041     2 095 104       2 084
    00007.M2TS      0:00:22.088     0:00:00.333     12 288          295
    CHAPTERS:
    Number          Time In         Length          Avg Video Rate  Max 1-Sec Rate  Max 1-Sec Time  Max 5-Sec Rate  Max 5-Sec Time  Max 10Sec Rate  Max 10Sec Time  Avg Frame Size  Max Frame Size  Max Frame Time
    ------          -------         ------          --------------  --------------  --------------  --------------  --------------  --------------  --------------  --------------  --------------  --------------
    1               0:00:00.000     0:00:14.047     2 263 kbps      6 028 kbps      00:00:00.033    2 609 kbps      00:00:00.033    2 161 kbps      00:00:00.000    9 418 bytes     118 833 bytes   00:00:08.408
    2               0:00:14.047     0:00:08.375     1 820 kbps      3 711 kbps      00:00:15.148    2 363 kbps      00:00:14.047    0 kbps          00:00:00.000    7 619 bytes     26 315 bytes    00:00:17.250
    STREAM DIAGNOSTICS:
    File            PID             Type            Codec           Language                Seconds                 Bitrate                 Bytes           Packets
    ----            ---             ----            -----           --------                --------------          --------------          -------------   -----
    00011.M2TS      4113 (0x1011)   0x1B            AVC                                     13,914                  2 284                   3 972 736       21 896
    00008.M2TS      4113 (0x1011)   0x1B            AVC                                     7,975                   1 906                   1 900 213       10 633
    00007.M2TS      4113 (0x1011)   0x1B            AVC                                     0,200                   244                     6 107           41


    QUICK SUMMARY:
    Disc Title: Gaming in Symphony.2019 Bluray
    Disc Size: 20 007 537 667 bytes
    Protection: AACS
    BD-Java: No
    Playlist: 00007.MPLS
    Size: 6 402 048 bytes
    Length: 0:00:22.422
    Total Bitrate: 2,28 Mbps
    Video: MPEG-4 AVC Video / 2098 kbps / 1080i / 29,970 fps / 16:9 / High Profile 4.1

    Скриншоты










                                                                                           
                           
                           
                           
                           
                           
                                     磁力下载(论坛代下载服务)
                                                                   
                                           
    游客,本主题需向作者支付 10金币 才能浏览,金币充值, 免回复、免金币,直接查看内容请开通VIP支付

                                                   
  • 18.63 GB
  • 温馨提示

    记得善用社区搜索功能,那里可能会有你想要的资源;论坛站内搜索

    如果你有什么需要的资源可以去资源求档发帖,求助社区的网友,我们会在第一时间给你回复哦;资源求档

    对于本社区网盘链接失效密码错误各种报错请在反馈板块反馈报错发帖,您的支持,是我们发展的最大动力;投诉建议

    回复

    使用道具 举报

    您需要登录后才可以回帖 登录 | 立即注册 微信登录

    本版积分规则

    关注0

    粉丝0

    帖子29332

    发布主题
    阅读排行更多+
    关闭

    站长推荐上一条 /1 下一条

    收藏帖子 返回列表 这是一个自定义按钮
    音乐分享,音乐下载。
    微信公众号
    微信号:maomiyinyue
    意见反馈:admin@maomicd.com

    加入我们的官方QQ群和微信群

    Powered by Discuz! X3.4 Archiver|手机版|小黑屋|猫咪音乐网 ( 苏ICP备20015413号 )|( 苏公网安备 32030502000272号) 繁體

    JS of wanmeiff.com and vcpic.com Please keep this copyright information, respect of, thank you!JS of wanmeiff.com and vcpic.com Please keep this copyright information, respect of, thank you!

    GMT+8, 2021-1-19 19:24