自购原抓音乐圈:只有自购、合购、原抓级高解析(hires、sacd、dsd)正版音乐资源分享!【点我打开
极速无线网卡:千兆无线网卡、服务器网卡、USB接口台式机笔记本网卡 千兆网线 厂家批发价格最低!【点我打开
广告

[古典音乐] Rossini,Sibelius,Bach,Schumann - 来自雅典的2015年Europakonzert(Sir Simon Rattle,Leonidas Kavakos,Berliner Philharmoniker)[2015,古典,Blu-ray]

[复制链接]
kayda 发表于 2020-12-20 20:46:28 | 显示全部楼层 |阅读模式 打印 上一主题 下一主题
Europakonzert 2015 from Athens
Год выпуска: 2015
Лейбл: EuroArts Music International
Жанр: Classical
Продолжительность: 01:31:27
Субтитры: нет
Дирижер: Sir Simon Rattle
Исполнители: Leonidas Kavakos violin
Berliner Philharmoniker
Треклист:
Recorded Live from the Megaron in Athens, 1 May 2015.
1. Opening
Gioacchino Antonio Rossini (1792-1868 )
2. "Semiramide" Overture
Jean Sibelius (1865-1957)
Violin Concerto in D minor, Op. 47
3. I Allegro moderato
4. II Adagio di molto
5. III Allegro ma non tanto
Johann Sebastian Bach (1685-1750)
Sonata No.3 in C major, BWV 1005
6. Largo
Robert Schumann (1810-1856)
Symphony No. 3 in E-flat major, Op. 97 "Rhenish"
7. I Lebhaft
8. II Scherzo: Sehr mäßig
9. III Nicht schnell
10. IV Feierlich
11. V Lebhaft
12. Applause & EndCresits
Дополнительно на диске:
Четыре трейлера Euroarts [00:13:47]
Описание: The founding of the Berliner Philharmoniker on the first of May in 1882, is annually celebrated in an European city of cultural significance. In 2015 the EUROPAKONZERT takes place for the second time after 2004 in Athens, with Leonidas Kavakos joining the Berliner Philharmoniker for the Sibelius Violin Concerto and Bach’s “Largo” from Sonato No. 3. The concert was a smash hit, stunning the audience on site in Athens.The soloist on this recording, Leonidas Kavakos won the ECHO Klassik Award in 2013 as ‘Instrumentalist of the Year’.
Качество видео: Blu-ray
Формат/Контейнер: BDMV
Видео кодек: H.264
Аудио кодек: PCM, DTS
Видео: MPEG-4 AVC Video / 23965 kbps / 1080i / 29,970 fps / 16:9 / High Profile 4.1
Аудио#1: LPCM Audio / 2.0 / 48 kHz / 2304 kbps / 24-bit
Аудио#2: DTS-HD Master Audio / 5.0 / 48 kHz / 3892 kbps / 24-bit (DTS Core: 5.0 / 48 kHz / 1509 kbps / 24-bit)
Аудио#3: LPCM Audio / 2.0 / 48 kHz / 1536 kbps / 16-bit (в бонусах)
BDInfo

Disc Title:     Europakonzert 2015 from Athens.Leonidas Kavakos, Berliner Philharmoniker, Simon Rattle.2015.BD1080i
Disc Size:      24 425 987 386 bytes
Protection:     AACS
BD-Java:        No
BDInfo:         0.5.8
Notes:
BDINFO HOME:
  Cinema Squid
    http://www.cinemasquid.com/blu-ray/tools/bdinfo
INCLUDES FORUMS REPORT FOR:
  AVS Forum Blu-ray Audio and Video Specifications Thread
    http://www.avsforum.com/avs-vb/showthread.php?t=1155731
********************
PLAYLIST: 00000.MPLS
********************

Код:

                                                                                Total   Video
Title                                                           Codec   Length  Movie Size      Disc Size       Bitrate Bitrate Main Audio Track                          Secondary Audio Track
-----                                                           ------  ------- --------------  --------------  ------- ------- ------------------                        ---------------------
00000.MPLS                                                      AVC     1:31:27 21 839 339 520  24 425 987 386  31,84   23,97   LPCM 2.0 2304Kbps (48kHz/24-bit)          DTS-HD Master 5.0 3892Kbps (48kHz/24-bit)

Код:
DISC INFO:
Disc Title:     Europakonzert 2015 from Athens.Leonidas Kavakos, Berliner Philharmoniker, Simon Rattle.2015.BD1080i
Disc Size:      24 425 987 386 bytes
Protection:     AACS
BD-Java:        No
BDInfo:         0.5.8
PLAYLIST REPORT:
Name:                   00000.MPLS
Length:                 1:31:27.315 (h:m:s.ms)
Size:                   21 839 339 520 bytes
Total Bitrate:          31,84 Mbps
VIDEO:
Codec                   Bitrate             Description
-----                   -------             -----------
MPEG-4 AVC Video        23965 kbps          1080i / 29,970 fps / 16:9 / High Profile 4.1
AUDIO:
Codec                           Language        Bitrate         Description
-----                           --------        -------         -----------
LPCM Audio                      Undetermined    2304 kbps       2.0 / 48 kHz / 2304 kbps / 24-bit
DTS-HD Master Audio             Undetermined    3892 kbps       5.0 / 48 kHz / 3892 kbps / 24-bit (DTS Core: 5.0 / 48 kHz / 1509 kbps / 24-bit)
FILES:
Name            Time In         Length          Size            Total Bitrate
----            -------         ------          ----            -------------
00000.M2TS      0:00:00.000     1:31:18.940     21 837 232 128  31 885
00008.M2TS      1:31:18.940     0:00:08.041     2 095 104       2 084
00007.M2TS      1:31:26.981     0:00:00.333     12 288          295
CHAPTERS:
Number          Time In         Length          Avg Video Rate  Max 1-Sec Rate  Max 1-Sec Time  Max 5-Sec Rate  Max 5-Sec Time  Max 10Sec Rate  Max 10Sec Time  Avg Frame Size  Max Frame Size  Max Frame Time
------          -------         ------          --------------  --------------  --------------  --------------  --------------  --------------  --------------  --------------  --------------  --------------
1               0:00:00.000     0:00:51.818     22 506 kbps     36 325 kbps     00:00:33.900    33 422 kbps     00:00:30.063    30 303 kbps     00:00:25.859    93 810 bytes    404 325 bytes   00:00:39.406
2               0:00:51.818     0:13:19.131     24 090 kbps     45 983 kbps     00:01:28.822    40 325 kbps     00:01:26.553    36 853 kbps     00:01:26.553    100 475 bytes   701 985 bytes   00:11:13.172
3               0:14:10.950     0:16:53.012     23 821 kbps     35 253 kbps     00:26:26.818    31 453 kbps     00:22:47.933    31 136 kbps     00:22:45.330    99 355 bytes    472 340 bytes   00:20:29.661
4               0:31:03.962     0:11:01.293     22 815 kbps     44 524 kbps     00:34:27.799    35 944 kbps     00:34:26.197    32 695 kbps     00:34:24.395    95 156 bytes    490 112 bytes   00:41:30.187
5               0:42:05.256     0:09:43.649     24 192 kbps     37 683 kbps     00:43:45.255    35 632 kbps     00:43:42.186    32 621 kbps     00:43:42.186    100 903 bytes   468 736 bytes   00:47:57.007
6               0:51:48.905     0:05:20.119     23 508 kbps     39 716 kbps     00:57:00.016    36 806 kbps     00:56:56.546    31 318 kbps     00:56:55.011    98 048 bytes    466 851 bytes   00:56:08.932
7               0:57:09.025     0:09:00.606     24 668 kbps     37 587 kbps     01:02:48.297    33 497 kbps     01:02:51.501    32 709 kbps     01:02:48.097    102 884 bytes   600 857 bytes   01:04:49.585
8               1:06:09.632     0:06:13.139     24 497 kbps     50 339 kbps     01:09:57.059    40 582 kbps     01:09:57.059    36 275 kbps     01:09:57.059    102 171 bytes   685 194 bytes   01:10:00.429
9               1:12:22.771     0:04:50.089     23 858 kbps     34 358 kbps     01:16:30.752    32 281 kbps     01:16:29.952    31 321 kbps     01:16:28.183    99 508 bytes    493 368 bytes   01:13:59.668
10              1:17:12.861     0:05:24.090     23 175 kbps     34 984 kbps     01:20:25.020    32 421 kbps     01:20:21.817    31 378 kbps     01:20:20.816    96 660 bytes    473 785 bytes   01:19:50.752
11              1:22:36.952     0:05:29.328     23 982 kbps     39 982 kbps     01:23:27.836    33 479 kbps     01:23:27.836    31 104 kbps     01:23:23.331    100 025 bytes   589 784 bytes   01:27:52.066
12              1:28:06.281     0:03:12.659     28 037 kbps     44 208 kbps     01:31:02.957    39 959 kbps     01:31:00.555    37 639 kbps     01:31:00.388    116 936 bytes   698 238 bytes   01:31:05.560
13              1:31:18.940     0:00:08.375     1 820 kbps      3 711 kbps      01:31:20.041    2 363 kbps      01:31:18.940    0 kbps          00:00:00.000    7 619 bytes     26 315 bytes    01:31:22.143
STREAM DIAGNOSTICS:
File            PID             Type            Codec           Language                Seconds                 Bitrate                 Bytes           Packets
----            ---             ----            -----           --------                --------------          --------------          -------------   -----
00000.M2TS      4113 (0x1011)   0x1B            AVC                                     5478,873                23 999                  16 436 075 708  89 422 533
00000.M2TS      4352 (0x1100)   0x80            LPCM            und (Undetermined)      5478,873                2 310                   1 582 309 208   8 766 256
00000.M2TS      4353 (0x1101)   0x86            DTS-HD MA       und (Undetermined)      5478,873                3 898                   2 669 874 556   15 363 222
00008.M2TS      4113 (0x1011)   0x1B            AVC                                     7,975                   1 906                   1 900 213       10 633
00007.M2TS      4113 (0x1011)   0x1B            AVC                                     0,200                   244                     6 107           41


QUICK SUMMARY:
Disc Title: Europakonzert 2015 from Athens.Leonidas Kavakos, Berliner Philharmoniker, Simon Rattle.2015.BD1080i
Disc Size: 24 425 987 386 bytes
Protection: AACS
BD-Java: No
Playlist: 00000.MPLS
Size: 21 839 339 520 bytes
Length: 1:31:27.315
Total Bitrate: 31,84 Mbps
Video: MPEG-4 AVC Video / 23965 kbps / 1080i / 29,970 fps / 16:9 / High Profile 4.1
Audio: Undetermined / LPCM Audio / 2.0 / 48 kHz / 2304 kbps / 24-bit
Audio: Undetermined / DTS-HD Master Audio / 5.0 / 48 kHz / 3892 kbps / 24-bit (DTS Core: 5.0 / 48 kHz / 1509 kbps / 24-bit)
********************
PLAYLIST: 00003.MPLS
********************

Код:

                                                                                Total   Video
Title                                                           Codec   Length  Movie Size      Disc Size       Bitrate Bitrate Main Audio Track                          Secondary Audio Track
-----                                                           ------  ------- --------------  --------------  ------- ------- ------------------                        ---------------------
00003.MPLS                                                      AVC     0:03:42 459 964 416     24 425 987 386  16,50   13,97   LPCM 2.0 1536Kbps (48kHz/16-bit)

Код:
DISC INFO:
Disc Title:     Europakonzert 2015 from Athens.Leonidas Kavakos, Berliner Philharmoniker, Simon Rattle.2015.BD1080i
Disc Size:      24 425 987 386 bytes
Protection:     AACS
BD-Java:        No
BDInfo:         0.5.8
PLAYLIST REPORT:
Name:                   00003.MPLS
Length:                 0:03:42.956 (h:m:s.ms)
Size:                   459 964 416 bytes
Total Bitrate:          16,50 Mbps
VIDEO:
Codec                   Bitrate             Description
-----                   -------             -----------
MPEG-4 AVC Video        13975 kbps          1080i / 29,970 fps / 16:9 / High Profile 4.1
AUDIO:
Codec                           Language        Bitrate         Description
-----                           --------        -------         -----------
LPCM Audio                      Undetermined    1536 kbps       2.0 / 48 kHz / 1536 kbps / 16-bit
FILES:
Name            Time In         Length          Size            Total Bitrate
----            -------         ------          ----            -------------
00002.M2TS      0:00:00.000     0:03:42.622     459 952 128     16 529
00007.M2TS      0:03:42.622     0:00:00.333     12 288          295
CHAPTERS:
Number          Time In         Length          Avg Video Rate  Max 1-Sec Rate  Max 1-Sec Time  Max 5-Sec Rate  Max 5-Sec Time  Max 10Sec Rate  Max 10Sec Time  Avg Frame Size  Max Frame Size  Max Frame Time
------          -------         ------          --------------  --------------  --------------  --------------  --------------  --------------  --------------  --------------  --------------  --------------
1               0:00:00.000     0:03:42.956     13 975 kbps     26 883 kbps     00:01:52.245    24 396 kbps     00:01:48.374    23 956 kbps     00:01:45.638    58 286 bytes    607 267 bytes   00:01:58.051
STREAM DIAGNOSTICS:
File            PID             Type            Codec           Language                Seconds                 Bitrate                 Bytes           Packets
----            ---             ----            -----           --------                --------------          --------------          -------------   -----
00002.M2TS      4113 (0x1011)   0x1B            AVC                                     222,556                 14 000                  389 462 822     2 120 507
00002.M2TS      4352 (0x1100)   0x80            LPCM            und (Undetermined)      222,556                 1 545                   42 994 400      267 600
00007.M2TS      4113 (0x1011)   0x1B            AVC                                     0,200                   244                     6 107           41


QUICK SUMMARY:
Disc Title: Europakonzert 2015 from Athens.Leonidas Kavakos, Berliner Philharmoniker, Simon Rattle.2015.BD1080i
Disc Size: 24 425 987 386 bytes
Protection: AACS
BD-Java: No
Playlist: 00003.MPLS
Size: 459 964 416 bytes
Length: 0:03:42.956
Total Bitrate: 16,50 Mbps
Video: MPEG-4 AVC Video / 13975 kbps / 1080i / 29,970 fps / 16:9 / High Profile 4.1
Audio: Undetermined / LPCM Audio / 2.0 / 48 kHz / 1536 kbps / 16-bit
********************
PLAYLIST: 00005.MPLS
********************

Код:

                                                                                Total   Video
Title                                                           Codec   Length  Movie Size      Disc Size       Bitrate Bitrate Main Audio Track                          Secondary Audio Track
-----                                                           ------  ------- --------------  --------------  ------- ------- ------------------                        ---------------------
00005.MPLS                                                      AVC     0:03:08 402 929 664     24 425 987 386  17,10   13,96   LPCM 2.0 2304Kbps (48kHz/24-bit)

Код:
DISC INFO:
Disc Title:     Europakonzert 2015 from Athens.Leonidas Kavakos, Berliner Philharmoniker, Simon Rattle.2015.BD1080i
Disc Size:      24 425 987 386 bytes
Protection:     AACS
BD-Java:        No
BDInfo:         0.5.8
PLAYLIST REPORT:
Name:                   00005.MPLS
Length:                 0:03:08.555 (h:m:s.ms)
Size:                   402 929 664 bytes
Total Bitrate:          17,10 Mbps
VIDEO:
Codec                   Bitrate             Description
-----                   -------             -----------
MPEG-4 AVC Video        13957 kbps          1080i / 29,970 fps / 16:9 / High Profile 4.1
AUDIO:
Codec                           Language        Bitrate         Description
-----                           --------        -------         -----------
LPCM Audio                      Undetermined    2304 kbps       2.0 / 48 kHz / 2304 kbps / 24-bit
FILES:
Name            Time In         Length          Size            Total Bitrate
----            -------         ------          ----            -------------
00010.M2TS      0:00:00.000     0:03:08.221     402 917 376     17 125
00007.M2TS      0:03:08.221     0:00:00.333     12 288          295
CHAPTERS:
Number          Time In         Length          Avg Video Rate  Max 1-Sec Rate  Max 1-Sec Time  Max 5-Sec Rate  Max 5-Sec Time  Max 10Sec Rate  Max 10Sec Time  Avg Frame Size  Max Frame Size  Max Frame Time
------          -------         ------          --------------  --------------  --------------  --------------  --------------  --------------  --------------  --------------  --------------  --------------
1               0:00:00.000     0:03:08.555     13 957 kbps     23 556 kbps     00:02:56.910    20 971 kbps     00:02:52.906    19 488 kbps     00:02:50.937    58 210 bytes    412 607 bytes   00:02:28.915
STREAM DIAGNOSTICS:
File            PID             Type            Codec           Language                Seconds                 Bitrate                 Bytes           Packets
----            ---             ----            -----           --------                --------------          --------------          -------------   -----
00010.M2TS      4113 (0x1011)   0x1B            AVC                                     188,121                 13 988                  328 940 179     1 791 040
00010.M2TS      4352 (0x1100)   0x80            LPCM            und (Undetermined)      188,121                 2 312                   54 359 380      301 160
00007.M2TS      4113 (0x1011)   0x1B            AVC                                     0,200                   244                     6 107           41


QUICK SUMMARY:
Disc Title: Europakonzert 2015 from Athens.Leonidas Kavakos, Berliner Philharmoniker, Simon Rattle.2015.BD1080i
Disc Size: 24 425 987 386 bytes
Protection: AACS
BD-Java: No
Playlist: 00005.MPLS
Size: 402 929 664 bytes
Length: 0:03:08.555
Total Bitrate: 17,10 Mbps
Video: MPEG-4 AVC Video / 13957 kbps / 1080i / 29,970 fps / 16:9 / High Profile 4.1
Audio: Undetermined / LPCM Audio / 2.0 / 48 kHz / 2304 kbps / 24-bit
********************
PLAYLIST: 00001.MPLS
********************

Код:

                                                                                Total   Video
Title                                                           Codec   Length  Movie Size      Disc Size       Bitrate Bitrate Main Audio Track                          Secondary Audio Track
-----                                                           ------  ------- --------------  --------------  ------- ------- ------------------                        ---------------------
00001.MPLS                                                      AVC     0:03:02 390 537 216     24 425 987 386  17,11   13,97   LPCM 2.0 2304Kbps (48kHz/24-bit)

Код:
DISC INFO:
Disc Title:     Europakonzert 2015 from Athens.Leonidas Kavakos, Berliner Philharmoniker, Simon Rattle.2015.BD1080i
Disc Size:      24 425 987 386 bytes
Protection:     AACS
BD-Java:        No
BDInfo:         0.5.8
PLAYLIST REPORT:
Name:                   00001.MPLS
Length:                 0:03:02.615 (h:m:s.ms)
Size:                   390 537 216 bytes
Total Bitrate:          17,11 Mbps
VIDEO:
Codec                   Bitrate             Description
-----                   -------             -----------
MPEG-4 AVC Video        13970 kbps          1080i / 29,970 fps / 16:9 / High Profile 4.1
AUDIO:
Codec                           Language        Bitrate         Description
-----                           --------        -------         -----------
LPCM Audio                      Undetermined    2304 kbps       2.0 / 48 kHz / 2304 kbps / 24-bit
FILES:
Name            Time In         Length          Size            Total Bitrate
----            -------         ------          ----            -------------
00001.M2TS      0:00:00.000     0:03:02.282     390 524 928     17 139
00007.M2TS      0:03:02.282     0:00:00.333     12 288          295
CHAPTERS:
Number          Time In         Length          Avg Video Rate  Max 1-Sec Rate  Max 1-Sec Time  Max 5-Sec Rate  Max 5-Sec Time  Max 10Sec Rate  Max 10Sec Time  Avg Frame Size  Max Frame Size  Max Frame Time
------          -------         ------          --------------  --------------  --------------  --------------  --------------  --------------  --------------  --------------  --------------  --------------
1               0:00:00.000     0:03:02.615     13 970 kbps     24 360 kbps     00:02:17.370    21 314 kbps     00:01:45.438    20 617 kbps     00:01:45.205    58 265 bytes    348 143 bytes   00:01:24.150
STREAM DIAGNOSTICS:
File            PID             Type            Codec           Language                Seconds                 Bitrate                 Bytes           Packets
----            ---             ----            -----           --------                --------------          --------------          -------------   -----
00001.M2TS      4113 (0x1011)   0x1B            AVC                                     182,215                 14 000                  318 877 393     1 736 246
00001.M2TS      4352 (0x1100)   0x80            LPCM            und (Undetermined)      182,215                 2 311                   52 633 800      291 600
00007.M2TS      4113 (0x1011)   0x1B            AVC                                     0,200                   244                     6 107           41


QUICK SUMMARY:
Disc Title: Europakonzert 2015 from Athens.Leonidas Kavakos, Berliner Philharmoniker, Simon Rattle.2015.BD1080i
Disc Size: 24 425 987 386 bytes
Protection: AACS
BD-Java: No
Playlist: 00001.MPLS
Size: 390 537 216 bytes
Length: 0:03:02.615
Total Bitrate: 17,11 Mbps
Video: MPEG-4 AVC Video / 13970 kbps / 1080i / 29,970 fps / 16:9 / High Profile 4.1
Audio: Undetermined / LPCM Audio / 2.0 / 48 kHz / 2304 kbps / 24-bit
********************
PLAYLIST: 00007.MPLS
********************

Код:

                                                                                Total   Video
Title                                                           Codec   Length  Movie Size      Disc Size       Bitrate Bitrate Main Audio Track                          Secondary Audio Track
-----                                                           ------  ------- --------------  --------------  ------- ------- ------------------                        ---------------------
00007.MPLS                                                      AVC     0:00:22 6 402 048       24 425 987 386  2,28    2,10

Код:
DISC INFO:
Disc Title:     Europakonzert 2015 from Athens.Leonidas Kavakos, Berliner Philharmoniker, Simon Rattle.2015.BD1080i
Disc Size:      24 425 987 386 bytes
Protection:     AACS
BD-Java:        No
BDInfo:         0.5.8
PLAYLIST REPORT:
Name:                   00007.MPLS
Length:                 0:00:22.422 (h:m:s.ms)
Size:                   6 402 048 bytes
Total Bitrate:          2,28 Mbps
VIDEO:
Codec                   Bitrate             Description
-----                   -------             -----------
MPEG-4 AVC Video        2098 kbps           1080i / 29,970 fps / 16:9 / High Profile 4.1
FILES:
Name            Time In         Length          Size            Total Bitrate
----            -------         ------          ----            -------------
00011.M2TS      0:00:00.000     0:00:14.047     4 294 656       2 446
00008.M2TS      0:00:14.047     0:00:08.041     2 095 104       2 084
00007.M2TS      0:00:22.088     0:00:00.333     12 288          295
CHAPTERS:
Number          Time In         Length          Avg Video Rate  Max 1-Sec Rate  Max 1-Sec Time  Max 5-Sec Rate  Max 5-Sec Time  Max 10Sec Rate  Max 10Sec Time  Avg Frame Size  Max Frame Size  Max Frame Time
------          -------         ------          --------------  --------------  --------------  --------------  --------------  --------------  --------------  --------------  --------------  --------------
1               0:00:00.000     0:00:14.047     2 263 kbps      6 028 kbps      00:00:00.033    2 609 kbps      00:00:00.033    2 161 kbps      00:00:00.000    9 418 bytes     118 833 bytes   00:00:08.408
2               0:00:14.047     0:00:08.375     1 820 kbps      3 711 kbps      00:00:15.148    2 363 kbps      00:00:14.047    0 kbps          00:00:00.000    7 619 bytes     26 315 bytes    00:00:17.250
STREAM DIAGNOSTICS:
File            PID             Type            Codec           Language                Seconds                 Bitrate                 Bytes           Packets
----            ---             ----            -----           --------                --------------          --------------          -------------   -----
00011.M2TS      4113 (0x1011)   0x1B            AVC                                     13,914                  2 284                   3 972 736       21 896
00008.M2TS      4113 (0x1011)   0x1B            AVC                                     7,975                   1 906                   1 900 213       10 633
00007.M2TS      4113 (0x1011)   0x1B            AVC                                     0,200                   244                     6 107           41


QUICK SUMMARY:
Disc Title: Europakonzert 2015 from Athens.Leonidas Kavakos, Berliner Philharmoniker, Simon Rattle.2015.BD1080i
Disc Size: 24 425 987 386 bytes
Protection: AACS
BD-Java: No
Playlist: 00007.MPLS
Size: 6 402 048 bytes
Length: 0:00:22.422
Total Bitrate: 2,28 Mbps
Video: MPEG-4 AVC Video / 2098 kbps / 1080i / 29,970 fps / 16:9 / High Profile 4.1
********************
PLAYLIST: 00004.MPLS
********************

Код:

                                                                                Total   Video
Title                                                           Codec   Length  Movie Size      Disc Size       Bitrate Bitrate Main Audio Track                          Secondary Audio Track
-----                                                           ------  ------- --------------  --------------  ------- ------- ------------------                        ---------------------
00004.MPLS                                                      MPEG-2  0:03:55 904 697 856     24 425 987 386  30,69   27,58   LPCM 2.0 1536Kbps (48kHz/16-bit)

Код:
DISC INFO:
Disc Title:     Europakonzert 2015 from Athens.Leonidas Kavakos, Berliner Philharmoniker, Simon Rattle.2015.BD1080i
Disc Size:      24 425 987 386 bytes
Protection:     AACS
BD-Java:        No
BDInfo:         0.5.8
PLAYLIST REPORT:
Name:                   00004.MPLS
Length:                 0:03:55.802 (h:m:s.ms)
Size:                   904 697 856 bytes
Total Bitrate:          30,69 Mbps
VIDEO:
Codec                   Bitrate             Description
-----                   -------             -----------
MPEG-2 Video            27575 kbps          1080i / 29,970 fps / 16:9
AUDIO:
Codec                           Language        Bitrate         Description
-----                           --------        -------         -----------
LPCM Audio                      Undetermined    1536 kbps       2.0 / 48 kHz / 1536 kbps / 16-bit
FILES:
Name            Time In         Length          Size            Total Bitrate
----            -------         ------          ----            -------------
00009.M2TS      0:00:00.000     0:03:55.468     904 648 704     30 735
00013.M2TS      0:03:55.468     0:00:00.333     49 152          1 178
CHAPTERS:
Number          Time In         Length          Avg Video Rate  Max 1-Sec Rate  Max 1-Sec Time  Max 5-Sec Rate  Max 5-Sec Time  Max 10Sec Rate  Max 10Sec Time  Avg Frame Size  Max Frame Size  Max Frame Time
------          -------         ------          --------------  --------------  --------------  --------------  --------------  --------------  --------------  --------------  --------------  --------------
1               0:00:00.000     0:03:55.802     27 575 kbps     33 535 kbps     00:03:30.643    30 325 kbps     00:00:48.314    30 076 kbps     00:00:10.810    115 012 bytes   560 839 bytes   00:00:07.807
STREAM DIAGNOSTICS:
File            PID             Type            Codec           Language                Seconds                 Bitrate                 Bytes           Packets
----            ---             ----            -----           --------                --------------          --------------          -------------   -----
00009.M2TS      4113 (0x1011)   0x02            MPEG-2                                  235,402                 27 621                  812 744 048     4 421 214
00009.M2TS      4352 (0x1100)   0x80            LPCM            und (Undetermined)      235,402                 1 543                   45 398 616      282 564
00013.M2TS      4113 (0x1011)   0x02            MPEG-2                                  0,200                   1 750                   43 788          241


QUICK SUMMARY:
Disc Title: Europakonzert 2015 from Athens.Leonidas Kavakos, Berliner Philharmoniker, Simon Rattle.2015.BD1080i
Disc Size: 24 425 987 386 bytes
Protection: AACS
BD-Java: No
Playlist: 00004.MPLS
Size: 904 697 856 bytes
Length: 0:03:55.802
Total Bitrate: 30,69 Mbps
Video: MPEG-2 Video / 27575 kbps / 1080i / 29,970 fps / 16:9
Audio: Undetermined / LPCM Audio / 2.0 / 48 kHz / 1536 kbps / 16-bit

Скриншоты











                                                                                       
                       
                       
                       
                       
                       
                                 磁力下载(论坛代下载服务)
                                                               
                                       
游客,本主题需向作者支付 10金币 才能浏览,金币充值, 免回复、免金币,直接查看内容请开通VIP支付

                                               
  • 22.75 GB
  • 温馨提示

    记得善用社区搜索功能,那里可能会有你想要的资源;论坛站内搜索

    如果你有什么需要的资源可以去资源求档发帖,求助社区的网友,我们会在第一时间给你回复哦;资源求档

    对于本社区网盘链接失效密码错误各种报错请在反馈板块反馈报错发帖,您的支持,是我们发展的最大动力;投诉建议

    回复

    使用道具 举报

    您需要登录后才可以回帖 登录 | 立即注册 微信登录

    本版积分规则

    关注0

    粉丝0

    帖子29600

    发布主题
    阅读排行更多+
    关闭

    站长推荐上一条 /1 下一条

    收藏帖子 返回列表 这是一个自定义按钮
    音乐分享,音乐下载。
    微信公众号
    微信号:maomiyinyue
    意见反馈:admin@maomicd.com

    加入我们的官方QQ群和微信群

    Powered by Discuz! X3.4 Archiver|手机版|小黑屋|猫咪音乐网 ( 苏ICP备20015413号 )|( 苏公网安备 32030502000272号) 繁體

    JS of wanmeiff.com and vcpic.com Please keep this copyright information, respect of, thank you!JS of wanmeiff.com and vcpic.com Please keep this copyright information, respect of, thank you!

    GMT+8, 2021-1-20 02:57