自购原抓音乐圈:只有自购、合购、原抓级高解析(hires、sacd、dsd)正版音乐资源分享!【点我打开
极速无线网卡:千兆无线网卡、服务器网卡、USB接口台式机笔记本网卡 千兆网线 厂家批发价格最低!【点我打开
广告

[古典音乐] 贝多芬 - Piano Sonatas Vol 1 - Rudolf Buchbinder [2016,古典,蓝光]

[复制链接]
lz189 发表于 2020-12-20 20:46:27 | 显示全部楼层 |阅读模式 打印 上一主题 下一主题
Beethoven - The Piano Sonatas Vol 1 - Rudolf Buchbinder
Год выпуска: 2016
Лейбл: C Major
Страна-производитель: Austria
Жанр: Classical
Продолжительность: 02:59:34
Язык: German
Режиссер/Хореограф: Frederic Delesques
Исполнители: Rudolf Buchbinder (piano)
Треклист:
Ludwig van Beethoven:
sonata Nos. 1
sonata Nos. 10
sonata Nos. 13
sonata Nos. 17
sonata Nos. 18
sonata Nos. 5
sonata Nos. 12
sonata Nos. 22
sonata Nos. 4
sonata Nos. 14
Описание: The Austrian pianist Rudolf Buchbinder was invited by the Salzburg Festival to perform a pinnacle of piano literature in its entirety, a first for the festival: Beethovens magnum opus of 32 piano sonatas, developed throughout his life gain depths for their reflection of his evolution as a man and musician through the years.
With the sonatas Pathétique, Moonshine, Waldstein, Appassionata, Hammerklavier and the final sonata Op. 111, the cycle is an astonishing bounty of the best-known piano pieces of all time.
This Blu-Ray collection captures the first two concerts of the memorable performance, and Buchbinders scholarship and attention which his playing is known for comes dazzlingly to the fore.
Доп. информация: https://www.amazon.com/Complete-Beethoven-Sonatas-Vol-Blu-ray/dp/B0164SVANW
Качество видео: Blu-ray
Формат/Контейнер: BDMV
Видео кодек: H.264
Аудио кодек: PCM + DTS
Видео поток: MPEG-4 AVC Video / 25862 kbps / 1080i / 29.970 fps / 16:9 / High Profile 4.1
Аудио поток #1: Undetermined / LPCM Audio / 2.0 / 48 kHz / 2304 kbps / 24-bit
Аудио поток #2: DTS-HD Master Audio / 4.0 / 48 kHz / 2635 kbps / 24-bit (DTS Core: 4.0 / 48 kHz / 1509 kbps / 24-bit)
BackCover


BDInfo
Disc Title: Beethoven - The Piano Sonatas Vol 1 - Rudolf Buchbinder - 2016
Disc Size: 46,496,324,618 bytes
Protection: AACS
BD-Java: No
BDInfo: 0.7.1
Notes:
BDINFO HOME:
Cinema Squid
http://www.cinemasquid.com/blu-ray/tools/bdinfo
INCLUDES FORUMS REPORT FOR:
AVS Forum Blu-ray Audio and Video Specifications Thread
http://www.avsforum.com/avs-vb/showthread.php?t=1155731
********************
PLAYLIST: 00014.MPLS
********************

Код:

                                                                                Total   Video
Title                                                           Codec   Length  Movie Size      Disc Size       Bitrate Bitrate Main Audio Track                          Secondary Audio Track
-----                                                           ------  ------- --------------  --------------  ------- ------- ------------------                        ---------------------
00014.MPLS                                                      AVC     2:59:34 43,767,067,200  46,496,324,618  32.50   25.86   LPCM 2.0 2304Kbps (48kHz/24-bit)          DTS-HD Master 4.0 2635Kbps (48kHz/24-bit)

Код:
DISC INFO:
Disc Title:     Beethoven - The Piano Sonatas Vol 1 - Rudolf Buchbinder - 2016
Disc Size:      46,496,324,618 bytes
Protection:     AACS
BD-Java:        No
BDInfo:         0.7.1
PLAYLIST REPORT:
Name:                   00014.MPLS
Length:                 2:59:34.263 (h:m:s.ms)
Size:                   43,767,067,200 bytes
Total Bitrate:          32.50 Mbps
VIDEO:
Codec                   Bitrate             Description
-----                   -------             -----------
MPEG-4 AVC Video        25862 kbps          1080i / 29.970 fps / 16:9 / High Profile 4.1
AUDIO:
Codec                           Language        Bitrate         Description
-----                           --------        -------         -----------
LPCM Audio                      Undetermined    2304 kbps       2.0 / 48 kHz / 2304 kbps / 24-bit
DTS-HD Master Audio             Undetermined    2635 kbps       4.0 / 48 kHz / 2635 kbps / 24-bit (DTS Core: 4.0 / 48 kHz / 1509 kbps / 24-bit)
FILES:
Name            Time In         Length          Size            Total Bitrate
----            -------         ------          ----            -------------
00002.M2TS      0:00:00.000     0:17:00.319     4,110,634,560   32,230
00007.M2TS      0:17:00.319     0:15:49.014     3,864,746,112   32,579
00010.M2TS      0:32:49.334     0:14:15.754     3,522,517,440   32,930
00015.M2TS      0:47:05.088     0:20:43.942     5,063,955,456   32,567
00016.M2TS      1:07:49.031     0:22:40.926     5,340,315,264   31,391
00005.M2TS      1:30:29.957     0:15:56.889     3,923,492,928   32,801
00009.M2TS      1:46:26.847     0:19:06.311     4,693,521,024   32,755
00017.M2TS      2:05:33.158     0:10:11.711     2,564,265,408   33,534
00003.M2TS      2:15:44.870     0:27:02.487     6,587,004,096   32,478
00013.M2TS      2:42:47.357     0:15:59.925     3,951,309,312   32,930
00008.M2TS      2:58:47.283     0:00:36.603     143,536,128     31,371
00011.M2TS      2:59:23.886     0:00:10.043     1,757,184       1,400
00000.M2TS      2:59:33.929     0:00:00.333     12,288          295
CHAPTERS:
Number          Time In         Length          Avg Video Rate  Max 1-Sec Rate  Max 1-Sec Time  Max 5-Sec Rate  Max 5-Sec Time  Max 10Sec Rate  Max 10Sec Time  Avg Frame Size  Max Frame Size  Max Frame Time
------          -------         ------          --------------  --------------  --------------  --------------  --------------  --------------  --------------  --------------  --------------  --------------
1               0:00:00.000     0:00:18.485     6,162 kbps      11,068 kbps     00:00:13.480    9,225 kbps      00:00:10.243    7,977 kbps      00:00:06.005    25,653 bytes    124,902 bytes   00:00:14.414
2               0:00:18.485     0:04:15.788     26,584 kbps     38,974 kbps     00:01:57.083    34,657 kbps     00:01:56.349    32,143 kbps     00:04:18.725    110,876 bytes   705,188 bytes   00:00:32.866
3               0:04:34.274     0:04:34.274     23,565 kbps     36,488 kbps     00:07:18.171    32,797 kbps     00:05:10.310    31,581 kbps     00:08:04.684    98,286 bytes    764,088 bytes   00:07:19.172
4               0:09:08.548     0:02:39.159     25,569 kbps     39,661 kbps     00:11:35.661    33,215 kbps     00:11:31.657    30,917 kbps     00:11:26.652    106,644 bytes   625,205 bytes   00:11:36.662
5               0:11:47.707     0:05:12.612     27,167 kbps     40,583 kbps     00:13:15.427    38,003 kbps     00:13:13.025    35,164 kbps     00:13:08.788    113,310 bytes   740,443 bytes   00:15:29.061
6               0:17:00.319     0:07:57.977     27,039 kbps     42,732 kbps     00:20:27.826    36,694 kbps     00:20:27.359    34,801 kbps     00:20:26.291    104,434 bytes   653,499 bytes   00:22:08.060
7               0:24:58.296     0:04:19.259     25,080 kbps     44,819 kbps     00:26:33.258    39,570 kbps     00:26:31.656    34,961 kbps     00:26:31.590    104,605 bytes   772,396 bytes   00:26:35.860
8               0:29:17.555     0:03:31.778     26,149 kbps     42,095 kbps     00:32:14.165    37,338 kbps     00:29:34.639    35,874 kbps     00:29:31.269    109,063 bytes   773,249 bytes   00:32:14.365
9               0:32:49.334     0:04:59.832     26,925 kbps     38,993 kbps     00:35:36.501    34,176 kbps     00:34:43.247    33,006 kbps     00:36:53.411    99,992 bytes    530,969 bytes   00:37:09.226
10              0:37:49.166     0:01:49.108     26,496 kbps     37,508 kbps     00:38:26.871    35,300 kbps     00:38:09.654    34,538 kbps     00:38:07.852    110,510 bytes   568,915 bytes   00:39:35.406
11              0:39:38.275     0:02:09.129     25,546 kbps     37,406 kbps     00:41:08.232    33,919 kbps     00:41:04.228    32,283 kbps     00:40:59.256    106,549 bytes   536,905 bytes   00:40:50.214
12              0:41:47.404     0:05:17.684     27,025 kbps     40,113 kbps     00:46:58.549    34,424 kbps     00:43:59.570    34,142 kbps     00:43:59.370    112,716 bytes   723,721 bytes   00:46:09.633
13              0:47:05.088     0:07:52.004     25,644 kbps     41,481 kbps     00:49:35.205    38,820 kbps     00:49:32.803    35,317 kbps     00:49:31.835    98,099 bytes    758,352 bytes   00:50:39.970
14              0:54:57.093     0:06:40.633     26,264 kbps     41,990 kbps     00:59:55.258    37,758 kbps     00:57:55.371    33,484 kbps     01:00:57.954    109,542 bytes   783,376 bytes   00:59:56.259
15              1:01:37.727     0:06:11.304     26,748 kbps     43,103 kbps     01:07:09.759    37,343 kbps     01:07:06.555    34,768 kbps     01:07:02.385    111,562 bytes   786,254 bytes   01:05:55.418
16              1:07:49.031     0:07:50.369     26,284 kbps     48,477 kbps     01:07:55.604    40,378 kbps     01:07:55.337    35,454 kbps     01:07:55.137    100,050 bytes   748,864 bytes   01:08:18.661
17              1:15:39.401     0:04:59.599     27,131 kbps     39,656 kbps     01:17:09.191    36,315 kbps     01:17:06.521    34,376 kbps     01:17:01.516    113,161 bytes   780,725 bytes   01:19:06.441
18              1:20:39.000     0:04:53.993     24,508 kbps     36,975 kbps     01:20:45.207    34,877 kbps     01:20:48.410    34,486 kbps     01:20:45.006    102,220 bytes   757,645 bytes   01:21:00.555
19              1:25:32.994     0:04:56.963     26,371 kbps     40,383 kbps     01:29:43.711    37,061 kbps     01:26:15.069    34,682 kbps     01:26:12.000    109,987 bytes   548,072 bytes   01:29:58.559
20              1:30:29.957     0:05:39.872     27,906 kbps     44,919 kbps     01:31:45.900    37,039 kbps     01:33:48.856    35,602 kbps     01:30:36.697    102,887 bytes   780,775 bytes   01:36:06.660
21              1:36:09.830     0:05:41.341     27,099 kbps     40,212 kbps     01:37:06.687    37,625 kbps     01:37:05.886    34,162 kbps     01:37:01.448    113,027 bytes   726,443 bytes   01:40:32.059
22              1:41:51.171     0:04:35.675     23,911 kbps     37,850 kbps     01:42:19.500    31,616 kbps     01:45:01.428    30,786 kbps     01:45:01.228    99,730 bytes    770,461 bytes   01:42:15.062
23              1:46:26.847     0:07:15.535     26,426 kbps     37,361 kbps     01:48:51.925    34,351 kbps     01:48:47.921    33,059 kbps     01:51:54.374    100,558 bytes   667,714 bytes   01:51:16.436
24              1:53:42.382     0:02:30.149     26,292 kbps     36,492 kbps     01:55:29.088    34,183 kbps     01:55:29.088    31,817 kbps     01:55:28.655    109,660 bytes   670,960 bytes   01:54:44.110
25              1:56:12.532     0:06:02.662     26,416 kbps     37,238 kbps     01:58:35.775    32,157 kbps     01:59:22.021    31,738 kbps     01:59:24.223    110,176 bytes   673,278 bytes   01:57:16.195
26              2:02:15.194     0:03:17.964     25,788 kbps     37,025 kbps     02:02:51.997    34,254 kbps     02:04:47.780    31,763 kbps     02:04:42.808    107,558 bytes   736,039 bytes   02:03:49.155
27              2:05:33.158     0:04:37.377     27,219 kbps     36,707 kbps     02:06:00.219    33,132 kbps     02:09:30.429    32,540 kbps     02:07:25.704    97,654 bytes    777,661 bytes   02:06:49.435
28              2:10:10.536     0:05:34.334     27,356 kbps     39,172 kbps     02:13:23.362    36,874 kbps     02:13:22.561    35,119 kbps     02:11:28.680    114,098 bytes   772,176 bytes   02:14:01.266
29              2:15:44.870     0:08:05.351     25,803 kbps     36,162 kbps     02:21:54.405    32,231 kbps     02:20:47.439    31,098 kbps     02:21:45.396    99,180 bytes    764,083 bytes   02:17:39.651
30              2:23:50.221     0:07:04.424     26,383 kbps     36,209 kbps     02:29:47.812    32,999 kbps     02:24:46.878    32,315 kbps     02:24:46.678    110,038 bytes   660,864 bytes   02:28:17.688
31              2:30:54.645     0:04:38.278     26,100 kbps     38,467 kbps     02:35:15.839    34,937 kbps     02:35:15.139    32,865 kbps     02:31:20.004    108,859 bytes   699,753 bytes   02:31:30.014
32              2:35:32.923     0:07:14.433     25,454 kbps     36,592 kbps     02:38:14.484    32,170 kbps     02:39:32.329    30,713 kbps     02:37:05.582    106,164 bytes   767,830 bytes   02:40:59.049
33              2:42:47.357     0:06:05.898     26,558 kbps     44,751 kbps     02:42:53.163    39,929 kbps     02:42:53.163    34,852 kbps     02:42:53.163    98,626 bytes    753,183 bytes   02:45:13.169
34              2:48:53.256     0:02:09.129     25,729 kbps     37,142 kbps     02:49:14.043    30,698 kbps     02:49:10.039    28,662 kbps     02:49:31.127    107,313 bytes   769,824 bytes   02:49:01.998
35              2:51:02.385     0:07:44.897     26,616 kbps     43,086 kbps     02:58:07.243    39,389 kbps     02:58:03.239    35,685 kbps     02:58:01.604    111,011 bytes   767,052 bytes   02:55:31.687
36              2:58:47.283     0:00:36.603     11,962 kbps     26,784 kbps     02:59:11.941    24,559 kbps     02:59:09.705    19,747 kbps     02:59:06.368    49,892 bytes    293,146 bytes   02:59:13.709
37              2:59:23.886     0:00:10.377     109,595 kbps    43,637 kbps     02:59:14.310    32,727 kbps     02:59:10.306    31,364 kbps     02:59:05.301    85,949 bytes    508,531 bytes   02:59:15.311
STREAM DIAGNOSTICS:
File            PID             Type            Codec           Language                Seconds                 Bitrate                 Bytes           Packets
----            ---             ----            -----           --------                --------------          --------------          -------------   -----
00002.M2TS      4113 (0x1011)   0x1B            AVC                                     1058.424                24,900                  3,294,338,200   17,922,551
00002.M2TS      4352 (0x1100)   0x80            LPCM            und (Undetermined)      1058.424                2,311                   305,693,356     1,693,592
00002.M2TS      4353 (0x1101)   0x86            DTS-HD MA       und (Undetermined)      1058.424                2,763                   365,588,484     2,151,393
00007.M2TS      4113 (0x1011)   0x1B            AVC                                     1004.370                25,001                  3,138,731,445   17,075,851
00007.M2TS      4352 (0x1100)   0x80            LPCM            und (Undetermined)      1004.370                2,311                   290,082,272     1,607,104
00007.M2TS      4353 (0x1101)   0x86            DTS-HD MA       und (Undetermined)      1004.370                2,634                   330,711,868     1,953,549
00010.M2TS      4113 (0x1011)   0x1B            AVC                                     916.783                 25,001                  2,865,015,523   15,586,776
00010.M2TS      4352 (0x1100)   0x80            LPCM            und (Undetermined)      916.783                 2,311                   264,786,280     1,466,960
00010.M2TS      4353 (0x1101)   0x86            DTS-HD MA       und (Undetermined)      916.783                 2,661                   304,889,448     1,799,211
00015.M2TS      4113 (0x1011)   0x1B            AVC                                     1307.373                25,001                  4,085,648,921   22,227,499
00015.M2TS      4352 (0x1100)   0x80            LPCM            und (Undetermined)      1307.373                2,311                   377,588,672     2,091,904
00015.M2TS      4353 (0x1101)   0x86            DTS-HD MA       und (Undetermined)      1307.373                2,667                   435,868,396     2,571,901
00016.M2TS      4113 (0x1011)   0x1B            AVC                                     1423.589                25,000                  4,448,793,810   24,203,256
00016.M2TS      4352 (0x1100)   0x80            LPCM            und (Undetermined)      1423.589                2,311                   411,153,008     2,277,856
00016.M2TS      4353 (0x1101)   0x86            DTS-HD MA       und (Undetermined)      1423.589                1,656                   294,701,128     1,819,690
00005.M2TS      4113 (0x1011)   0x1B            AVC                                     1017.149                25,001                  3,178,668,966   17,293,193
00005.M2TS      4352 (0x1100)   0x80            LPCM            und (Undetermined)      1017.149                2,311                   293,773,136     1,627,552
00005.M2TS      4353 (0x1101)   0x86            DTS-HD MA       und (Undetermined)      1017.149                2,698                   343,014,916     2,021,468
00009.M2TS      4113 (0x1011)   0x1B            AVC                                     1210.242                25,001                  3,782,091,565   20,576,018
00009.M2TS      4352 (0x1100)   0x80            LPCM            und (Undetermined)      1210.242                2,311                   349,537,528     1,936,496
00009.M2TS      4353 (0x1101)   0x86            DTS-HD MA       und (Undetermined)      1210.242                2,748                   415,650,984     2,446,645
00017.M2TS      4113 (0x1011)   0x1B            AVC                                     671.871                 25,001                  2,099,687,413   11,423,081
00017.M2TS      4352 (0x1100)   0x80            LPCM            und (Undetermined)      671.871                 2,311                   194,056,272     1,075,104
00017.M2TS      4353 (0x1101)   0x86            DTS-HD MA       und (Undetermined)      671.871                 2,781                   233,595,432     1,374,438
00003.M2TS      4113 (0x1011)   0x1B            AVC                                     1685.617                25,000                  5,267,587,174   28,657,649
00003.M2TS      4352 (0x1100)   0x80            LPCM            und (Undetermined)      1685.617                2,310                   486,825,828     2,697,096
00003.M2TS      4353 (0x1101)   0x86            DTS-HD MA       und (Undetermined)      1685.617                2,772                   584,051,088     3,435,044
00013.M2TS      4113 (0x1011)   0x1B            AVC                                     1023.189                24,985                  3,195,560,821   17,385,119
00013.M2TS      4352 (0x1100)   0x80            LPCM            und (Undetermined)      1023.189                2,311                   295,517,488     1,637,216
00013.M2TS      4353 (0x1101)   0x86            DTS-HD MA       und (Undetermined)      1023.189                2,793                   357,189,044     2,098,800
00008.M2TS      4113 (0x1011)   0x1B            AVC                                     36.537                  30,028                  137,137,845     746,328
00011.M2TS      4113 (0x1011)   0x1B            AVC                                     9.910                   1,281                   1,587,250       8,807
00000.M2TS      4113 (0x1011)   0x1B            AVC                                     0.200                   244                     6,108           41

QUICK SUMMARY:
Disc Title: Beethoven - The Piano Sonatas Vol 1 - Rudolf Buchbinder - 2016
Disc Size: 46,496,324,618 bytes
Protection: AACS
BD-Java: No
Playlist: 00014.MPLS
Size: 43,767,067,200 bytes
Length: 2:59:34.263
Total Bitrate: 32.50 Mbps
Video: MPEG-4 AVC Video / 25862 kbps / 1080i / 29.970 fps / 16:9 / High Profile 4.1
Audio: Undetermined / LPCM Audio / 2.0 / 48 kHz / 2304 kbps / 24-bit
Audio: Undetermined / DTS-HD Master Audio / 4.0 / 48 kHz / 2635 kbps / 24-bit (DTS Core: 4.0 / 48 kHz / 1509 kbps / 24-bit)
********************
PLAYLIST: 00016.MPLS
********************

Код:

                                                                                Total   Video
Title                                                           Codec   Length  Movie Size      Disc Size       Bitrate Bitrate Main Audio Track                          Secondary Audio Track
-----                                                           ------  ------- --------------  --------------  ------- ------- ------------------                        ---------------------
00016.MPLS                                                      AVC     0:03:23 419,555,328     46,496,324,618  16.49   13.96   LPCM 2.0 1536Kbps (48kHz/16-bit)

Код:
DISC INFO:
Disc Title:     Beethoven - The Piano Sonatas Vol 1 - Rudolf Buchbinder - 2016
Disc Size:      46,496,324,618 bytes
Protection:     AACS
BD-Java:        No
BDInfo:         0.7.1
PLAYLIST REPORT:
Name:                   00016.MPLS
Length:                 0:03:23.536 (h:m:s.ms)
Size:                   419,555,328 bytes
Total Bitrate:          16.49 Mbps
VIDEO:
Codec                   Bitrate             Description
-----                   -------             -----------
MPEG-4 AVC Video        13964 kbps          1080i / 29.970 fps / 16:9 / High Profile 4.1
AUDIO:
Codec                           Language        Bitrate         Description
-----                           --------        -------         -----------
LPCM Audio                      Undetermined    1536 kbps       2.0 / 48 kHz / 1536 kbps / 16-bit
FILES:
Name            Time In         Length          Size            Total Bitrate
----            -------         ------          ----            -------------
00019.M2TS      0:00:00.000     0:03:23.202     419,543,040     16,517
00000.M2TS      0:03:23.202     0:00:00.333     12,288          295
CHAPTERS:
Number          Time In         Length          Avg Video Rate  Max 1-Sec Rate  Max 1-Sec Time  Max 5-Sec Rate  Max 5-Sec Time  Max 10Sec Rate  Max 10Sec Time  Avg Frame Size  Max Frame Size  Max Frame Time
------          -------         ------          --------------  --------------  --------------  --------------  --------------  --------------  --------------  --------------  --------------  --------------
1               0:00:00.000     0:03:23.536     13,964 kbps     26,265 kbps     00:00:47.580    22,998 kbps     00:00:44.344    21,800 kbps     00:00:41.541    58,243 bytes    510,835 bytes   00:00:48.548
STREAM DIAGNOSTICS:
File            PID             Type            Codec           Language                Seconds                 Bitrate                 Bytes           Packets
----            ---             ----            -----           --------                --------------          --------------          -------------   -----
00019.M2TS      4113 (0x1011)   0x1B            AVC                                     203.103                 13,994                  355,274,550     1,934,447
00019.M2TS      4352 (0x1100)   0x80            LPCM            und (Undetermined)      203.103                 1,543                   39,177,924      243,846
00000.M2TS      4113 (0x1011)   0x1B            AVC                                     0.200                   244                     6,108           41

QUICK SUMMARY:
Disc Title: Beethoven - The Piano Sonatas Vol 1 - Rudolf Buchbinder - 2016
Disc Size: 46,496,324,618 bytes
Protection: AACS
BD-Java: No
Playlist: 00016.MPLS
Size: 419,555,328 bytes
Length: 0:03:23.536
Total Bitrate: 16.49 Mbps
Video: MPEG-4 AVC Video / 13964 kbps / 1080i / 29.970 fps / 16:9 / High Profile 4.1
Audio: Undetermined / LPCM Audio / 2.0 / 48 kHz / 1536 kbps / 16-bit
********************
PLAYLIST: 00018.MPLS
********************

Код:

                                                                                Total   Video
Title                                                           Codec   Length  Movie Size      Disc Size       Bitrate Bitrate Main Audio Track                          Secondary Audio Track
-----                                                           ------  ------- --------------  --------------  ------- ------- ------------------                        ---------------------
00018.MPLS                                                      AVC     0:01:47 335,665,152     46,496,324,618  25.02   21.55   LPCM 2.0 2304Kbps (48kHz/24-bit)

Код:
DISC INFO:
Disc Title:     Beethoven - The Piano Sonatas Vol 1 - Rudolf Buchbinder - 2016
Disc Size:      46,496,324,618 bytes
Protection:     AACS
BD-Java:        No
BDInfo:         0.7.1
PLAYLIST REPORT:
Name:                   00018.MPLS
Length:                 0:01:47.340 (h:m:s.ms)
Size:                   335,665,152 bytes
Total Bitrate:          25.02 Mbps
VIDEO:
Codec                   Bitrate             Description
-----                   -------             -----------
MPEG-4 AVC Video        21550 kbps          1080i / 29.970 fps / 16:9 / High Profile 4.1
AUDIO:
Codec                           Language        Bitrate         Description
-----                           --------        -------         -----------
LPCM Audio                      Undetermined    2304 kbps       2.0 / 48 kHz / 2304 kbps / 24-bit
FILES:
Name            Time In         Length          Size            Total Bitrate
----            -------         ------          ----            -------------
00021.M2TS      0:00:00.000     0:01:47.006     335,652,864     25,094
00000.M2TS      0:01:47.006     0:00:00.333     12,288          295
CHAPTERS:
Number          Time In         Length          Avg Video Rate  Max 1-Sec Rate  Max 1-Sec Time  Max 5-Sec Rate  Max 5-Sec Time  Max 10Sec Rate  Max 10Sec Time  Avg Frame Size  Max Frame Size  Max Frame Time
------          -------         ------          --------------  --------------  --------------  --------------  --------------  --------------  --------------  --------------  --------------  --------------
1               0:00:00.000     0:01:47.340     21,550 kbps     42,297 kbps     00:00:08.475    37,924 kbps     00:00:04.471    26,793 kbps     00:00:50.717    89,882 bytes    365,483 bytes   00:00:13.813
STREAM DIAGNOSTICS:
File            PID             Type            Codec           Language                Seconds                 Bitrate                 Bytes           Packets
----            ---             ----            -----           --------                --------------          --------------          -------------   -----
00021.M2TS      4113 (0x1011)   0x1B            AVC                                     106.940                 21,630                  289,143,784     1,574,972
00021.M2TS      4352 (0x1100)   0x80            LPCM            und (Undetermined)      106.940                 2,290                   30,615,688      169,616
00000.M2TS      4113 (0x1011)   0x1B            AVC                                     0.200                   244                     6,108           41

QUICK SUMMARY:
Disc Title: Beethoven - The Piano Sonatas Vol 1 - Rudolf Buchbinder - 2016
Disc Size: 46,496,324,618 bytes
Protection: AACS
BD-Java: No
Playlist: 00018.MPLS
Size: 335,665,152 bytes
Length: 0:01:47.340
Total Bitrate: 25.02 Mbps
Video: MPEG-4 AVC Video / 21550 kbps / 1080i / 29.970 fps / 16:9 / High Profile 4.1
Audio: Undetermined / LPCM Audio / 2.0 / 48 kHz / 2304 kbps / 24-bit
********************
PLAYLIST: 00017.MPLS
********************

Код:

                                                                                Total   Video
Title                                                           Codec   Length  Movie Size      Disc Size       Bitrate Bitrate Main Audio Track                          Secondary Audio Track
-----                                                           ------  ------- --------------  --------------  ------- ------- ------------------                        ---------------------
00017.MPLS                                                      AVC     0:01:41 314,793,984     46,496,324,618  24.79   21.93   LPCM 2.0 1536Kbps (48kHz/16-bit)

Код:
DISC INFO:
Disc Title:     Beethoven - The Piano Sonatas Vol 1 - Rudolf Buchbinder - 2016
Disc Size:      46,496,324,618 bytes
Protection:     AACS
BD-Java:        No
BDInfo:         0.7.1
PLAYLIST REPORT:
Name:                   00017.MPLS
Length:                 0:01:41.568 (h:m:s.ms)
Size:                   314,793,984 bytes
Total Bitrate:          24.79 Mbps
VIDEO:
Codec                   Bitrate             Description
-----                   -------             -----------
MPEG-4 AVC Video        21927 kbps          1080i / 29.970 fps / 16:9 / High Profile 4.1
AUDIO:
Codec                           Language        Bitrate         Description
-----                           --------        -------         -----------
LPCM Audio                      Undetermined    1536 kbps       2.0 / 48 kHz / 1536 kbps / 16-bit
FILES:
Name            Time In         Length          Size            Total Bitrate
----            -------         ------          ----            -------------
00020.M2TS      0:00:00.000     0:01:41.234     314,781,696     24,875
00000.M2TS      0:01:41.234     0:00:00.333     12,288          295
CHAPTERS:
Number          Time In         Length          Avg Video Rate  Max 1-Sec Rate  Max 1-Sec Time  Max 5-Sec Rate  Max 5-Sec Time  Max 10Sec Rate  Max 10Sec Time  Avg Frame Size  Max Frame Size  Max Frame Time
------          -------         ------          --------------  --------------  --------------  --------------  --------------  --------------  --------------  --------------  --------------  --------------
1               0:00:00.000     0:01:41.568     21,927 kbps     34,605 kbps     00:00:14.514    32,823 kbps     00:00:13.780    29,179 kbps     00:00:10.643    91,455 bytes    354,806 bytes   00:01:17.844
STREAM DIAGNOSTICS:
File            PID             Type            Codec           Language                Seconds                 Bitrate                 Bytes           Packets
----            ---             ----            -----           --------                --------------          --------------          -------------   -----
00020.M2TS      4113 (0x1011)   0x1B            AVC                                     101.101                 22,028                  278,383,613     1,514,685
00020.M2TS      4352 (0x1100)   0x80            LPCM            und (Undetermined)      101.101                 1,543                   19,505,576      121,404
00000.M2TS      4113 (0x1011)   0x1B            AVC                                     0.200                   244                     6,108           41

QUICK SUMMARY:
Disc Title: Beethoven - The Piano Sonatas Vol 1 - Rudolf Buchbinder - 2016
Disc Size: 46,496,324,618 bytes
Protection: AACS
BD-Java: No
Playlist: 00017.MPLS
Size: 314,793,984 bytes
Length: 0:01:41.568
Total Bitrate: 24.79 Mbps
Video: MPEG-4 AVC Video / 21927 kbps / 1080i / 29.970 fps / 16:9 / High Profile 4.1
Audio: Undetermined / LPCM Audio / 2.0 / 48 kHz / 1536 kbps / 16-bit
********************
PLAYLIST: 00015.MPLS
********************

Код:

                                                                                Total   Video
Title                                                           Codec   Length  Movie Size      Disc Size       Bitrate Bitrate Main Audio Track                          Secondary Audio Track
-----                                                           ------  ------- --------------  --------------  ------- ------- ------------------                        ---------------------
00015.MPLS                                                      AVC     0:01:20 249,139,200     46,496,324,618  24.77   21.90   LPCM 2.0 1536Kbps (48kHz/16-bit)

Код:
DISC INFO:
Disc Title:     Beethoven - The Piano Sonatas Vol 1 - Rudolf Buchbinder - 2016
Disc Size:      46,496,324,618 bytes
Protection:     AACS
BD-Java:        No
BDInfo:         0.7.1
PLAYLIST REPORT:
Name:                   00015.MPLS
Length:                 0:01:20.480 (h:m:s.ms)
Size:                   249,139,200 bytes
Total Bitrate:          24.77 Mbps
VIDEO:
Codec                   Bitrate             Description
-----                   -------             -----------
MPEG-4 AVC Video        21899 kbps          1080i / 29.970 fps / 16:9 / High Profile 4.1
AUDIO:
Codec                           Language        Bitrate         Description
-----                           --------        -------         -----------
LPCM Audio                      Undetermined    1536 kbps       2.0 / 48 kHz / 1536 kbps / 16-bit
FILES:
Name            Time In         Length          Size            Total Bitrate
----            -------         ------          ----            -------------
00018.M2TS      0:00:00.000     0:01:20.146     249,126,912     24,867
00000.M2TS      0:01:20.146     0:00:00.333     12,288          295
CHAPTERS:
Number          Time In         Length          Avg Video Rate  Max 1-Sec Rate  Max 1-Sec Time  Max 5-Sec Rate  Max 5-Sec Time  Max 10Sec Rate  Max 10Sec Time  Avg Frame Size  Max Frame Size  Max Frame Time
------          -------         ------          --------------  --------------  --------------  --------------  --------------  --------------  --------------  --------------  --------------  --------------
1               0:00:00.000     0:01:20.480     21,899 kbps     34,426 kbps     00:00:06.773    32,272 kbps     00:00:13.146    31,474 kbps     00:00:12.612    91,336 bytes    379,179 bytes   00:00:22.255
STREAM DIAGNOSTICS:
File            PID             Type            Codec           Language                Seconds                 Bitrate                 Bytes           Packets
----            ---             ----            -----           --------                --------------          --------------          -------------   -----
00018.M2TS      4113 (0x1011)   0x1B            AVC                                     80.013                  22,026                  220,296,016     1,198,641
00018.M2TS      4352 (0x1100)   0x80            LPCM            und (Undetermined)      80.013                  1,545                   15,452,920      96,180
00000.M2TS      4113 (0x1011)   0x1B            AVC                                     0.200                   244                     6,108           41

QUICK SUMMARY:
Disc Title: Beethoven - The Piano Sonatas Vol 1 - Rudolf Buchbinder - 2016
Disc Size: 46,496,324,618 bytes
Protection: AACS
BD-Java: No
Playlist: 00015.MPLS
Size: 249,139,200 bytes
Length: 0:01:20.480
Total Bitrate: 24.77 Mbps
Video: MPEG-4 AVC Video / 21899 kbps / 1080i / 29.970 fps / 16:9 / High Profile 4.1
Audio: Undetermined / LPCM Audio / 2.0 / 48 kHz / 1536 kbps / 16-bit
********************
PLAYLIST: 00019.MPLS
********************

Код:

                                                                                Total   Video
Title                                                           Codec   Length  Movie Size      Disc Size       Bitrate Bitrate Main Audio Track                          Secondary Audio Track
-----                                                           ------  ------- --------------  --------------  ------- ------- ------------------                        ---------------------
00019.MPLS                                                      AVC     0:00:51 160,315,392     46,496,324,618  24.72   21.86   LPCM 2.0 1536Kbps (48kHz/16-bit)

Код:
DISC INFO:
Disc Title:     Beethoven - The Piano Sonatas Vol 1 - Rudolf Buchbinder - 2016
Disc Size:      46,496,324,618 bytes
Protection:     AACS
BD-Java:        No
BDInfo:         0.7.1
PLAYLIST REPORT:
Name:                   00019.MPLS
Length:                 0:00:51.885 (h:m:s.ms)
Size:                   160,315,392 bytes
Total Bitrate:          24.72 Mbps
VIDEO:
Codec                   Bitrate             Description
-----                   -------             -----------
MPEG-4 AVC Video        21857 kbps          1080i / 29.970 fps / 16:9 / High Profile 4.1
AUDIO:
Codec                           Language        Bitrate         Description
-----                           --------        -------         -----------
LPCM Audio                      Undetermined    1536 kbps       2.0 / 48 kHz / 1536 kbps / 16-bit
FILES:
Name            Time In         Length          Size            Total Bitrate
----            -------         ------          ----            -------------
00022.M2TS      0:00:00.000     0:00:51.551     160,303,104     24,877
00000.M2TS      0:00:51.551     0:00:00.333     12,288          295
CHAPTERS:
Number          Time In         Length          Avg Video Rate  Max 1-Sec Rate  Max 1-Sec Time  Max 5-Sec Rate  Max 5-Sec Time  Max 10Sec Rate  Max 10Sec Time  Avg Frame Size  Max Frame Size  Max Frame Time
------          -------         ------          --------------  --------------  --------------  --------------  --------------  --------------  --------------  --------------  --------------  --------------
1               0:00:00.000     0:00:51.885     21,857 kbps     30,593 kbps     00:00:13.046    28,073 kbps     00:00:38.138    27,569 kbps     00:00:38.338    91,162 bytes    350,264 bytes   00:00:46.379
STREAM DIAGNOSTICS:
File            PID             Type            Codec           Language                Seconds                 Bitrate                 Bytes           Packets
----            ---             ----            -----           --------                --------------          --------------          -------------   -----
00022.M2TS      4113 (0x1011)   0x1B            AVC                                     51.418                  22,055                  141,750,698     771,286
00022.M2TS      4352 (0x1100)   0x80            LPCM            und (Undetermined)      51.418                  1,547                   9,939,804       61,866
00000.M2TS      4113 (0x1011)   0x1B            AVC                                     0.200                   244                     6,108           41

QUICK SUMMARY:
Disc Title: Beethoven - The Piano Sonatas Vol 1 - Rudolf Buchbinder - 2016
Disc Size: 46,496,324,618 bytes
Protection: AACS
BD-Java: No
Playlist: 00019.MPLS
Size: 160,315,392 bytes
Length: 0:00:51.885
Total Bitrate: 24.72 Mbps
Video: MPEG-4 AVC Video / 21857 kbps / 1080i / 29.970 fps / 16:9 / High Profile 4.1
Audio: Undetermined / LPCM Audio / 2.0 / 48 kHz / 1536 kbps / 16-bit

Скриншоты










                                                                                       
                       
                       
                       
                       
                       
                                 磁力下载(论坛代下载服务)
                                                               
                                       
游客,本主题需向作者支付 10金币 才能浏览,金币充值, 免回复、免金币,直接查看内容请开通VIP支付

                                               
  • 43.3 GB
  • 温馨提示

    记得善用社区搜索功能,那里可能会有你想要的资源;论坛站内搜索

    如果你有什么需要的资源可以去资源求档发帖,求助社区的网友,我们会在第一时间给你回复哦;资源求档

    对于本社区网盘链接失效密码错误各种报错请在反馈板块反馈报错发帖,您的支持,是我们发展的最大动力;投诉建议

    回复

    使用道具 举报

    您需要登录后才可以回帖 登录 | 立即注册 微信登录

    本版积分规则

    关注0

    粉丝0

    帖子29667

    发布主题
    阅读排行更多+
    关闭

    站长推荐上一条 /1 下一条

    收藏帖子 返回列表 这是一个自定义按钮
    音乐分享,音乐下载。
    微信公众号
    微信号:maomiyinyue
    意见反馈:[email protected]

    加入我们的官方QQ群和微信群

    Powered by Discuz! X3.4 Archiver|手机版|小黑屋|猫咪音乐网 ( 苏ICP备20015413号 )|( 苏公网安备 32030502000272号) 繁體

    JS of wanmeiff.com and vcpic.com Please keep this copyright information, respect of, thank you!JS of wanmeiff.com and vcpic.com Please keep this copyright information, respect of, thank you!

    GMT+8, 2021-1-26 04:11