自购原抓音乐圈:只有自购、合购、原抓级高解析(hires、sacd、dsd)正版音乐资源分享!【点我打开
极速无线网卡:千兆无线网卡、服务器网卡、USB接口台式机笔记本网卡 千兆网线 厂家批发价格最低!【点我打开
广告

[古典音乐] Jo Hisaisi的交响乐团:音乐电影Hayao Miyazaki / Joe Hisaishi Symphonic音乐会:来自Hayao Miyazaki的Studio Ghibli电影(Jo Hisaisi / Joe Hisaishi)音乐[当代古典音乐,配乐] [2017,HDTVRIP 1080i]

[复制链接]
elmisy 发表于 2020-12-20 20:46:27 | 显示全部楼层 |阅读模式 打印 上一主题 下一主题
Joe Hisaishi Symphonic Concert: Music from the Studio Ghibli Films of Hayao Miyazaki
Симфонический концерт Дзё Хисайси: Музыка фильмов Хаяо Миядзаки
Год выпуска: 2017
Лейбл: Overlook Events, Columbia Artists
Страна-производитель: Франция, Япония
Жанр: Contemporary classical music, Soundtrack
Продолжительность: 1:28:58
Язык: японский, французский, английский
Перевод: нет
Субтитры: японские (хардсаб на французскую речь)
Режиссёр/хореограф: Joe Hisaishi
Исполнители:
Orquesta LAMOUREUX conducted by Joe HISAISHI
Choir LAMOUREUX conducted by Loïc PIERRE
Piano player for the Choir – Kanako HORIKAWA
Young Choir – La Maîtrise des Hauts-de-Seine conducted by Gaël DARCHEN
Soprano Solo – Hélène BERNARDY
Mandolin – Mathieu SARTHE-MOUREOU
Orchestre d’Harmonie de Pantin conducted by Laurent LANGARD
Studends of the conservatory “Rayonnement Départemental de Pantin”
Harmonie des Deux Rives Paris conducted by Joël IZAGUIRRE
Orchestre d’Harmonie de La Renaissance, Paris – President: Christophe de Bellegarde
With the participation of l’Harmonie du Chemin de Fer du Nord and l’Harmonie de l’Haÿ-les-Roses
Треклист
I. Nuausicaä of the Valley of the Wind
The Legend of the Wind
Nausicaä Requiem (Singer: Mai Fujisawa)
The Battle between Mehve and Corvette
The Distant Days
The Bird Man
II. Princess Mononoke
The Legend of Ashitaka
The Demon God
Princess Mononoke (Soprano: Hélène Bernardy)
III. Kiki’s Delivery Service
A Town with an Ocean View
Heartbroken Kiki
Mother’s Broom
IV. The Wind Rises
(Mandolin: Mathieu Sarthe-Mouréou)
A Journey (A Dream of Flight)
Nahoko (The Encounter)
A Journey (A Kingdom of Dreams)
V. Ponyo on the Cliff by the Sea
Deep Sea Pastures
Mother Sea (Soprano: Hélène Bernardy)
Ponyo’s Sisters Lend a Hand – A Song for Mothers and the Sea
Ponyo on the Cliff by the Sea
VI. Laputa: Castle in the Sky
Doves and the Boy
Carrying You
The Eternal Tree of Life
VII. Porco Rosso
Bygone Days
VIII. Howl’s Moving Castle
Symphonic Variation “Merry-go-round + Cave of Mind”
IX. Spirited Away
One Summer’s Day
Reprise (Singer: Mai Fujisawa)
X. My Neighbor Totoro
The Path of the Wind
Hey Let’s Go
My Neighbor Totoro
ENCORES
Madness – Porco Rosso
Ashitaka and San – Princess Mononoke
Примечание: вычеркнуты треки, не вошедшие в телетрансляцию.
Описание:
Официальная компоновка из двух парижских концертов от 9 и 10 июня 2017, посвящённых фильмам Хаяо Миядзаки со студии «Гибли», музыку к которым написал Дзё Хисайси. На концерте звучит обновлённая программа события в «Будокане». Во время концерта (на 52-й минуте) демонстрируется записка от Миядзаки, в которой он просит Хасайси присоединиться к нему в работе над его новым фильмом.
Доп. информация:
Подробнее о концертах: http://overlook-events.com/tyrell/joe-hisaishi-symphonic-concert-music-from-the-s...-hayao-miyazaki/
Обзор мероприятия: https://soundtrackfest.com/en/articles/joe-hisaishi-paris-concerts-2017/
Качество видео: HDTVRip
Формат/Контейнер: MKV
Видео кодек: MPEG2
Аудио кодек: AAC
Видео поток: 1920x1080, 18.8 Mb/s, 29.97fps, Interlaced
Аудио поток: 252 kb/s, 48000Hz, stereo
Подробные тех. данные

General
Unique ID                                : 79251846892266842491085554289883930496 (0x3B9F59BAE0C00CA91838428BD296DF80)
Complete name                            : W:\Joe_Hisaishi_Symphonic_Concert_2017_Music_from_the_Films_of_Hayao_Miyazaki.mkv
Format                                   : Matroska
Format version                           : Version 4 / Version 2
File size                                : 11.8 GiB
Duration                                 : 1 h 28 min
Overall bit rate mode                    : Variable
Overall bit rate                         : 19.1 Mb/s
Encoded date                             : UTC 2020-01-03 22:21:49
Writing application                      : mkvmerge v35.0.0 ('All The Love In The World') 32-bit
Writing library                          : libebml v1.3.9 + libmatroska v1.5.2
Video
ID                                       : 1
Format                                   : MPEG Video
Format version                           : Version 2
Format profile                           : Main@High
Format settings, BVOP                    : Yes
Format settings, Matrix                  : Custom
Format settings, GOP                     : M=3, N=15
Format settings, picture structure       : Frame
Codec ID                                 : V_MPEG2
Codec ID/Info                            : MPEG 1 or 2 Video
Duration                                 : 1 h 28 min
Bit rate mode                            : Variable
Bit rate                                 : 18.8 Mb/s
Maximum bit rate                         : 24.0 Mb/s
Width                                    : 1 920 pixels
Height                                   : 1 080 pixels
Display aspect ratio                     : 16:9
Original display aspect ratio            : 16:9
Frame rate mode                          : Constant
Frame rate                               : 29.970 (30000/1001) FPS
Color space                              : YUV
Chroma subsampling                       : 4:2:0
Bit depth                                : 8 bits
Scan type                                : Interlaced
Scan order                               : Top Field First
Compression mode                         : Lossy
Bits/(Pixel*Frame)                       : 0.303
Time code of first frame                 : 01:15:29:09
Time code source                         : Group of pictures header
GOP, Open/Closed                         : Open
Stream size                              : 11.7 GiB (99%)
Default                                  : Yes
Forced                                   : No
Color primaries                          : BT.709
Transfer characteristics                 : BT.709
Matrix coefficients                      : BT.709
Audio
ID                                       : 2
Format                                   : AAC
Format/Info                              : Advanced Audio Codec
Format profile                           : LC
Codec ID                                 : A_AAC
Duration                                 : 1 h 28 min
Bit rate                                 : 252 kb/s
Channel(s)                               : 2 channels
Channel positions                        : Front: L R
Sampling rate                            : 48.0 kHz
Frame rate                               : 46.875 FPS (1024 spf)
Compression mode                         : Lossy
Delay relative to video                  : 67 ms
Stream size                              : 161 MiB (1%)
Language                                 : Japanese
Default                                  : Yes
Forced                                   : No
Menu
00:00:00.000                             : ja:久石譲 in パリ「風の谷のナウシカ」から「風立ちぬ」まで宮崎駿監督作品演奏会
00:02:15.770                             : ja:「風の谷のナウシカ」より
00:13:02.249                             : ja:「もののけ姫」より
00:21:03.631                             : ja:「魔女の宅急便」より
00:30:45.246                             : ja:「風立ちぬ」より
00:37:36.557                             : ja:「崖の上のポニョ」より
00:46:22.283                             : ja:「天空の城ラピュタ」より
00:54:11.252                             : ja:「紅の豚」より
00:59:43.517                             : ja:「ハウルの動く城」より
01:12:11.132                             : ja:「千と千尋の神隠し」より
01:19:51.692                             : ja:「となりのトトロ」より


Скриншоты








                                                                                       
                       
                       
                       
                       
                       
                                 磁力下载(论坛代下载服务)
                                                               
                                       
游客,本主题需向作者支付 10金币 才能浏览,金币充值, 免回复、免金币,直接查看内容请开通VIP支付

                                               
  • 11.85 GB
  • 温馨提示

    记得善用社区搜索功能,那里可能会有你想要的资源;论坛站内搜索

    如果你有什么需要的资源可以去资源求档发帖,求助社区的网友,我们会在第一时间给你回复哦;资源求档

    对于本社区网盘链接失效密码错误各种报错请在反馈板块反馈报错发帖,您的支持,是我们发展的最大动力;投诉建议

    回复

    使用道具 举报

    您需要登录后才可以回帖 登录 | 立即注册 微信登录

    本版积分规则

    关注0

    粉丝1

    帖子29169

    发布主题
    阅读排行更多+
    关闭

    站长推荐上一条 /1 下一条

    收藏帖子 返回列表 这是一个自定义按钮
    音乐分享,音乐下载。
    微信公众号
    微信号:maomiyinyue
    意见反馈:admin@maomicd.com

    加入我们的官方QQ群和微信群

    Powered by Discuz! X3.4 Archiver|手机版|小黑屋|猫咪音乐网 ( 苏ICP备20015413号 )|( 苏公网安备 32030502000272号) 繁體

    JS of wanmeiff.com and vcpic.com Please keep this copyright information, respect of, thank you!JS of wanmeiff.com and vcpic.com Please keep this copyright information, respect of, thank you!

    GMT+8, 2021-1-19 10:05