自购原抓音乐圈:只有自购、合购、原抓级高解析(hires、sacd、dsd)正版音乐资源分享!【点我打开
极速无线网卡:千兆无线网卡、服务器网卡、USB接口台式机笔记本网卡 千兆网线 厂家批发价格最低!【点我打开
广告

[古典音乐] Charrier,Rodrigo,Rachmaninov - 2011来自马德里(Simon Rattle,Cañizares,Berliner Philharmoniker)[2011,古典,蓝光]

[复制链接]
如果有神 发表于 2020-12-20 20:46:25 | 显示全部楼层 |阅读模式 打印 上一主题 下一主题
EuropaKonzert 2011 from Madrid
Год выпуска: 2011
Лейбл: EuroArts Music International
Жанр: Classical
Продолжительность: 01:36:45
Режиссер: Rhodri Huw
Дирижер: Sir Simon Rattle
Исполнители: Cañizares - guitar; Berliner Philharmoniker
Треклист:
Recorded live at the Teatro Real, Madrid, 1 May 2011
Emmanuel Chabrier (1841–1894)
- España
Joaquín Rodrigo (1901–1999)
- Concierto de Aranjuez for guitar and orchestra
Sergey Rachmaninov (1873–1943)
- Symphony No. 2 in E minor, Op. 27
Бонус:
• Interview with Sir Simon Rattle [00:07:18]
Источник

Описание (на английском)
• Every year since 1991, the Berliner Philharmoniker have marked the anniversary of their foundation with a concert in a different cultural capital: for their twenty-first European Concert on 1 May 2011, they were the guests of the magnificent Teatro Real in Madrid. Their programme comprised the exuberant rhapsody España by the French composer Emmanuel Chabrier, Rachmaninov’s dramatic Second Symphony and a quintessential Spanish composition: Joaquín Rodrigo’s Concierto de Aranjuez.
• Schiller’s play Don Carlos famously opens with the line “The pleasant days here in Aranjuez are now drawing to a close”. Music lovers are more fortunate because thanks to Rodrigo’s immortal guitar concerto they can continue to savour the magical mood in the summer palace of the Spanish kings, especially when the soloist is a flamenco virtuoso like Cañizares, who can throw such fascinating light on every facet of this multi-layered score.
• After the interval, the orchestra turn to Rachmaninov’s Second Symphony, a relatively unknown work, which Sir Simon Rattle – a self-confessed fan of the composer – conducts without a score. As he noted afterwards, the orchestra “played the hell out of it”, resulting, in the opinion of the press, in a thrilling and very special experience. “The orchestra was urged on by Rattle’s impulsive direction, playing with brio and unleashing wave after wave of tension, turning the symphony’s sweeping movements into a self-contained and thrilling whole.”
Качество видео: Blu-ray
Формат/Контейнер: BDMV
Видео кодек: MPEG2
Аудио кодек: PCM, DTS
Видео : MPEG-2 27858 kbps / 1920*1080i / 29,970 fps / 16:9
Аудио #1: LPCM 2.0 / 48 kHz / 1536 kbps / 16-bit
Аудио #2: DTS-HD MA 5.1 / 48 kHz / 3900 kbps / 24-bit (DTS Core: 5.1 / 48 kHz / 1509 kbps / 24-bit)
BDInfo

Disc Title:     EuropaKonzert 2011 from Madrid.Chabrier, Rodrigo, Rachmaninov.Cañizares, BPO, Simon Rattle.2011.BD1080i
Disc Size:      29 116 350 389 bytes
Protection:     AACS
BD-Java:        Yes
BDInfo:         0.5.8
Notes:
BDINFO HOME:
  Cinema Squid
    http://www.cinemasquid.com/blu-ray/tools/bdinfo
INCLUDES FORUMS REPORT FOR:
  AVS Forum Blu-ray Audio and Video Specifications Thread
    http://www.avsforum.com/avs-vb/showthread.php?t=1155731
********************
PLAYLIST: 00003.MPLS
********************

Код:

                                                                                Total   Video
Title                                                           Codec   Length  Movie Size      Disc Size       Bitrate Bitrate Main Audio Track                          Secondary Audio Track
-----                                                           ------  ------- --------------  --------------  ------- ------- ------------------                        ---------------------
00003.MPLS                                                      MPEG-2  1:36:45 25 630 371 840  29 116 350 389  35,32   27,86   LPCM 2.0 1536Kbps (48kHz/16-bit)          DTS-HD Master 5.1 3900Kbps (48kHz/24-bit)

Код:
DISC INFO:
Disc Title:     EuropaKonzert 2011 from Madrid.Chabrier, Rodrigo, Rachmaninov.Cañizares, BPO, Simon Rattle.2011.BD1080i
Disc Size:      29 116 350 389 bytes
Protection:     AACS
BD-Java:        Yes
BDInfo:         0.5.8
PLAYLIST REPORT:
Name:                   00003.MPLS
Length:                 1:36:45.833 (h:m:s.ms)
Size:                   25 630 371 840 bytes
Total Bitrate:          35,32 Mbps
VIDEO:
Codec                   Bitrate             Description
-----                   -------             -----------
MPEG-2 Video            27858 kbps          1080i / 29,970 fps / 16:9
AUDIO:
Codec                           Language        Bitrate         Description
-----                           --------        -------         -----------
LPCM Audio                      Undetermined    1536 kbps       2.0 / 48 kHz / 1536 kbps / 16-bit
DTS-HD Master Audio             Undetermined    3900 kbps       5.1 / 48 kHz / 3900 kbps / 24-bit (DTS Core: 5.1 / 48 kHz / 1509 kbps / 24-bit)
FILES:
Name            Time In         Length          Size            Total Bitrate
----            -------         ------          ----            -------------
00003.M2TS      0:00:00.000     1:36:45.833     25 630 371 840  35 317
CHAPTERS:
Number          Time In         Length          Avg Video Rate  Max 1-Sec Rate  Max 1-Sec Time  Max 5-Sec Rate  Max 5-Sec Time  Max 10Sec Rate  Max 10Sec Time  Avg Frame Size  Max Frame Size  Max Frame Time
------          -------         ------          --------------  --------------  --------------  --------------  --------------  --------------  --------------  --------------  --------------  --------------
1               0:00:00.000     0:00:59.993     27 650 kbps     34 954 kbps     00:00:29.329    31 850 kbps     00:00:50.984    31 612 kbps     00:00:46.780    115 261 bytes   576 182 bytes   00:00:29.429
2               0:00:59.993     0:07:07.393     28 547 kbps     34 465 kbps     00:07:08.361    31 656 kbps     00:06:48.875    31 430 kbps     00:06:49.108    119 065 bytes   517 378 bytes   00:06:54.714
3               0:08:07.386     0:06:24.016     28 066 kbps     34 778 kbps     00:12:34.253    32 061 kbps     00:12:30.249    31 248 kbps     00:12:25.244    117 060 bytes   486 776 bytes   00:12:29.515
4               0:14:31.403     0:12:12.231     27 701 kbps     34 584 kbps     00:16:24.917    31 047 kbps     00:14:39.411    30 650 kbps     00:26:32.891    115 534 bytes   515 363 bytes   00:14:33.138
5               0:26:43.635     0:06:56.382     27 990 kbps     34 689 kbps     00:32:11.896    31 943 kbps     00:31:04.495    31 089 kbps     00:31:04.162    116 741 bytes   526 723 bytes   00:33:22.266
6               0:33:40.018     0:19:33.405     28 143 kbps     34 822 kbps     00:52:32.282    32 201 kbps     00:41:18.142    31 746 kbps     00:41:18.209    117 381 bytes   539 292 bytes   00:53:12.589
7               0:53:13.423     0:10:20.786     28 585 kbps     35 280 kbps     00:53:18.962    31 671 kbps     00:53:27.504    31 322 kbps     00:53:18.962    119 222 bytes   517 314 bytes   00:55:15.345
8               1:03:34.210     0:15:42.541     28 122 kbps     34 386 kbps     01:19:05.774    31 937 kbps     01:17:10.492    31 571 kbps     01:06:23.813    117 294 bytes   527 858 bytes   01:19:14.583
9               1:19:16.751     0:15:05.537     28 529 kbps     35 447 kbps     01:26:40.361    32 408 kbps     01:23:15.857    32 097 kbps     01:23:16.024    118 991 bytes   514 419 bytes   01:23:17.792
10              1:34:22.289     0:02:23.543     14 323 kbps     32 736 kbps     01:34:44.211    30 559 kbps     01:34:56.657    30 118 kbps     01:34:55.022    59 754 bytes    485 192 bytes   01:34:50.017
STREAM DIAGNOSTICS:
File            PID             Type            Codec           Language                Seconds                 Bitrate                 Bytes           Packets
----            ---             ----            -----           --------                --------------          --------------          -------------   -----
00003.M2TS      4113 (0x1011)   0x02            MPEG-2                                  5805,767                27 859                  20 217 601 060  109 979 792
00003.M2TS      4352 (0x1100)   0x80            LPCM            und (Undetermined)      5805,767                1 542                   1 119 362 740   6 966 998
00003.M2TS      4353 (0x1101)   0x86            DTS-HD MA       und (Undetermined)      5805,767                3 900                   2 830 370 232   16 286 737


QUICK SUMMARY:
Disc Title: EuropaKonzert 2011 from Madrid.Chabrier, Rodrigo, Rachmaninov.Cañizares, BPO, Simon Rattle.2011.BD1080i
Disc Size: 29 116 350 389 bytes
Protection: AACS
BD-Java: Yes
Playlist: 00003.MPLS
Size: 25 630 371 840 bytes
Length: 1:36:45.833
Total Bitrate: 35,32 Mbps
Video: MPEG-2 Video / 27858 kbps / 1080i / 29,970 fps / 16:9
Audio: Undetermined / LPCM Audio / 2.0 / 48 kHz / 1536 kbps / 16-bit
Audio: Undetermined / DTS-HD Master Audio / 5.1 / 48 kHz / 3900 kbps / 24-bit (DTS Core: 5.1 / 48 kHz / 1509 kbps / 24-bit)
********************
PLAYLIST: 01003.MPLS
********************

Код:

                                                                                Total   Video
Title                                                           Codec   Length  Movie Size      Disc Size       Bitrate Bitrate Main Audio Track                          Secondary Audio Track
-----                                                           ------  ------- --------------  --------------  ------- ------- ------------------                        ---------------------
01003.MPLS                                                      MPEG-2  1:36:45 25 630 371 840  29 116 350 389  35,32   27,86   LPCM 2.0 1536Kbps (48kHz/16-bit)          DTS-HD Master 5.1 3900Kbps (48kHz/24-bit)

Код:
DISC INFO:
Disc Title:     EuropaKonzert 2011 from Madrid.Chabrier, Rodrigo, Rachmaninov.Cañizares, BPO, Simon Rattle.2011.BD1080i
Disc Size:      29 116 350 389 bytes
Protection:     AACS
BD-Java:        Yes
BDInfo:         0.5.8
PLAYLIST REPORT:
Name:                   01003.MPLS
Length:                 1:36:45.833 (h:m:s.ms)
Size:                   25 630 371 840 bytes
Total Bitrate:          35,32 Mbps
VIDEO:
Codec                   Bitrate             Description
-----                   -------             -----------
MPEG-2 Video            27858 kbps          1080i / 29,970 fps / 16:9
AUDIO:
Codec                           Language        Bitrate         Description
-----                           --------        -------         -----------
LPCM Audio                      Undetermined    1536 kbps       2.0 / 48 kHz / 1536 kbps / 16-bit
DTS-HD Master Audio             Undetermined    3900 kbps       5.1 / 48 kHz / 3900 kbps / 24-bit (DTS Core: 5.1 / 48 kHz / 1509 kbps / 24-bit)
FILES:
Name            Time In         Length          Size            Total Bitrate
----            -------         ------          ----            -------------
00003.M2TS      0:00:00.000     1:36:45.833     25 630 371 840  35 317
CHAPTERS:
Number          Time In         Length          Avg Video Rate  Max 1-Sec Rate  Max 1-Sec Time  Max 5-Sec Rate  Max 5-Sec Time  Max 10Sec Rate  Max 10Sec Time  Avg Frame Size  Max Frame Size  Max Frame Time
------          -------         ------          --------------  --------------  --------------  --------------  --------------  --------------  --------------  --------------  --------------  --------------
1               0:00:00.000     0:00:59.993     27 650 kbps     34 954 kbps     00:00:29.329    31 850 kbps     00:00:50.984    31 612 kbps     00:00:46.780    115 261 bytes   576 182 bytes   00:00:29.429
2               0:00:59.993     0:07:07.393     28 547 kbps     34 465 kbps     00:07:08.361    31 656 kbps     00:06:48.875    31 430 kbps     00:06:49.108    119 065 bytes   517 378 bytes   00:06:54.714
3               0:08:07.386     0:06:24.016     28 066 kbps     34 778 kbps     00:12:34.253    32 061 kbps     00:12:30.249    31 248 kbps     00:12:25.244    117 060 bytes   486 776 bytes   00:12:29.515
4               0:14:31.403     0:12:12.231     27 701 kbps     34 584 kbps     00:16:24.917    31 047 kbps     00:14:39.411    30 650 kbps     00:26:32.891    115 534 bytes   515 363 bytes   00:14:33.138
5               0:26:43.635     0:06:56.382     27 990 kbps     34 689 kbps     00:32:11.896    31 943 kbps     00:31:04.495    31 089 kbps     00:31:04.162    116 741 bytes   526 723 bytes   00:33:22.266
6               0:33:40.018     0:19:33.405     28 143 kbps     34 822 kbps     00:52:32.282    32 201 kbps     00:41:18.142    31 746 kbps     00:41:18.209    117 381 bytes   539 292 bytes   00:53:12.589
7               0:53:13.423     0:10:20.786     28 585 kbps     35 280 kbps     00:53:18.962    31 671 kbps     00:53:27.504    31 322 kbps     00:53:18.962    119 222 bytes   517 314 bytes   00:55:15.345
8               1:03:34.210     0:15:42.541     28 122 kbps     34 386 kbps     01:19:05.774    31 937 kbps     01:17:10.492    31 571 kbps     01:06:23.813    117 294 bytes   527 858 bytes   01:19:14.583
9               1:19:16.751     0:15:05.537     28 529 kbps     35 447 kbps     01:26:40.361    32 408 kbps     01:23:15.857    32 097 kbps     01:23:16.024    118 991 bytes   514 419 bytes   01:23:17.792
10              1:34:22.289     0:02:23.543     14 323 kbps     32 736 kbps     01:34:44.211    30 559 kbps     01:34:56.657    30 118 kbps     01:34:55.022    59 754 bytes    485 192 bytes   01:34:50.017
STREAM DIAGNOSTICS:
File            PID             Type            Codec           Language                Seconds                 Bitrate                 Bytes           Packets
----            ---             ----            -----           --------                --------------          --------------          -------------   -----
00003.M2TS      4113 (0x1011)   0x02            MPEG-2                                  5805,767                27 859                  20 217 601 060  109 979 792
00003.M2TS      4352 (0x1100)   0x80            LPCM            und (Undetermined)      5805,767                1 542                   1 119 362 740   6 966 998
00003.M2TS      4353 (0x1101)   0x86            DTS-HD MA       und (Undetermined)      5805,767                3 900                   2 830 370 232   16 286 737


QUICK SUMMARY:
Disc Title: EuropaKonzert 2011 from Madrid.Chabrier, Rodrigo, Rachmaninov.Cañizares, BPO, Simon Rattle.2011.BD1080i
Disc Size: 29 116 350 389 bytes
Protection: AACS
BD-Java: Yes
Playlist: 01003.MPLS
Size: 25 630 371 840 bytes
Length: 1:36:45.833
Total Bitrate: 35,32 Mbps
Video: MPEG-2 Video / 27858 kbps / 1080i / 29,970 fps / 16:9
Audio: Undetermined / LPCM Audio / 2.0 / 48 kHz / 1536 kbps / 16-bit
Audio: Undetermined / DTS-HD Master Audio / 5.1 / 48 kHz / 3900 kbps / 24-bit (DTS Core: 5.1 / 48 kHz / 1509 kbps / 24-bit)
********************
PLAYLIST: 00004.MPLS
********************

Код:

                                                                                Total   Video
Title                                                           Codec   Length  Movie Size      Disc Size       Bitrate Bitrate Main Audio Track                          Secondary Audio Track
-----                                                           ------  ------- --------------  --------------  ------- ------- ------------------                        ---------------------
00004.MPLS                                                      MPEG-2  0:07:18 1 362 432 000   29 116 350 389  24,86   21,97   LPCM 2.0 1536Kbps (48kHz/16-bit)

Код:
DISC INFO:
Disc Title:     EuropaKonzert 2011 from Madrid.Chabrier, Rodrigo, Rachmaninov.Cañizares, BPO, Simon Rattle.2011.BD1080i
Disc Size:      29 116 350 389 bytes
Protection:     AACS
BD-Java:        Yes
BDInfo:         0.5.8
PLAYLIST REPORT:
Name:                   00004.MPLS
Length:                 0:07:18.438 (h:m:s.ms)
Size:                   1 362 432 000 bytes
Total Bitrate:          24,86 Mbps
VIDEO:
Codec                   Bitrate             Description
-----                   -------             -----------
MPEG-2 Video            21966 kbps          1080i / 29,970 fps / 16:9
AUDIO:
Codec                           Language        Bitrate         Description
-----                           --------        -------         -----------
LPCM Audio                      English         1536 kbps       2.0 / 48 kHz / 1536 kbps / 16-bit
FILES:
Name            Time In         Length          Size            Total Bitrate
----            -------         ------          ----            -------------
00004.M2TS      0:00:00.000     0:07:18.438     1 362 432 000   24 860
CHAPTERS:
Number          Time In         Length          Avg Video Rate  Max 1-Sec Rate  Max 1-Sec Time  Max 5-Sec Rate  Max 5-Sec Time  Max 10Sec Rate  Max 10Sec Time  Avg Frame Size  Max Frame Size  Max Frame Time
------          -------         ------          --------------  --------------  --------------  --------------  --------------  --------------  --------------  --------------  --------------  --------------
1               0:00:00.000     0:07:18.438     21 966 kbps     32 084 kbps     00:00:35.769    27 858 kbps     00:05:32.231    26 938 kbps     00:05:27.126    91 618 bytes    530 458 bytes   00:00:35.935
STREAM DIAGNOSTICS:
File            PID             Type            Codec           Language                Seconds                 Bitrate                 Bytes           Packets
----            ---             ----            -----           --------                --------------          --------------          -------------   -----
00004.M2TS      4113 (0x1011)   0x02            MPEG-2                                  438,371                 21 970                  1 203 861 142   6 550 371
00004.M2TS      4352 (0x1100)   0x80            LPCM            eng (English)           438,371                 1 543                   84 530 848      526 126


QUICK SUMMARY:
Disc Title: EuropaKonzert 2011 from Madrid.Chabrier, Rodrigo, Rachmaninov.Cañizares, BPO, Simon Rattle.2011.BD1080i
Disc Size: 29 116 350 389 bytes
Protection: AACS
BD-Java: Yes
Playlist: 00004.MPLS
Size: 1 362 432 000 bytes
Length: 0:07:18.438
Total Bitrate: 24,86 Mbps
Video: MPEG-2 Video / 21966 kbps / 1080i / 29,970 fps / 16:9
Audio: English / LPCM Audio / 2.0 / 48 kHz / 1536 kbps / 16-bit
********************
PLAYLIST: 01004.MPLS
********************

Код:

                                                                                Total   Video
Title                                                           Codec   Length  Movie Size      Disc Size       Bitrate Bitrate Main Audio Track                          Secondary Audio Track
-----                                                           ------  ------- --------------  --------------  ------- ------- ------------------                        ---------------------
01004.MPLS                                                      MPEG-2  0:07:18 1 362 432 000   29 116 350 389  24,86   21,97   LPCM 2.0 1536Kbps (48kHz/16-bit)

Код:
DISC INFO:
Disc Title:     EuropaKonzert 2011 from Madrid.Chabrier, Rodrigo, Rachmaninov.Cañizares, BPO, Simon Rattle.2011.BD1080i
Disc Size:      29 116 350 389 bytes
Protection:     AACS
BD-Java:        Yes
BDInfo:         0.5.8
PLAYLIST REPORT:
Name:                   01004.MPLS
Length:                 0:07:18.438 (h:m:s.ms)
Size:                   1 362 432 000 bytes
Total Bitrate:          24,86 Mbps
VIDEO:
Codec                   Bitrate             Description
-----                   -------             -----------
MPEG-2 Video            21966 kbps          1080i / 29,970 fps / 16:9
AUDIO:
Codec                           Language        Bitrate         Description
-----                           --------        -------         -----------
LPCM Audio                      English         1536 kbps       2.0 / 48 kHz / 1536 kbps / 16-bit
FILES:
Name            Time In         Length          Size            Total Bitrate
----            -------         ------          ----            -------------
00004.M2TS      0:00:00.000     0:07:18.438     1 362 432 000   24 860
CHAPTERS:
Number          Time In         Length          Avg Video Rate  Max 1-Sec Rate  Max 1-Sec Time  Max 5-Sec Rate  Max 5-Sec Time  Max 10Sec Rate  Max 10Sec Time  Avg Frame Size  Max Frame Size  Max Frame Time
------          -------         ------          --------------  --------------  --------------  --------------  --------------  --------------  --------------  --------------  --------------  --------------
1               0:00:00.000     0:07:18.438     21 966 kbps     32 084 kbps     00:00:35.769    27 858 kbps     00:05:32.231    26 938 kbps     00:05:27.126    91 618 bytes    530 458 bytes   00:00:35.935
STREAM DIAGNOSTICS:
File            PID             Type            Codec           Language                Seconds                 Bitrate                 Bytes           Packets
----            ---             ----            -----           --------                --------------          --------------          -------------   -----
00004.M2TS      4113 (0x1011)   0x02            MPEG-2                                  438,371                 21 970                  1 203 861 142   6 550 371
00004.M2TS      4352 (0x1100)   0x80            LPCM            eng (English)           438,371                 1 543                   84 530 848      526 126


QUICK SUMMARY:
Disc Title: EuropaKonzert 2011 from Madrid.Chabrier, Rodrigo, Rachmaninov.Cañizares, BPO, Simon Rattle.2011.BD1080i
Disc Size: 29 116 350 389 bytes
Protection: AACS
BD-Java: Yes
Playlist: 01004.MPLS
Size: 1 362 432 000 bytes
Length: 0:07:18.438
Total Bitrate: 24,86 Mbps
Video: MPEG-2 Video / 21966 kbps / 1080i / 29,970 fps / 16:9
Audio: English / LPCM Audio / 2.0 / 48 kHz / 1536 kbps / 16-bit
********************
PLAYLIST: 00005.MPLS
********************

Код:

                                                                                Total   Video
Title                                                           Codec   Length  Movie Size      Disc Size       Bitrate Bitrate Main Audio Track                          Secondary Audio Track
-----                                                           ------  ------- --------------  --------------  ------- ------- ------------------                        ---------------------
00005.MPLS                                                      MPEG-2  0:03:15 646 465 536     29 116 350 389  26,50   23,54   LPCM 2.0 1536Kbps (48kHz/16-bit)

Код:
DISC INFO:
Disc Title:     EuropaKonzert 2011 from Madrid.Chabrier, Rodrigo, Rachmaninov.Cañizares, BPO, Simon Rattle.2011.BD1080i
Disc Size:      29 116 350 389 bytes
Protection:     AACS
BD-Java:        Yes
BDInfo:         0.5.8
PLAYLIST REPORT:
Name:                   00005.MPLS
Length:                 0:03:15.161 (h:m:s.ms)
Size:                   646 465 536 bytes
Total Bitrate:          26,50 Mbps
VIDEO:
Codec                   Bitrate             Description
-----                   -------             -----------
MPEG-2 Video            23538 kbps          1080i / 29,970 fps / 16:9
AUDIO:
Codec                           Language        Bitrate         Description
-----                           --------        -------         -----------
LPCM Audio                      Undetermined    1536 kbps       2.0 / 48 kHz / 1536 kbps / 16-bit
FILES:
Name            Time In         Length          Size            Total Bitrate
----            -------         ------          ----            -------------
00005.M2TS      0:00:00.000     0:03:15.161     646 465 536     26 500
CHAPTERS:
Number          Time In         Length          Avg Video Rate  Max 1-Sec Rate  Max 1-Sec Time  Max 5-Sec Rate  Max 5-Sec Time  Max 10Sec Rate  Max 10Sec Time  Avg Frame Size  Max Frame Size  Max Frame Time
------          -------         ------          --------------  --------------  --------------  --------------  --------------  --------------  --------------  --------------  --------------  --------------
1               0:00:00.000     0:03:15.161     23 538 kbps     31 053 kbps     00:00:09.843    28 396 kbps     00:00:35.835    28 089 kbps     00:00:36.036    98 173 bytes    520 962 bytes   00:02:47.433
STREAM DIAGNOSTICS:
File            PID             Type            Codec           Language                Seconds                 Bitrate                 Bytes           Packets
----            ---             ----            -----           --------                --------------          --------------          -------------   -----
00005.M2TS      4113 (0x1011)   0x02            MPEG-2                                  195,095                 23 546                  574 212 251     3 124 132
00005.M2TS      4352 (0x1100)   0x80            LPCM            und (Undetermined)      195,095                 1 543                   37 627 160      234 194


QUICK SUMMARY:
Disc Title: EuropaKonzert 2011 from Madrid.Chabrier, Rodrigo, Rachmaninov.Cañizares, BPO, Simon Rattle.2011.BD1080i
Disc Size: 29 116 350 389 bytes
Protection: AACS
BD-Java: Yes
Playlist: 00005.MPLS
Size: 646 465 536 bytes
Length: 0:03:15.161
Total Bitrate: 26,50 Mbps
Video: MPEG-2 Video / 23538 kbps / 1080i / 29,970 fps / 16:9
Audio: Undetermined / LPCM Audio / 2.0 / 48 kHz / 1536 kbps / 16-bit
********************
PLAYLIST: 01005.MPLS
********************

Код:

                                                                                Total   Video
Title                                                           Codec   Length  Movie Size      Disc Size       Bitrate Bitrate Main Audio Track                          Secondary Audio Track
-----                                                           ------  ------- --------------  --------------  ------- ------- ------------------                        ---------------------
01005.MPLS                                                      MPEG-2  0:03:15 646 465 536     29 116 350 389  26,50   23,54   LPCM 2.0 1536Kbps (48kHz/16-bit)

Код:
DISC INFO:
Disc Title:     EuropaKonzert 2011 from Madrid.Chabrier, Rodrigo, Rachmaninov.Cañizares, BPO, Simon Rattle.2011.BD1080i
Disc Size:      29 116 350 389 bytes
Protection:     AACS
BD-Java:        Yes
BDInfo:         0.5.8
PLAYLIST REPORT:
Name:                   01005.MPLS
Length:                 0:03:15.161 (h:m:s.ms)
Size:                   646 465 536 bytes
Total Bitrate:          26,50 Mbps
VIDEO:
Codec                   Bitrate             Description
-----                   -------             -----------
MPEG-2 Video            23538 kbps          1080i / 29,970 fps / 16:9
AUDIO:
Codec                           Language        Bitrate         Description
-----                           --------        -------         -----------
LPCM Audio                      Undetermined    1536 kbps       2.0 / 48 kHz / 1536 kbps / 16-bit
FILES:
Name            Time In         Length          Size            Total Bitrate
----            -------         ------          ----            -------------
00005.M2TS      0:00:00.000     0:03:15.161     646 465 536     26 500
CHAPTERS:
Number          Time In         Length          Avg Video Rate  Max 1-Sec Rate  Max 1-Sec Time  Max 5-Sec Rate  Max 5-Sec Time  Max 10Sec Rate  Max 10Sec Time  Avg Frame Size  Max Frame Size  Max Frame Time
------          -------         ------          --------------  --------------  --------------  --------------  --------------  --------------  --------------  --------------  --------------  --------------
1               0:00:00.000     0:03:15.161     23 538 kbps     31 053 kbps     00:00:09.843    28 396 kbps     00:00:35.835    28 089 kbps     00:00:36.036    98 173 bytes    520 962 bytes   00:02:47.433
STREAM DIAGNOSTICS:
File            PID             Type            Codec           Language                Seconds                 Bitrate                 Bytes           Packets
----            ---             ----            -----           --------                --------------          --------------          -------------   -----
00005.M2TS      4113 (0x1011)   0x02            MPEG-2                                  195,095                 23 546                  574 212 251     3 124 132
00005.M2TS      4352 (0x1100)   0x80            LPCM            und (Undetermined)      195,095                 1 543                   37 627 160      234 194


QUICK SUMMARY:
Disc Title: EuropaKonzert 2011 from Madrid.Chabrier, Rodrigo, Rachmaninov.Cañizares, BPO, Simon Rattle.2011.BD1080i
Disc Size: 29 116 350 389 bytes
Protection: AACS
BD-Java: Yes
Playlist: 01005.MPLS
Size: 646 465 536 bytes
Length: 0:03:15.161
Total Bitrate: 26,50 Mbps
Video: MPEG-2 Video / 23538 kbps / 1080i / 29,970 fps / 16:9
Audio: Undetermined / LPCM Audio / 2.0 / 48 kHz / 1536 kbps / 16-bit
********************
PLAYLIST: 00008.MPLS
********************

Код:

                                                                                Total   Video
Title                                                           Codec   Length  Movie Size      Disc Size       Bitrate Bitrate Main Audio Track                          Secondary Audio Track
-----                                                           ------  ------- --------------  --------------  ------- ------- ------------------                        ---------------------
00008.MPLS                                                      AVC     0:03:08 403 310 592     29 116 350 389  17,14   13,98   LPCM 2.0 2304Kbps (48kHz/24-bit)

Код:
DISC INFO:
Disc Title:     EuropaKonzert 2011 from Madrid.Chabrier, Rodrigo, Rachmaninov.Cañizares, BPO, Simon Rattle.2011.BD1080i
Disc Size:      29 116 350 389 bytes
Protection:     AACS
BD-Java:        Yes
BDInfo:         0.5.8
PLAYLIST REPORT:
Name:                   00008.MPLS
Length:                 0:03:08.221 (h:m:s.ms)
Size:                   403 310 592 bytes
Total Bitrate:          17,14 Mbps
VIDEO:
Codec                   Bitrate             Description
-----                   -------             -----------
MPEG-4 AVC Video        13981 kbps          1080i / 29,970 fps / 16:9 / High Profile 4.1
AUDIO:
Codec                           Language        Bitrate         Description
-----                           --------        -------         -----------
LPCM Audio                      Undetermined    2304 kbps       2.0 / 48 kHz / 2304 kbps / 24-bit
FILES:
Name            Time In         Length          Size            Total Bitrate
----            -------         ------          ----            -------------
00008.M2TS      0:00:00.000     0:03:08.221     403 310 592     17 142
CHAPTERS:
Number          Time In         Length          Avg Video Rate  Max 1-Sec Rate  Max 1-Sec Time  Max 5-Sec Rate  Max 5-Sec Time  Max 10Sec Rate  Max 10Sec Time  Avg Frame Size  Max Frame Size  Max Frame Time
------          -------         ------          --------------  --------------  --------------  --------------  --------------  --------------  --------------  --------------  --------------  --------------
1               0:00:00.000     0:03:08.221     13 981 kbps     23 556 kbps     00:02:56.910    20 971 kbps     00:02:52.906    19 488 kbps     00:02:50.937    58 312 bytes    412 607 bytes   00:02:28.915
STREAM DIAGNOSTICS:
File            PID             Type            Codec           Language                Seconds                 Bitrate                 Bytes           Packets
----            ---             ----            -----           --------                --------------          --------------          -------------   -----
00008.M2TS      4113 (0x1011)   0x1B            AVC                                     188,121                 13 988                  328 940 179     1 791 040
00008.M2TS      4352 (0x1100)   0x80            LPCM            und (Undetermined)      188,121                 2 312                   54 358 336      301 155


QUICK SUMMARY:
Disc Title: EuropaKonzert 2011 from Madrid.Chabrier, Rodrigo, Rachmaninov.Cañizares, BPO, Simon Rattle.2011.BD1080i
Disc Size: 29 116 350 389 bytes
Protection: AACS
BD-Java: Yes
Playlist: 00008.MPLS
Size: 403 310 592 bytes
Length: 0:03:08.221
Total Bitrate: 17,14 Mbps
Video: MPEG-4 AVC Video / 13981 kbps / 1080i / 29,970 fps / 16:9 / High Profile 4.1
Audio: Undetermined / LPCM Audio / 2.0 / 48 kHz / 2304 kbps / 24-bit
********************
PLAYLIST: 01008.MPLS
********************

Код:

                                                                                Total   Video
Title                                                           Codec   Length  Movie Size      Disc Size       Bitrate Bitrate Main Audio Track                          Secondary Audio Track
-----                                                           ------  ------- --------------  --------------  ------- ------- ------------------                        ---------------------
01008.MPLS                                                      AVC     0:03:08 403 310 592     29 116 350 389  17,14   13,98   LPCM 2.0 2304Kbps (48kHz/24-bit)

Код:
DISC INFO:
Disc Title:     EuropaKonzert 2011 from Madrid.Chabrier, Rodrigo, Rachmaninov.Cañizares, BPO, Simon Rattle.2011.BD1080i
Disc Size:      29 116 350 389 bytes
Protection:     AACS
BD-Java:        Yes
BDInfo:         0.5.8
PLAYLIST REPORT:
Name:                   01008.MPLS
Length:                 0:03:08.221 (h:m:s.ms)
Size:                   403 310 592 bytes
Total Bitrate:          17,14 Mbps
VIDEO:
Codec                   Bitrate             Description
-----                   -------             -----------
MPEG-4 AVC Video        13981 kbps          1080i / 29,970 fps / 16:9 / High Profile 4.1
AUDIO:
Codec                           Language        Bitrate         Description
-----                           --------        -------         -----------
LPCM Audio                      Undetermined    2304 kbps       2.0 / 48 kHz / 2304 kbps / 24-bit
FILES:
Name            Time In         Length          Size            Total Bitrate
----            -------         ------          ----            -------------
00008.M2TS      0:00:00.000     0:03:08.221     403 310 592     17 142
CHAPTERS:
Number          Time In         Length          Avg Video Rate  Max 1-Sec Rate  Max 1-Sec Time  Max 5-Sec Rate  Max 5-Sec Time  Max 10Sec Rate  Max 10Sec Time  Avg Frame Size  Max Frame Size  Max Frame Time
------          -------         ------          --------------  --------------  --------------  --------------  --------------  --------------  --------------  --------------  --------------  --------------
1               0:00:00.000     0:03:08.221     13 981 kbps     23 556 kbps     00:02:56.910    20 971 kbps     00:02:52.906    19 488 kbps     00:02:50.937    58 312 bytes    412 607 bytes   00:02:28.915
STREAM DIAGNOSTICS:
File            PID             Type            Codec           Language                Seconds                 Bitrate                 Bytes           Packets
----            ---             ----            -----           --------                --------------          --------------          -------------   -----
00008.M2TS      4113 (0x1011)   0x1B            AVC                                     188,121                 13 988                  328 940 179     1 791 040
00008.M2TS      4352 (0x1100)   0x80            LPCM            und (Undetermined)      188,121                 2 312                   54 358 336      301 155


QUICK SUMMARY:
Disc Title: EuropaKonzert 2011 from Madrid.Chabrier, Rodrigo, Rachmaninov.Cañizares, BPO, Simon Rattle.2011.BD1080i
Disc Size: 29 116 350 389 bytes
Protection: AACS
BD-Java: Yes
Playlist: 01008.MPLS
Size: 403 310 592 bytes
Length: 0:03:08.221
Total Bitrate: 17,14 Mbps
Video: MPEG-4 AVC Video / 13981 kbps / 1080i / 29,970 fps / 16:9 / High Profile 4.1
Audio: Undetermined / LPCM Audio / 2.0 / 48 kHz / 2304 kbps / 24-bit
********************
PLAYLIST: 00007.MPLS
********************

Код:

                                                                                Total   Video
Title                                                           Codec   Length  Movie Size      Disc Size       Bitrate Bitrate Main Audio Track                          Secondary Audio Track
-----                                                           ------  ------- --------------  --------------  ------- ------- ------------------                        ---------------------
00007.MPLS                                                      AVC     0:02:39 328 765 440     29 116 350 389  16,53   13,98   LPCM 2.0 1536Kbps (48kHz/16-bit)

Код:
DISC INFO:
Disc Title:     EuropaKonzert 2011 from Madrid.Chabrier, Rodrigo, Rachmaninov.Cañizares, BPO, Simon Rattle.2011.BD1080i
Disc Size:      29 116 350 389 bytes
Protection:     AACS
BD-Java:        Yes
BDInfo:         0.5.8
PLAYLIST REPORT:
Name:                   00007.MPLS
Length:                 0:02:39.159 (h:m:s.ms)
Size:                   328 765 440 bytes
Total Bitrate:          16,53 Mbps
VIDEO:
Codec                   Bitrate             Description
-----                   -------             -----------
MPEG-4 AVC Video        13978 kbps          1080i / 29,970 fps / 16:9 / High Profile 4.1
AUDIO:
Codec                           Language        Bitrate         Description
-----                           --------        -------         -----------
LPCM Audio                      Undetermined    1536 kbps       2.0 / 48 kHz / 1536 kbps / 16-bit
FILES:
Name            Time In         Length          Size            Total Bitrate
----            -------         ------          ----            -------------
00007.M2TS      0:00:00.000     0:02:39.159     328 765 440     16 525
CHAPTERS:
Number          Time In         Length          Avg Video Rate  Max 1-Sec Rate  Max 1-Sec Time  Max 5-Sec Rate  Max 5-Sec Time  Max 10Sec Rate  Max 10Sec Time  Avg Frame Size  Max Frame Size  Max Frame Time
------          -------         ------          --------------  --------------  --------------  --------------  --------------  --------------  --------------  --------------  --------------  --------------
1               0:00:00.000     0:02:39.159     13 978 kbps     27 438 kbps     00:02:26.146    25 795 kbps     00:02:23.910    23 705 kbps     00:02:21.808    58 302 bytes    298 850 bytes   00:02:35.321
STREAM DIAGNOSTICS:
File            PID             Type            Codec           Language                Seconds                 Bitrate                 Bytes           Packets
----            ---             ----            -----           --------                --------------          --------------          -------------   -----
00007.M2TS      4113 (0x1011)   0x1B            AVC                                     159,026                 13 990                  278 098 217     1 514 228
00007.M2TS      4352 (0x1100)   0x80            LPCM            und (Undetermined)      159,026                 1 544                   30 685 856      190 991


QUICK SUMMARY:
Disc Title: EuropaKonzert 2011 from Madrid.Chabrier, Rodrigo, Rachmaninov.Cañizares, BPO, Simon Rattle.2011.BD1080i
Disc Size: 29 116 350 389 bytes
Protection: AACS
BD-Java: Yes
Playlist: 00007.MPLS
Size: 328 765 440 bytes
Length: 0:02:39.159
Total Bitrate: 16,53 Mbps
Video: MPEG-4 AVC Video / 13978 kbps / 1080i / 29,970 fps / 16:9 / High Profile 4.1
Audio: Undetermined / LPCM Audio / 2.0 / 48 kHz / 1536 kbps / 16-bit
********************
PLAYLIST: 01007.MPLS
********************

Код:

                                                                                Total   Video
Title                                                           Codec   Length  Movie Size      Disc Size       Bitrate Bitrate Main Audio Track                          Secondary Audio Track
-----                                                           ------  ------- --------------  --------------  ------- ------- ------------------                        ---------------------
01007.MPLS                                                      AVC     0:02:39 328 765 440     29 116 350 389  16,53   13,98   LPCM 2.0 1536Kbps (48kHz/16-bit)

Код:
DISC INFO:
Disc Title:     EuropaKonzert 2011 from Madrid.Chabrier, Rodrigo, Rachmaninov.Cañizares, BPO, Simon Rattle.2011.BD1080i
Disc Size:      29 116 350 389 bytes
Protection:     AACS
BD-Java:        Yes
BDInfo:         0.5.8
PLAYLIST REPORT:
Name:                   01007.MPLS
Length:                 0:02:39.159 (h:m:s.ms)
Size:                   328 765 440 bytes
Total Bitrate:          16,53 Mbps
VIDEO:
Codec                   Bitrate             Description
-----                   -------             -----------
MPEG-4 AVC Video        13978 kbps          1080i / 29,970 fps / 16:9 / High Profile 4.1
AUDIO:
Codec                           Language        Bitrate         Description
-----                           --------        -------         -----------
LPCM Audio                      Undetermined    1536 kbps       2.0 / 48 kHz / 1536 kbps / 16-bit
FILES:
Name            Time In         Length          Size            Total Bitrate
----            -------         ------          ----            -------------
00007.M2TS      0:00:00.000     0:02:39.159     328 765 440     16 525
CHAPTERS:
Number          Time In         Length          Avg Video Rate  Max 1-Sec Rate  Max 1-Sec Time  Max 5-Sec Rate  Max 5-Sec Time  Max 10Sec Rate  Max 10Sec Time  Avg Frame Size  Max Frame Size  Max Frame Time
------          -------         ------          --------------  --------------  --------------  --------------  --------------  --------------  --------------  --------------  --------------  --------------
1               0:00:00.000     0:02:39.159     13 978 kbps     27 438 kbps     00:02:26.146    25 795 kbps     00:02:23.910    23 705 kbps     00:02:21.808    58 302 bytes    298 850 bytes   00:02:35.321
STREAM DIAGNOSTICS:
File            PID             Type            Codec           Language                Seconds                 Bitrate                 Bytes           Packets
----            ---             ----            -----           --------                --------------          --------------          -------------   -----
00007.M2TS      4113 (0x1011)   0x1B            AVC                                     159,026                 13 990                  278 098 217     1 514 228
00007.M2TS      4352 (0x1100)   0x80            LPCM            und (Undetermined)      159,026                 1 544                   30 685 856      190 991


QUICK SUMMARY:
Disc Title: EuropaKonzert 2011 from Madrid.Chabrier, Rodrigo, Rachmaninov.Cañizares, BPO, Simon Rattle.2011.BD1080i
Disc Size: 29 116 350 389 bytes
Protection: AACS
BD-Java: Yes
Playlist: 01007.MPLS
Size: 328 765 440 bytes
Length: 0:02:39.159
Total Bitrate: 16,53 Mbps
Video: MPEG-4 AVC Video / 13978 kbps / 1080i / 29,970 fps / 16:9 / High Profile 4.1
Audio: Undetermined / LPCM Audio / 2.0 / 48 kHz / 1536 kbps / 16-bit
********************
PLAYLIST: 00006.MPLS
********************

Код:

                                                                                Total   Video
Title                                                           Codec   Length  Movie Size      Disc Size       Bitrate Bitrate Main Audio Track                          Secondary Audio Track
-----                                                           ------  ------- --------------  --------------  ------- ------- ------------------                        ---------------------
00006.MPLS                                                      MPEG-2  0:02:27 452 665 344     29 116 350 389  24,62   21,74   LPCM 2.0 1536Kbps (48kHz/16-bit)

Код:
DISC INFO:
Disc Title:     EuropaKonzert 2011 from Madrid.Chabrier, Rodrigo, Rachmaninov.Cañizares, BPO, Simon Rattle.2011.BD1080i
Disc Size:      29 116 350 389 bytes
Protection:     AACS
BD-Java:        Yes
BDInfo:         0.5.8
PLAYLIST REPORT:
Name:                   00006.MPLS
Length:                 0:02:27.080 (h:m:s.ms)
Size:                   452 665 344 bytes
Total Bitrate:          24,62 Mbps
VIDEO:
Codec                   Bitrate             Description
-----                   -------             -----------
MPEG-2 Video            21738 kbps          1080i / 29,970 fps / 16:9
AUDIO:
Codec                           Language        Bitrate         Description
-----                           --------        -------         -----------
LPCM Audio                      Undetermined    1536 kbps       2.0 / 48 kHz / 1536 kbps / 16-bit
FILES:
Name            Time In         Length          Size            Total Bitrate
----            -------         ------          ----            -------------
00006.M2TS      0:00:00.000     0:02:27.080     452 665 344     24 621
CHAPTERS:
Number          Time In         Length          Avg Video Rate  Max 1-Sec Rate  Max 1-Sec Time  Max 5-Sec Rate  Max 5-Sec Time  Max 10Sec Rate  Max 10Sec Time  Avg Frame Size  Max Frame Size  Max Frame Time
------          -------         ------          --------------  --------------  --------------  --------------  --------------  --------------  --------------  --------------  --------------  --------------
1               0:00:00.000     0:02:27.080     21 738 kbps     28 604 kbps     00:02:10.263    26 254 kbps     00:01:29.589    25 946 kbps     00:01:28.922    90 666 bytes    397 791 bytes   00:02:10.396
STREAM DIAGNOSTICS:
File            PID             Type            Codec           Language                Seconds                 Bitrate                 Bytes           Packets
----            ---             ----            -----           --------                --------------          --------------          -------------   -----
00006.M2TS      4113 (0x1011)   0x02            MPEG-2                                  146,947                 21 758                  399 654 312     2 174 596
00006.M2TS      4352 (0x1100)   0x80            LPCM            und (Undetermined)      146,947                 1 544                   28 357 072      176 497


QUICK SUMMARY:
Disc Title: EuropaKonzert 2011 from Madrid.Chabrier, Rodrigo, Rachmaninov.Cañizares, BPO, Simon Rattle.2011.BD1080i
Disc Size: 29 116 350 389 bytes
Protection: AACS
BD-Java: Yes
Playlist: 00006.MPLS
Size: 452 665 344 bytes
Length: 0:02:27.080
Total Bitrate: 24,62 Mbps
Video: MPEG-2 Video / 21738 kbps / 1080i / 29,970 fps / 16:9
Audio: Undetermined / LPCM Audio / 2.0 / 48 kHz / 1536 kbps / 16-bit
********************
PLAYLIST: 01006.MPLS
********************

Код:

                                                                                Total   Video
Title                                                           Codec   Length  Movie Size      Disc Size       Bitrate Bitrate Main Audio Track                          Secondary Audio Track
-----                                                           ------  ------- --------------  --------------  ------- ------- ------------------                        ---------------------
01006.MPLS                                                      MPEG-2  0:02:27 452 665 344     29 116 350 389  24,62   21,74   LPCM 2.0 1536Kbps (48kHz/16-bit)

Код:
DISC INFO:
Disc Title:     EuropaKonzert 2011 from Madrid.Chabrier, Rodrigo, Rachmaninov.Cañizares, BPO, Simon Rattle.2011.BD1080i
Disc Size:      29 116 350 389 bytes
Protection:     AACS
BD-Java:        Yes
BDInfo:         0.5.8
PLAYLIST REPORT:
Name:                   01006.MPLS
Length:                 0:02:27.080 (h:m:s.ms)
Size:                   452 665 344 bytes
Total Bitrate:          24,62 Mbps
VIDEO:
Codec                   Bitrate             Description
-----                   -------             -----------
MPEG-2 Video            21738 kbps          1080i / 29,970 fps / 16:9
AUDIO:
Codec                           Language        Bitrate         Description
-----                           --------        -------         -----------
LPCM Audio                      Undetermined    1536 kbps       2.0 / 48 kHz / 1536 kbps / 16-bit
FILES:
Name            Time In         Length          Size            Total Bitrate
----            -------         ------          ----            -------------
00006.M2TS      0:00:00.000     0:02:27.080     452 665 344     24 621
CHAPTERS:
Number          Time In         Length          Avg Video Rate  Max 1-Sec Rate  Max 1-Sec Time  Max 5-Sec Rate  Max 5-Sec Time  Max 10Sec Rate  Max 10Sec Time  Avg Frame Size  Max Frame Size  Max Frame Time
------          -------         ------          --------------  --------------  --------------  --------------  --------------  --------------  --------------  --------------  --------------  --------------
1               0:00:00.000     0:02:27.080     21 738 kbps     28 604 kbps     00:02:10.263    26 254 kbps     00:01:29.589    25 946 kbps     00:01:28.922    90 666 bytes    397 791 bytes   00:02:10.396
STREAM DIAGNOSTICS:
File            PID             Type            Codec           Language                Seconds                 Bitrate                 Bytes           Packets
----            ---             ----            -----           --------                --------------          --------------          -------------   -----
00006.M2TS      4113 (0x1011)   0x02            MPEG-2                                  146,947                 21 758                  399 654 312     2 174 596
00006.M2TS      4352 (0x1100)   0x80            LPCM            und (Undetermined)      146,947                 1 544                   28 357 072      176 497


QUICK SUMMARY:
Disc Title: EuropaKonzert 2011 from Madrid.Chabrier, Rodrigo, Rachmaninov.Cañizares, BPO, Simon Rattle.2011.BD1080i
Disc Size: 29 116 350 389 bytes
Protection: AACS
BD-Java: Yes
Playlist: 01006.MPLS
Size: 452 665 344 bytes
Length: 0:02:27.080
Total Bitrate: 24,62 Mbps
Video: MPEG-2 Video / 21738 kbps / 1080i / 29,970 fps / 16:9
Audio: Undetermined / LPCM Audio / 2.0 / 48 kHz / 1536 kbps / 16-bit
********************
PLAYLIST: 00002.MPLS
********************

Код:

                                                                                Total   Video
Title                                                           Codec   Length  Movie Size      Disc Size       Bitrate Bitrate Main Audio Track                          Secondary Audio Track
-----                                                           ------  ------- --------------  --------------  ------- ------- ------------------                        ---------------------
00002.MPLS                                                      MPEG-2  0:01:08 261 169 152     29 116 350 389  30,68   25,78   LPCM 2.0 1536Kbps (48kHz/16-bit)          LPCM 2.0 1536Kbps (48kHz/16-bit)

Код:
DISC INFO:
Disc Title:     EuropaKonzert 2011 from Madrid.Chabrier, Rodrigo, Rachmaninov.Cañizares, BPO, Simon Rattle.2011.BD1080i
Disc Size:      29 116 350 389 bytes
Protection:     AACS
BD-Java:        Yes
BDInfo:         0.5.8
PLAYLIST REPORT:
Name:                   00002.MPLS
Length:                 0:01:08.101 (h:m:s.ms)
Size:                   261 169 152 bytes
Total Bitrate:          30,68 Mbps
VIDEO:
Codec                   Bitrate             Description
-----                   -------             -----------
MPEG-2 Video            25778 kbps          1080i / 29,970 fps / 16:9
AUDIO:
Codec                           Language        Bitrate         Description
-----                           --------        -------         -----------
LPCM Audio                      Undetermined    1536 kbps       2.0 / 48 kHz / 1536 kbps / 16-bit
LPCM Audio                      Undetermined    1536 kbps       2.0 / 48 kHz / 1536 kbps / 16-bit
FILES:
Name            Time In         Length          Size            Total Bitrate
----            -------         ------          ----            -------------
00002.M2TS      0:00:00.000     0:01:08.101     261 169 152     30 680
CHAPTERS:
Number          Time In         Length          Avg Video Rate  Max 1-Sec Rate  Max 1-Sec Time  Max 5-Sec Rate  Max 5-Sec Time  Max 10Sec Rate  Max 10Sec Time  Avg Frame Size  Max Frame Size  Max Frame Time
------          -------         ------          --------------  --------------  --------------  --------------  --------------  --------------  --------------  --------------  --------------  --------------
1               0:00:00.000     0:00:01.001     2 227 kbps      1 869 kbps      00:00:00.000    0 kbps          00:00:00.000    0 kbps          00:00:00.000    8 988 bytes     120 549 bytes   00:00:01.001
2               0:00:01.001     0:00:01.000     25 533 kbps     25 533 kbps     00:00:01.001    0 kbps          00:00:00.000    0 kbps          00:00:00.000    106 495 bytes   303 997 bytes   00:00:01.735
3               0:00:02.001     0:01:06.099     26 138 kbps     31 359 kbps     00:00:38.972    29 222 kbps     00:00:36.736    28 668 kbps     00:00:35.969    109 074 bytes   452 086 bytes   00:00:37.737
STREAM DIAGNOSTICS:
File            PID             Type            Codec           Language                Seconds                 Bitrate                 Bytes           Packets
----            ---             ----            -----           --------                --------------          --------------          -------------   -----
00002.M2TS      4113 (0x1011)   0x02            MPEG-2                                  68,001                  25 816                  219 439 444     1 193 776
00002.M2TS      4352 (0x1100)   0x80            LPCM            und (Undetermined)      68,001                  1 545                   13 129 940      81 722
00002.M2TS      4353 (0x1101)   0x80            LPCM            und (Undetermined)      68,001                  1 545                   13 129 940      81 722


QUICK SUMMARY:
Disc Title: EuropaKonzert 2011 from Madrid.Chabrier, Rodrigo, Rachmaninov.Cañizares, BPO, Simon Rattle.2011.BD1080i
Disc Size: 29 116 350 389 bytes
Protection: AACS
BD-Java: Yes
Playlist: 00002.MPLS
Size: 261 169 152 bytes
Length: 0:01:08.101
Total Bitrate: 30,68 Mbps
Video: MPEG-2 Video / 25778 kbps / 1080i / 29,970 fps / 16:9
Audio: Undetermined / LPCM Audio / 2.0 / 48 kHz / 1536 kbps / 16-bit
Audio: Undetermined / LPCM Audio / 2.0 / 48 kHz / 1536 kbps / 16-bit
********************
PLAYLIST: 01002.MPLS
********************

Код:

                                                                                Total   Video
Title                                                           Codec   Length  Movie Size      Disc Size       Bitrate Bitrate Main Audio Track                          Secondary Audio Track
-----                                                           ------  ------- --------------  --------------  ------- ------- ------------------                        ---------------------
01002.MPLS                                                      MPEG-2  0:01:08 261 169 152     29 116 350 389  30,68   25,78   LPCM 2.0 1536Kbps (48kHz/16-bit)          LPCM 2.0 1536Kbps (48kHz/16-bit)

Код:
DISC INFO:
Disc Title:     EuropaKonzert 2011 from Madrid.Chabrier, Rodrigo, Rachmaninov.Cañizares, BPO, Simon Rattle.2011.BD1080i
Disc Size:      29 116 350 389 bytes
Protection:     AACS
BD-Java:        Yes
BDInfo:         0.5.8
PLAYLIST REPORT:
Name:                   01002.MPLS
Length:                 0:01:08.101 (h:m:s.ms)
Size:                   261 169 152 bytes
Total Bitrate:          30,68 Mbps
VIDEO:
Codec                   Bitrate             Description
-----                   -------             -----------
MPEG-2 Video            25778 kbps          1080i / 29,970 fps / 16:9
AUDIO:
Codec                           Language        Bitrate         Description
-----                           --------        -------         -----------
LPCM Audio                      Undetermined    1536 kbps       2.0 / 48 kHz / 1536 kbps / 16-bit
LPCM Audio                      Undetermined    1536 kbps       2.0 / 48 kHz / 1536 kbps / 16-bit
FILES:
Name            Time In         Length          Size            Total Bitrate
----            -------         ------          ----            -------------
00002.M2TS      0:00:00.000     0:01:08.101     261 169 152     30 680
CHAPTERS:
Number          Time In         Length          Avg Video Rate  Max 1-Sec Rate  Max 1-Sec Time  Max 5-Sec Rate  Max 5-Sec Time  Max 10Sec Rate  Max 10Sec Time  Avg Frame Size  Max Frame Size  Max Frame Time
------          -------         ------          --------------  --------------  --------------  --------------  --------------  --------------  --------------  --------------  --------------  --------------
1               0:00:00.000     0:00:01.001     2 227 kbps      1 869 kbps      00:00:00.000    0 kbps          00:00:00.000    0 kbps          00:00:00.000    8 988 bytes     120 549 bytes   00:00:01.001
2               0:00:01.001     0:00:01.000     25 533 kbps     25 533 kbps     00:00:01.001    0 kbps          00:00:00.000    0 kbps          00:00:00.000    106 495 bytes   303 997 bytes   00:00:01.735
3               0:00:02.001     0:01:06.099     26 138 kbps     31 359 kbps     00:00:38.972    29 222 kbps     00:00:36.736    28 668 kbps     00:00:35.969    109 074 bytes   452 086 bytes   00:00:37.737
STREAM DIAGNOSTICS:
File            PID             Type            Codec           Language                Seconds                 Bitrate                 Bytes           Packets
----            ---             ----            -----           --------                --------------          --------------          -------------   -----
00002.M2TS      4113 (0x1011)   0x02            MPEG-2                                  68,001                  25 816                  219 439 444     1 193 776
00002.M2TS      4352 (0x1100)   0x80            LPCM            und (Undetermined)      68,001                  1 545                   13 129 940      81 722
00002.M2TS      4353 (0x1101)   0x80            LPCM            und (Undetermined)      68,001                  1 545                   13 129 940      81 722


QUICK SUMMARY:
Disc Title: EuropaKonzert 2011 from Madrid.Chabrier, Rodrigo, Rachmaninov.Cañizares, BPO, Simon Rattle.2011.BD1080i
Disc Size: 29 116 350 389 bytes
Protection: AACS
BD-Java: Yes
Playlist: 01002.MPLS
Size: 261 169 152 bytes
Length: 0:01:08.101
Total Bitrate: 30,68 Mbps
Video: MPEG-2 Video / 25778 kbps / 1080i / 29,970 fps / 16:9
Audio: Undetermined / LPCM Audio / 2.0 / 48 kHz / 1536 kbps / 16-bit
Audio: Undetermined / LPCM Audio / 2.0 / 48 kHz / 1536 kbps / 16-bit

Скриншоты











                                                                                       
                       
                       
                       
                       
                       
                                 磁力下载(论坛代下载服务)
                                                               
                                       
游客,本主题需向作者支付 10金币 才能浏览,金币充值, 免回复、免金币,直接查看内容请开通VIP支付

                                               
  • 27.12 GB
  • 温馨提示

    记得善用社区搜索功能,那里可能会有你想要的资源;论坛站内搜索

    如果你有什么需要的资源可以去资源求档发帖,求助社区的网友,我们会在第一时间给你回复哦;资源求档

    对于本社区网盘链接失效密码错误各种报错请在反馈板块反馈报错发帖,您的支持,是我们发展的最大动力;投诉建议

    回复

    使用道具 举报

    您需要登录后才可以回帖 登录 | 立即注册 微信登录

    本版积分规则

    关注0

    粉丝0

    帖子29431

    发布主题
    阅读排行更多+
    关闭

    站长推荐上一条 /1 下一条

    收藏帖子 返回列表 这是一个自定义按钮
    音乐分享,音乐下载。
    微信公众号
    微信号:maomiyinyue
    意见反馈:admin@maomicd.com

    加入我们的官方QQ群和微信群

    Powered by Discuz! X3.4 Archiver|手机版|小黑屋|猫咪音乐网 ( 苏ICP备20015413号 )|( 苏公网安备 32030502000272号) 繁體

    JS of wanmeiff.com and vcpic.com Please keep this copyright information, respect of, thank you!JS of wanmeiff.com and vcpic.com Please keep this copyright information, respect of, thank you!

    GMT+8, 2021-1-20 03:13