自购原抓音乐圈:只有自购、合购、原抓级高解析(hires、sacd、dsd)正版音乐资源分享!【点我打开
极速无线网卡:千兆无线网卡、服务器网卡、USB接口台式机笔记本网卡 千兆网线 厂家批发价格最低!【点我打开
广告

[古典音乐] Simon Rattle的告别与Mahler的六柏林·伯勒格猴子,Simon Rattle爵士[2018,古典,蓝光]

[复制链接]
10086 发表于 2020-12-20 20:46:25 | 显示全部楼层 |阅读模式 打印 上一主题 下一主题
Simon Rattle’s farewell with Mahler’s Sixth - Berliner Philharmoniker, Sir Simon Rattle
Год выпуска: 2018
Лейбл: Berliner Philharmoniker
Страна-производитель: EU
Жанр: Classical
Продолжительность: Blu-ray Audio 02:41:45 + 01:35:01 + Bonus (01:07:04 + 00:09:40)
Язык: German
Субтитры: German, English, Spanish, Korean, Japanese (Bonus Only)
Исполнители: Berliner Philharmoniker, Sir Simon Rattle
Треклист:
· Mahler: Symphony No. 6 in A minor 'Tragic' 01:35:01
Berliner Philharmoniker, Sir Simon Rattle recorded June 2018
· Documentary: “Echoing an Era – Simon Rattle and the Berliner Philharmoniker 2002–2018” 01:07:04
· Introduction by Sir Simon Rattle 00:09:40
Описание: The end of an era and a musical highlight: Simon Rattle’s farewell as chief conductor of the Berliner Philharmoniker with Gustav Mahler’s stunning Sixth Symphony was given a standing ovation by the audience.
In a high-quality edition you can relive this special moment on CD and Blu-ray.
There is also an audio recording of Sir Simon’s Philharmoniker debut conducting the same work, a documentary about his tenure, and an extensive companion book with many articles and photos.
Доп. информация: https://www.berliner-philharmoniker-recordings.com/mahler-6.html
Качество видео: Blu-ray
Формат/Контейнер: BDMV
Видео кодек: H.264
Аудио кодек: PCM + DTS
Видео поток: MPEG-4 AVC Video / 16997 kbps / 1080i / 29.970 fps / 16:9 / High Profile 4.1
Аудио поток #1: German / LPCM Audio / 2.0 / 48 kHz / 1536 kbps / 16-bit
Аудио поток #2: German / DTS-HD Master Audio / 5.1 / 48 kHz / 3869 kbps / 24-bit (DTS Core: 5.1 / 48 kHz / 1509 kbps / 24-bit)
BoxSets


Скриншоты















BDInfo
Disc Title: Simon Rattle’s farewell with Mahler’s Sixth - Berliner Philharmoniker, Sir Simon Rattle - 2018 Blu-ray
Disc Size: 42,512,801,585 bytes
Protection: AACS
BD-Java: Yes
BDInfo: 0.7.1
Notes:
BDINFO HOME:
Cinema Squid
http://www.cinemasquid.com/blu-ray/tools/bdinfo
INCLUDES FORUMS REPORT FOR:
AVS Forum Blu-ray Audio and Video Specifications Thread
http://www.avsforum.com/avs-vb/showthread.php?t=1155731
********************
PLAYLIST: 00000.MPLS
********************

Код:

                                                                                Total   Video
Title                                                           Codec   Length  Movie Size      Disc Size       Bitrate Bitrate Main Audio Track                          Secondary Audio Track
-----                                                           ------  ------- --------------  --------------  ------- ------- ------------------                        ---------------------
00000.MPLS                                                      AVC     2:41:45 13,812,817,920  42,512,801,585  11.39   0.95    LPCM 2.0 4608Kbps (96kHz/24-bit)          DTS-HD Master 5.1 4969Kbps (96kHz/24-bit)

Код:
DISC INFO:
Disc Title:     Simon Rattle’s farewell with Mahler’s Sixth - Berliner Philharmoniker, Sir Simon Rattle - 2018 Blu-ray
Disc Size:      42,512,801,585 bytes
Protection:     AACS
BD-Java:        Yes
BDInfo:         0.7.1
PLAYLIST REPORT:
Name:                   00000.MPLS
Length:                 2:41:45.962 (h:m:s.ms)
Size:                   13,812,817,920 bytes
Total Bitrate:          11.39 Mbps
VIDEO:
Codec                   Bitrate             Description
-----                   -------             -----------
MPEG-4 AVC Video        950 kbps            1080i / 29.970 fps / 16:9 / High Profile 4.1
AUDIO:
Codec                           Language        Bitrate         Description
-----                           --------        -------         -----------
LPCM Audio                      German          4608 kbps       2.0 / 96 kHz / 4608 kbps / 24-bit
DTS-HD Master Audio             German          4969 kbps       5.1 / 96 kHz / 4969 kbps / 24-bit (DTS Core: 5.1 / 48 kHz / 1509 kbps / 24-bit)
FILES:
Name            Time In         Length          Size            Total Bitrate
----            -------         ------          ----            -------------
00000.M2TS      0:00:00.000     0:00:03.002     2,949,120       7,856
00001.M2TS      0:00:03.002     1:22:14.596     8,081,872,896   13,102
00002.M2TS      1:22:17.599     1:19:28.363     5,727,995,904   9,610
CHAPTERS:
Number          Time In         Length          Avg Video Rate  Max 1-Sec Rate  Max 1-Sec Time  Max 5-Sec Rate  Max 5-Sec Time  Max 10Sec Rate  Max 10Sec Time  Avg Frame Size  Max Frame Size  Max Frame Time
------          -------         ------          --------------  --------------  --------------  --------------  --------------  --------------  --------------  --------------  --------------  --------------
1               0:00:00.000     0:24:02.407     950 kbps        1,627 kbps      00:24:00.372    1,085 kbps      00:23:57.369    1,018 kbps      00:23:51.363    3,962 bytes     89,946 bytes    00:00:00.967
2               0:24:02.407     0:15:31.297     950 kbps        1,423 kbps      00:39:32.036    1,045 kbps      00:39:28.032    997 kbps        00:39:23.027    3,962 bytes     89,917 bytes    00:24:03.375
3               0:39:33.704     0:12:50.202     950 kbps        1,443 kbps      00:52:22.172    1,049 kbps      00:52:18.168    999 kbps        00:52:13.163    3,962 bytes     89,918 bytes    00:39:34.672
4               0:52:23.907     0:29:53.691     950 kbps        1,607 kbps      01:22:15.597    1,081 kbps      01:22:11.593    1,016 kbps      01:22:06.588    3,962 bytes     89,917 bytes    00:52:24.875
5               1:22:17.599     0:23:20.932     950 kbps        1,494 kbps      01:45:36.797    1,059 kbps      01:45:32.793    1,004 kbps      01:45:27.788    3,962 bytes     89,917 bytes    01:22:18.566
6               1:45:38.532     0:15:09.041     950 kbps        1,353 kbps      02:00:46.038    1,031 kbps      02:00:42.034    990 kbps        02:00:37.029    3,962 bytes     89,918 bytes    01:45:39.499
7               2:00:47.573     0:12:23.242     950 kbps        1,474 kbps      02:13:09.114    1,055 kbps      02:13:05.110    1,002 kbps      02:13:00.105    3,962 bytes     89,917 bytes    02:00:48.541
8               2:13:10.816     0:28:35.146     950 kbps        1,443 kbps      02:41:44.227    1,049 kbps      02:41:40.223    999 kbps        02:41:35.218    3,962 bytes     89,917 bytes    02:13:11.783
STREAM DIAGNOSTICS:
File            PID             Type            Codec           Language                Seconds                 Bitrate                 Bytes           Packets
----            ---             ----            -----           --------                --------------          --------------          -------------   -----
00000.M2TS      4113 (0x1011)   0x1B            AVC                                     2.870                   994                     356,616         1,950
00000.M2TS      4352 (0x1100)   0x80            LPCM            deu (German)            2.870                   4,832                   1,733,284       9,616
00000.M2TS      4353 (0x1101)   0x86            DTS-HD MA       deu (German)            2.870                   1,629                   584,480         3,653
00001.M2TS      4113 (0x1011)   0x1B            AVC                                     4934.463                950                     585,993,187     3,204,286
00001.M2TS      4352 (0x1100)   0x80            LPCM            deu (German)            4934.463                4,615                   2,846,259,976   15,790,624
00001.M2TS      4353 (0x1101)   0x86            DTS-HD MA       deu (German)            4934.463                6,612                   4,078,185,372   22,932,840
00002.M2TS      4113 (0x1011)   0x1B            AVC                                     4768.230                950                     566,252,718     3,096,345
00002.M2TS      4352 (0x1100)   0x80            LPCM            deu (German)            4768.230                4,615                   2,750,378,512   15,258,688
00002.M2TS      4353 (0x1101)   0x86            DTS-HD MA       deu (German)            4768.230                3,271                   1,949,343,500   11,318,510

QUICK SUMMARY:
Disc Title: Simon Rattle’s farewell with Mahler’s Sixth - Berliner Philharmoniker, Sir Simon Rattle - 2018 Blu-ray
Disc Size: 42,512,801,585 bytes
Protection: AACS
BD-Java: Yes
Playlist: 00000.MPLS
Size: 13,812,817,920 bytes
Length: 2:41:45.962
Total Bitrate: 11.39 Mbps
Video: MPEG-4 AVC Video / 950 kbps / 1080i / 29.970 fps / 16:9 / High Profile 4.1
Audio: German / LPCM Audio / 2.0 / 96 kHz / 4608 kbps / 24-bit
Audio: German / DTS-HD Master Audio / 5.1 / 96 kHz / 4969 kbps / 24-bit (DTS Core: 5.1 / 48 kHz / 1509 kbps / 24-bit)
********************
PLAYLIST: 00001.MPLS
********************

Код:

                                                                                Total   Video
Title                                                           Codec   Length  Movie Size      Disc Size       Bitrate Bitrate Main Audio Track                          Secondary Audio Track
-----                                                           ------  ------- --------------  --------------  ------- ------- ------------------                        ---------------------
00001.MPLS                                                      AVC     1:35:01 17,057,667,072  42,512,801,585  23.93   17.00   LPCM 2.0 1536Kbps (48kHz/16-bit)          DTS-HD Master 5.1 3869Kbps (48kHz/24-bit)

Код:
DISC INFO:
Disc Title:     Simon Rattle’s farewell with Mahler’s Sixth - Berliner Philharmoniker, Sir Simon Rattle - 2018 Blu-ray
Disc Size:      42,512,801,585 bytes
Protection:     AACS
BD-Java:        Yes
BDInfo:         0.7.1
PLAYLIST REPORT:
Name:                   00001.MPLS
Length:                 1:35:01.529 (h:m:s.ms)
Size:                   17,057,667,072 bytes
Total Bitrate:          23.93 Mbps
VIDEO:
Codec                   Bitrate             Description
-----                   -------             -----------
MPEG-4 AVC Video        16997 kbps          1080i / 29.970 fps / 16:9 / High Profile 4.1
AUDIO:
Codec                           Language        Bitrate         Description
-----                           --------        -------         -----------
LPCM Audio                      German          1536 kbps       2.0 / 48 kHz / 1536 kbps / 16-bit
DTS-HD Master Audio             German          3869 kbps       5.1 / 48 kHz / 3869 kbps / 24-bit (DTS Core: 5.1 / 48 kHz / 1509 kbps / 24-bit)
SUBTITLES:
Codec                           Language        Bitrate         Description
-----                           --------        -------         -----------
Presentation Graphics           German          0.008 kbps
Presentation Graphics           English         0.118 kbps
Presentation Graphics           Spanish         0.120 kbps
Presentation Graphics           Korean          0.090 kbps
Presentation Graphics           Japanese        0.099 kbps
FILES:
Name            Time In         Length          Size            Total Bitrate
----            -------         ------          ----            -------------
00003.M2TS      0:00:00.000     0:00:01.001     602,112         4,812
00005.M2TS      0:00:01.001     1:35:00.528     17,057,064,960  23,938
CHAPTERS:
Number          Time In         Length          Avg Video Rate  Max 1-Sec Rate  Max 1-Sec Time  Max 5-Sec Rate  Max 5-Sec Time  Max 10Sec Rate  Max 10Sec Time  Avg Frame Size  Max Frame Size  Max Frame Time
------          -------         ------          --------------  --------------  --------------  --------------  --------------  --------------  --------------  --------------  --------------  --------------
1               0:00:00.000     0:00:28.561     14,831 kbps     26,511 kbps     00:00:14.614    25,019 kbps     00:00:13.713    23,339 kbps     00:00:10.343    61,784 bytes    233,411 bytes   00:00:22.522
2               0:00:28.561     0:24:00.739     17,580 kbps     31,221 kbps     00:02:02.288    29,274 kbps     00:02:00.887    28,461 kbps     00:02:00.186    73,324 bytes    368,568 bytes   00:24:15.821
3               0:24:29.301     0:15:41.940     16,383 kbps     30,118 kbps     00:37:00.017    29,273 kbps     00:36:55.947    28,463 kbps     00:36:54.378    68,332 bytes    346,303 bytes   00:27:15.667
4               0:40:11.242     0:12:54.940     17,066 kbps     30,135 kbps     00:40:20.684    27,633 kbps     00:40:20.684    26,366 kbps     00:44:11.815    71,178 bytes    361,910 bytes   00:43:01.245
5               0:53:06.183     0:30:00.799     16,415 kbps     30,572 kbps     00:58:48.191    29,561 kbps     00:58:46.890    28,920 kbps     00:58:41.951    68,464 bytes    377,929 bytes   01:06:49.872
6               1:23:06.982     0:11:54.547     18,109 kbps     28,575 kbps     01:28:09.117    26,534 kbps     01:24:51.519    24,879 kbps     01:28:00.041    75,534 bytes    337,774 bytes   01:30:21.115
STREAM DIAGNOSTICS:
File            PID             Type            Codec           Language                Seconds                 Bitrate                 Bytes           Packets
----            ---             ----            -----           --------                --------------          --------------          -------------   -----
00003.M2TS      4113 (0x1011)   0x1B            AVC                                     0.868                   1,096                   118,874         650
00003.M2TS      4352 (0x1100)   0x80            LPCM            deu (German)            0.868                   1,778                   192,800         1,200
00003.M2TS      4353 (0x1101)   0x86            DTS-HD MA       deu (German)            0.868                   1,803                   195,520         1,222
00005.M2TS      4113 (0x1011)   0x1B            AVC                                     5700.395                17,000                  12,113,491,499  65,933,855
00005.M2TS      4352 (0x1100)   0x80            LPCM            deu (German)            5700.395                1,542                   1,099,042,904   6,840,516
00005.M2TS      4353 (0x1101)   0x86            DTS-HD MA       deu (German)            5700.395                3,869                   2,757,032,264   15,871,702
00005.M2TS      4608 (0x1200)   0x90            PGS             deu (German)            5700.395                0                       5,497           37
00005.M2TS      4609 (0x1201)   0x90            PGS             eng (English)           5700.395                0                       83,871          484
00005.M2TS      4610 (0x1202)   0x90            PGS             spa (Spanish)           5700.395                0                       85,812          496
00005.M2TS      4611 (0x1203)   0x90            PGS             kor (Korean)            5700.395                0                       64,178          377
00005.M2TS      4612 (0x1204)   0x90            PGS             jpn (Japanese)          5700.395                0                       70,716          414

QUICK SUMMARY:
Disc Title: Simon Rattle’s farewell with Mahler’s Sixth - Berliner Philharmoniker, Sir Simon Rattle - 2018 Blu-ray
Disc Size: 42,512,801,585 bytes
Protection: AACS
BD-Java: Yes
Playlist: 00001.MPLS
Size: 17,057,667,072 bytes
Length: 1:35:01.529
Total Bitrate: 23.93 Mbps
Video: MPEG-4 AVC Video / 16997 kbps / 1080i / 29.970 fps / 16:9 / High Profile 4.1
Audio: German / LPCM Audio / 2.0 / 48 kHz / 1536 kbps / 16-bit
Audio: German / DTS-HD Master Audio / 5.1 / 48 kHz / 3869 kbps / 24-bit (DTS Core: 5.1 / 48 kHz / 1509 kbps / 24-bit)
Subtitle: German / 0.008 kbps
Subtitle: English / 0.118 kbps
Subtitle: Spanish / 0.120 kbps
Subtitle: Korean / 0.090 kbps
Subtitle: Japanese / 0.099 kbps
********************
PLAYLIST: 00002.MPLS
********************

Код:

                                                                                Total   Video
Title                                                           Codec   Length  Movie Size      Disc Size       Bitrate Bitrate Main Audio Track                          Secondary Audio Track
-----                                                           ------  ------- --------------  --------------  ------- ------- ------------------                        ---------------------
00002.MPLS                                                      AVC     1:07:04 9,960,050,688   42,512,801,585  19.80   16.99   LPCM 2.0 1536Kbps (48kHz/16-bit)

Код:
DISC INFO:
Disc Title:     Simon Rattle’s farewell with Mahler’s Sixth - Berliner Philharmoniker, Sir Simon Rattle - 2018 Blu-ray
Disc Size:      42,512,801,585 bytes
Protection:     AACS
BD-Java:        Yes
BDInfo:         0.7.1
PLAYLIST REPORT:
Name:                   00002.MPLS
Length:                 1:07:04.553 (h:m:s.ms)
Size:                   9,960,050,688 bytes
Total Bitrate:          19.80 Mbps
VIDEO:
Codec                   Bitrate             Description
-----                   -------             -----------
MPEG-4 AVC Video        16994 kbps          1080i / 29.970 fps / 16:9 / High Profile 4.1
AUDIO:
Codec                           Language        Bitrate         Description
-----                           --------        -------         -----------
LPCM Audio                      English         1536 kbps       2.0 / 48 kHz / 1536 kbps / 16-bit
SUBTITLES:
Codec                           Language        Bitrate         Description
-----                           --------        -------         -----------
Presentation Graphics           German          26.049 kbps
Presentation Graphics           English         13.296 kbps
Presentation Graphics           Spanish         40.105 kbps
Presentation Graphics           Korean          27.293 kbps
Presentation Graphics           Japanese        25.325 kbps
FILES:
Name            Time In         Length          Size            Total Bitrate
----            -------         ------          ----            -------------
00004.M2TS      0:00:00.000     0:00:01.001     362,496         2,897
00006.M2TS      0:00:01.001     1:07:03.552     9,959,688,192   19,803
CHAPTERS:
Number          Time In         Length          Avg Video Rate  Max 1-Sec Rate  Max 1-Sec Time  Max 5-Sec Rate  Max 5-Sec Time  Max 10Sec Rate  Max 10Sec Time  Avg Frame Size  Max Frame Size  Max Frame Time
------          -------         ------          --------------  --------------  --------------  --------------  --------------  --------------  --------------  --------------  --------------  --------------
1               0:00:00.000     1:07:04.553     16,994 kbps     46,416 kbps     00:00:17.384    35,578 kbps     00:00:10.010    34,102 kbps     01:06:01.924    70,878 bytes    467,554 bytes   01:00:24.787
STREAM DIAGNOSTICS:
File            PID             Type            Codec           Language                Seconds                 Bitrate                 Bytes           Packets
----            ---             ----            -----           --------                --------------          --------------          -------------   -----
00004.M2TS      4113 (0x1011)   0x1B            AVC                                     0.868                   1,096                   118,874         650
00004.M2TS      4352 (0x1100)   0x80            LPCM            eng (English)           0.868                   1,778                   192,800         1,200
00006.M2TS      4113 (0x1011)   0x1B            AVC                                     4023.419                16,998                  8,548,843,210   46,531,557
00006.M2TS      4352 (0x1100)   0x80            LPCM            eng (English)           4023.419                1,542                   775,741,404     4,828,266
00006.M2TS      4608 (0x1200)   0x90            PGS             deu (German)            4023.419                26                      13,104,365      73,967
00006.M2TS      4609 (0x1201)   0x90            PGS             eng (English)           4023.419                13                      6,688,683       38,014
00006.M2TS      4610 (0x1202)   0x90            PGS             spa (Spanish)           4023.419                40                      20,175,460      114,054
00006.M2TS      4611 (0x1203)   0x90            PGS             kor (Korean)            4023.419                27                      13,730,177      79,048
00006.M2TS      4612 (0x1204)   0x90            PGS             jpn (Japanese)          4023.419                25                      12,740,220      73,675

QUICK SUMMARY:
Disc Title: Simon Rattle’s farewell with Mahler’s Sixth - Berliner Philharmoniker, Sir Simon Rattle - 2018 Blu-ray
Disc Size: 42,512,801,585 bytes
Protection: AACS
BD-Java: Yes
Playlist: 00002.MPLS
Size: 9,960,050,688 bytes
Length: 1:07:04.553
Total Bitrate: 19.80 Mbps
Video: MPEG-4 AVC Video / 16994 kbps / 1080i / 29.970 fps / 16:9 / High Profile 4.1
Audio: English / LPCM Audio / 2.0 / 48 kHz / 1536 kbps / 16-bit
Subtitle: German / 26.049 kbps
Subtitle: English / 13.296 kbps
Subtitle: Spanish / 40.105 kbps
Subtitle: Korean / 27.293 kbps
Subtitle: Japanese / 25.325 kbps
********************
PLAYLIST: 00003.MPLS
********************

Код:

                                                                                Total   Video
Title                                                           Codec   Length  Movie Size      Disc Size       Bitrate Bitrate Main Audio Track                          Secondary Audio Track
-----                                                           ------  ------- --------------  --------------  ------- ------- ------------------                        ---------------------
00003.MPLS                                                      AVC     0:09:40 1,439,342,592   42,512,801,585  19.82   16.97   LPCM 2.0 1536Kbps (48kHz/16-bit)

Код:
DISC INFO:
Disc Title:     Simon Rattle’s farewell with Mahler’s Sixth - Berliner Philharmoniker, Sir Simon Rattle - 2018 Blu-ray
Disc Size:      42,512,801,585 bytes
Protection:     AACS
BD-Java:        Yes
BDInfo:         0.7.1
PLAYLIST REPORT:
Name:                   00003.MPLS
Length:                 0:09:40.846 (h:m:s.ms)
Size:                   1,439,342,592 bytes
Total Bitrate:          19.82 Mbps
VIDEO:
Codec                   Bitrate             Description
-----                   -------             -----------
MPEG-4 AVC Video        16965 kbps          1080i / 29.970 fps / 16:9 / High Profile 4.1
AUDIO:
Codec                           Language        Bitrate         Description
-----                           --------        -------         -----------
LPCM Audio                      English         1536 kbps       2.0 / 48 kHz / 1536 kbps / 16-bit
SUBTITLES:
Codec                           Language        Bitrate         Description
-----                           --------        -------         -----------
Presentation Graphics           German          56.901 kbps
Presentation Graphics           English         0.076 kbps
Presentation Graphics           Spanish         55.217 kbps
Presentation Graphics           Korean          36.986 kbps
Presentation Graphics           Japanese        34.361 kbps
FILES:
Name            Time In         Length          Size            Total Bitrate
----            -------         ------          ----            -------------
00004.M2TS      0:00:00.000     0:00:01.001     362,496         2,897
00007.M2TS      0:00:01.001     0:09:39.845     1,438,980,096   19,853
CHAPTERS:
Number          Time In         Length          Avg Video Rate  Max 1-Sec Rate  Max 1-Sec Time  Max 5-Sec Rate  Max 5-Sec Time  Max 10Sec Rate  Max 10Sec Time  Avg Frame Size  Max Frame Size  Max Frame Time
------          -------         ------          --------------  --------------  --------------  --------------  --------------  --------------  --------------  --------------  --------------  --------------
1               0:00:00.000     0:09:40.846     16,965 kbps     20,402 kbps     00:07:58.144    18,317 kbps     00:07:56.275    17,978 kbps     00:07:51.037    70,760 bytes    208,758 bytes   00:09:14.554
STREAM DIAGNOSTICS:
File            PID             Type            Codec           Language                Seconds                 Bitrate                 Bytes           Packets
----            ---             ----            -----           --------                --------------          --------------          -------------   -----
00004.M2TS      4113 (0x1011)   0x1B            AVC                                     0.868                   1,096                   118,874         650
00004.M2TS      4352 (0x1100)   0x80            LPCM            eng (English)           0.868                   1,778                   192,800         1,200
00007.M2TS      4113 (0x1011)   0x1B            AVC                                     579.746                 16,996                  1,231,662,706   6,703,991
00007.M2TS      4352 (0x1100)   0x80            LPCM            eng (English)           579.746                 1,543                   111,794,116     695,814
00007.M2TS      4608 (0x1200)   0x90            PGS             deu (German)            579.746                 57                      4,131,333       23,204
00007.M2TS      4609 (0x1201)   0x90            PGS             eng (English)           579.746                 0                       5,497           37
00007.M2TS      4610 (0x1202)   0x90            PGS             spa (Spanish)           579.746                 55                      4,009,112       22,541
00007.M2TS      4611 (0x1203)   0x90            PGS             kor (Korean)            579.746                 37                      2,685,381       15,342
00007.M2TS      4612 (0x1204)   0x90            PGS             jpn (Japanese)          579.746                 34                      2,494,818       14,310

QUICK SUMMARY:
Disc Title: Simon Rattle’s farewell with Mahler’s Sixth - Berliner Philharmoniker, Sir Simon Rattle - 2018 Blu-ray
Disc Size: 42,512,801,585 bytes
Protection: AACS
BD-Java: Yes
Playlist: 00003.MPLS
Size: 1,439,342,592 bytes
Length: 0:09:40.846
Total Bitrate: 19.82 Mbps
Video: MPEG-4 AVC Video / 16965 kbps / 1080i / 29.970 fps / 16:9 / High Profile 4.1
Audio: English / LPCM Audio / 2.0 / 48 kHz / 1536 kbps / 16-bit
Subtitle: German / 56.901 kbps
Subtitle: English / 0.076 kbps
Subtitle: Spanish / 55.217 kbps
Subtitle: Korean / 36.986 kbps
Subtitle: Japanese / 34.361 kbps
                                                                                       
                       
                       
                       
                       
                       
                                 磁力下载(论坛代下载服务)
                                                               
                                       
游客,本主题需向作者支付 10金币 才能浏览,金币充值, 免回复、免金币,直接查看内容请开通VIP支付

                                               
  • 39.59 GB
  • 温馨提示

    记得善用社区搜索功能,那里可能会有你想要的资源;论坛站内搜索

    如果你有什么需要的资源可以去资源求档发帖,求助社区的网友,我们会在第一时间给你回复哦;资源求档

    对于本社区网盘链接失效密码错误各种报错请在反馈板块反馈报错发帖,您的支持,是我们发展的最大动力;投诉建议

    回复

    使用道具 举报

    您需要登录后才可以回帖 登录 | 立即注册 微信登录

    本版积分规则

    关注0

    粉丝3

    帖子50909

    发布主题
    阅读排行更多+
    关闭

    站长推荐上一条 /1 下一条

    收藏帖子 返回列表 这是一个自定义按钮
    音乐分享,音乐下载。
    微信公众号
    微信号:maomiyinyue
    意见反馈:[email protected]

    加入我们的官方QQ群和微信群

    Powered by Discuz! X3.4 Archiver|手机版|小黑屋|猫咪音乐网 ( 苏ICP备20015413号 )|( 苏公网安备 32030502000272号) 繁體

    JS of wanmeiff.com and vcpic.com Please keep this copyright information, respect of, thank you!JS of wanmeiff.com and vcpic.com Please keep this copyright information, respect of, thank you!

    GMT+8, 2021-1-28 10:52