自购原抓音乐圈:只有自购、合购、原抓级高解析(hires、sacd、dsd)正版音乐资源分享!【点我打开
极速无线网卡:千兆无线网卡、服务器网卡、USB接口台式机笔记本网卡 千兆网线 厂家批发价格最低!【点我打开
广告

[古典音乐] Dutilleux,Zimmann,Liebermann,Caccini,Messiaen,Wagner,Rihm,Beethoven - Eröffnungskonzertder elbphilharmonie(Thomas Hengelbrock,NDR elbphilharmonie Orchester,Philippe Jaroussky,Sir

[复制链接]
韬199435 发表于 2020-12-20 20:46:24 | 显示全部楼层 |阅读模式 打印 上一主题 下一主题
Dutilleux, Zimmermann, Liebermann, Caccini, Messiaen, Wagner, Rihm, Beethoven - Eröffnungskonzert der Elbphilharmonie
Год выпуска: 2017
Лейбл: NDR
Жанр: Classical
Продолжительность: 01:55:43
Режиссер: Henning Kasten
Исполнители:
Thomas Hengelbrock - dirigent
Philippe Jaroussky - contertenor
Hanna-Elisabeth Müller - sopran
Wiebke Lehmkuhl - mezzosopran
Pavol Breslik - tenor
Sir Bryn Terfel - bassbariton
Iveta Apkalna - Orgel
Kalev Kuljus - Oboe
Margret Köll - Harfe
Thomas Bloch - Ondes Martenot
Xie Ya-ou - Klavier
NDR Elbphilharmonie Orchester
NDR Chor
Chor des Bayerischen Rundfunks
Ensemble Praetorius
Треклист:
Eröffnungskonzert der Elbphilharmonie in Hamburg, 11./12.01.2017
Часть 1
• Benjamin Britten - "Pan" extrait de : Six métamorphoses d'après Ovide op. 49
• Henri Dutilleux - Mystère de l'instant
• Emilio de' Cavalieri / Antonio Archilei - "Dalle più alte sfere" extrait de "La Pellegrina"
• Bernd Alois Zimmermann - "Photoptosis", Prélude pour grand orchestre
• Jakob Praetorius - Motet "Quam pulchra es"
• Rolf Liebermann - Furioso
• Giulio Caccini - "Amarilli mia bella", extrait de "Le nuove musiche"
• Olivier Messiaen - Turangalîla-Symphonie, Finale
Часть 2
• Richard Wagner - Prélude de "Parsifal"
• Wolfgang Rihm - Reminiszenz / Triptychon und Spruch in memorian Hans Henny Jahnn / Uraufführung / Auftragswerk des NDR
• Ludwig van Beethoven - Symphonie n° 9 op. 125, Finale
Качество видео: HDTV 720p
Формат/Контейнер: TS
Видео кодек: H.264
Аудио кодек: AC3
Видео поток: AVC, 1280x720 (16:9), 50.000 fps, 9 047 - 10 400 Kbps
Аудио поток: AC-3, 48.0 KHz, 6 ch, 448 Kbps
Mediainfo Part 1

General
ID                                       : 1025 (0x401)
Complete name                            : N:\Elbphilharmonie Opening Concert\Part 1.ts
Format                                   : MPEG-TS
File size                                : 3.79 GiB
Duration                                 : 54 min 15 s
Overall bit rate mode                    : Variable
Overall bit rate                         : 9 994 kb/s
Video
ID                                       : 5221 (0x1465)
Menu ID                                  : 10329 (0x2859)
Format                                   : AVC
Format/Info                              : Advanced Video Codec
Format profile                           : High@L4
Format settings, CABAC                   : Yes
Format settings, ReFrames                : 4 frames
Format settings, GOP                     : M=8, N=32
Codec ID                                 : 27
Duration                                 : 54 min 15 s
Bit rate                                 : 9 047 kb/s
Width                                    : 1 280 pixels
Height                                   : 720 pixels
Display aspect ratio                     : 16:9
Frame rate                               : 50.000 FPS
Color space                              : YUV
Chroma subsampling                       : 4:2:0
Bit depth                                : 8 bits
Scan type                                : Progressive
Bits/(Pixel*Frame)                       : 0.196
Stream size                              : 3.43 GiB (91%)
Audio
ID                                       : 5226 (0x146A)
Menu ID                                  : 10329 (0x2859)
Format                                   : AC-3
Format/Info                              : Audio Coding 3
Mode extension                           : CM (complete main)
Format settings, Endianness              : Big
Codec ID                                 : 6
Duration                                 : 54 min 15 s
Bit rate mode                            : Constant
Bit rate                                 : 448 kb/s
Channel(s)                               : 6 channels
Channel positions                        : Front: L C R, Side: L R, LFE
Sampling rate                            : 48.0 kHz
Frame rate                               : 31.250 FPS (1536 spf)
Compression mode                         : Lossy
Delay relative to video                  : 104 ms
Stream size                              : 174 MiB (4%)
Language                                 : German

Mediainfo Part 2

General
ID                                       : 1025 (0x401)
Complete name                            : N:\Elbphilharmonie Opening Concert\Part 2.ts
Format                                   : MPEG-TS
File size                                : 4.92 GiB
Duration                                 : 1 h 1 min
Overall bit rate mode                    : Variable
Overall bit rate                         : 11.4 Mb/s
Video
ID                                       : 5221 (0x1465)
Menu ID                                  : 10329 (0x2859)
Format                                   : AVC
Format/Info                              : Advanced Video Codec
Format profile                           : High@L4
Format settings, CABAC                   : Yes
Format settings, ReFrames                : 4 frames
Format settings, GOP                     : M=8, N=32
Codec ID                                 : 27
Duration                                 : 1 h 1 min
Bit rate                                 : 10.4 Mb/s
Width                                    : 1 280 pixels
Height                                   : 720 pixels
Display aspect ratio                     : 16:9
Frame rate                               : 50.000 FPS
Color space                              : YUV
Chroma subsampling                       : 4:2:0
Bit depth                                : 8 bits
Scan type                                : Progressive
Bits/(Pixel*Frame)                       : 0.226
Stream size                              : 4.48 GiB (91%)
Audio
ID                                       : 5226 (0x146A)
Menu ID                                  : 10329 (0x2859)
Format                                   : AC-3
Format/Info                              : Audio Coding 3
Mode extension                           : CM (complete main)
Format settings, Endianness              : Big
Codec ID                                 : 6
Duration                                 : 1 h 1 min
Bit rate mode                            : Constant
Bit rate                                 : 448 kb/s
Channel(s)                               : 6 channels
Channel positions                        : Front: L C R, Side: L R, LFE
Sampling rate                            : 48.0 kHz
Frame rate                               : 31.250 FPS (1536 spf)
Compression mode                         : Lossy
Delay relative to video                  : 78 ms
Stream size                              : 197 MiB (4%)
Language                                 : German

Скриншоты



































                                                                                       
                       
                       
                       
                       
                       
                                 磁力下载(论坛代下载服务)
                                                               
                                       
游客,本主题需向作者支付 10金币 才能浏览,金币充值, 免回复、免金币,直接查看内容请开通VIP支付

                                               
  • 8.7 GB
  • 温馨提示

    记得善用社区搜索功能,那里可能会有你想要的资源;论坛站内搜索

    如果你有什么需要的资源可以去资源求档发帖,求助社区的网友,我们会在第一时间给你回复哦;资源求档

    对于本社区网盘链接失效密码错误各种报错请在反馈板块反馈报错发帖,您的支持,是我们发展的最大动力;投诉建议

    回复

    使用道具 举报

    您需要登录后才可以回帖 登录 | 立即注册 微信登录

    本版积分规则

    关注0

    粉丝0

    帖子29332

    发布主题
    阅读排行更多+
    关闭

    站长推荐上一条 /1 下一条

    收藏帖子 返回列表 这是一个自定义按钮
    音乐分享,音乐下载。
    微信公众号
    微信号:maomiyinyue
    意见反馈:admin@maomicd.com

    加入我们的官方QQ群和微信群

    Powered by Discuz! X3.4 Archiver|手机版|小黑屋|猫咪音乐网 ( 苏ICP备20015413号 )|( 苏公网安备 32030502000272号) 繁體

    JS of wanmeiff.com and vcpic.com Please keep this copyright information, respect of, thank you!JS of wanmeiff.com and vcpic.com Please keep this copyright information, respect of, thank you!

    GMT+8, 2021-1-20 02:19