自购原抓音乐圈:只有自购、合购、原抓级高解析(hires、sacd、dsd)正版音乐资源分享!【点我打开
极速无线网卡:千兆无线网卡、服务器网卡、USB接口台式机笔记本网卡 千兆网线 厂家批发价格最低!【点我打开
广告

[古典音乐] Mahler - Symphony No.6(Claudio Abbado - Lucerne Festival Orchestra)[2006,古典,Bdrip,720p]

[复制链接]
fqw1001 发表于 2020-12-20 20:46:24 | 显示全部楼层 |阅读模式 打印 上一主题 下一主题
Mahler - Symphony No.6
Год выпуска: 2006
Лейбл: EuroArts
Страна-производитель: USA
Жанр: Classical
Продолжительность: 89 minsИсполнители:
Eteri Gvazava
Lucerne Festival Orchestra
Orfeón Donostiarra
Anna LarssonОписание: The imposing experience of Mahler's No. 6 is captured live in a performance of awesome silences and towering climaxes with the Lucerne Festival Orchestra and Claudio Abbado. Claudio Abbado has realised a dream with his new Lucerne Festival Orchestra. The orchestra, an exclusive ensemble of handpicked orchestral musicians, opens up new dimensions in the interpretation of symphonic music with exceptional soloists such as violinist Kolja Blacher, cellist Natalia Gutman and clarinettist Sabine Meyer filling the first desksКачество видео: BDRip
Формат/Контейнер: MKV
Видео кодек: H.264
Аудио кодек: DTS
Видео поток: 1280x720 / 5528 Kbps / 16:9
Аудио поток: 1510 Kbps / 6 channels / Front: L C R, Side: L R, LFE
Доп. информация: Сохранены оригинальные чаптеры как на Blu-ray
Скриншоты













MediaInfo
General
Unique ID : 253853074688285302902595671670575737639 (0xBEFA52E4AAF5525D835315BB1F862B27)
Complete name : Mahler.Symphony.No.6.Blu-ray.720p.x264-KBu.mkv
Format : Matroska
File size : 4.37 GiB
Duration : 1h 29mn
Overall bit rate : 7 035 Kbps
Encoded date : UTC 2011-02-27 08:40:07
Writing application : mkvmerge v3.4.0 ('Rapunzel') 编译于 May 15 2010 09:38:20
Writing library : libebml v0.8.0 + libmatroska v0.9.0
Video
ID : 1
Format : AVC
Format/Info : Advanced Video Codec
Format profile : High@L4.1
Format settings, CABAC : Yes
Format settings, ReFrames : 5 frames
Codec ID : V_MPEG4/ISO/AVC
Duration : 1h 29mn
Bit rate : 5 528 Kbps
Width : 1 280 pixels
Height : 720 pixels
Display aspect ratio : 16:9
Frame rate : 25.000 fps
Color space : YUV
Chroma subsampling : 4:2:0
Bit depth : 8 bits
Scan type : Progressive
Bits/(Pixel*Frame) : 0.240
Stream size : 3.35 GiB (77%)
Title : Mahler - Symphony No.6
Writing library : x264 core 98 r1649 c54c47d
Encoding settings : cabac=1 / ref=5 / deblock=1:0:0 / analyse=0x3:0x133 / me=umh / subme=7 / psy=1 / psy_rd=1.00:0.00 / mixed_ref=1 / me_range=16 / chroma_me=1 / trellis=1 / 8x8dct=1 / cqm=0 / deadzone=21,11 / fast_pskip=1 / chroma_qp_offset=-2 / threads=3 / sliced_threads=0 / nr=0 / decimate=1 / interlaced=0 / constrained_intra=0 / bframes=3 / b_pyramid=0 / b_adapt=2 / b_bias=0 / direct=3 / weightb=1 / weightp=2 / keyint=250 / keyint_min=25 / scenecut=40 / intra_refresh=0 / rc_lookahead=60 / rc=2pass / mbtree=0 / bitrate=5528 / ratetol=1.0 / qcomp=0.60 / qpmin=10 / qpmax=51 / qpstep=4 / cplxblur=20.0 / qblur=0.5 / vbv_maxrate=50000 / vbv_bufsize=50000 / ip_ratio=1.40 / pb_ratio=1.30 / aq=1:1.00 / nal_hrd=none
Audio
ID : 2
Format : DTS
Format/Info : Digital Theater Systems
Codec ID : A_DTS
Duration : 1h 29mn
Bit rate mode : Constant
Bit rate : 1 510 Kbps
Channel(s) : 6 channels
Channel positions : Front: L C R, Side: L R, LFE
Sampling rate : 48.0 KHz
Bit depth : 24 bits
Compression mode : Lossy
Stream size : 961 MiB (21%)
Title : DTS
Menu
00:00:00.000 : :Opening
00:00:50.817 : :1.Allegro energico, ma non troppo.
00:24:44.715 : :2.Andante moderato
00:39:42.980 : :3.Scherzo: Wuchtig
00:52:46.029 : :4.Finale: Allegro moderato
01:26:02.957 : :Credits
                                                                                       
                       
                       
                       
                       
                       
                                 磁力下载(论坛代下载服务)
                                                               
                                       
游客,本主题需向作者支付 10金币 才能浏览,金币充值, 免回复、免金币,直接查看内容请开通VIP支付

                                               
  • 4.37 GB
  • 温馨提示

    记得善用社区搜索功能,那里可能会有你想要的资源;论坛站内搜索

    如果你有什么需要的资源可以去资源求档发帖,求助社区的网友,我们会在第一时间给你回复哦;资源求档

    对于本社区网盘链接失效密码错误各种报错请在反馈板块反馈报错发帖,您的支持,是我们发展的最大动力;投诉建议

    回复

    使用道具 举报

    您需要登录后才可以回帖 登录 | 立即注册 微信登录

    本版积分规则

    关注0

    粉丝0

    帖子29130

    发布主题
    阅读排行更多+
    关闭

    站长推荐上一条 /1 下一条

    收藏帖子 返回列表 这是一个自定义按钮
    音乐分享,音乐下载。
    微信公众号
    微信号:maomiyinyue
    意见反馈:admin@maomicd.com

    加入我们的官方QQ群和微信群

    Powered by Discuz! X3.4 Archiver|手机版|小黑屋|猫咪音乐网 ( 苏ICP备20015413号 )|( 苏公网安备 32030502000272号) 繁體

    JS of wanmeiff.com and vcpic.com Please keep this copyright information, respect of, thank you!JS of wanmeiff.com and vcpic.com Please keep this copyright information, respect of, thank you!

    GMT+8, 2021-1-23 00:50