自购原抓音乐圈:只有自购、合购、原抓级高解析(hires、sacd、dsd)正版音乐资源分享!【点我打开
极速无线网卡:千兆无线网卡、服务器网卡、USB接口台式机笔记本网卡 千兆网线 厂家批发价格最低!【点我打开
广告

[古典音乐] 亚洲之旅 - 柏林爱尔兰,爵士拨浪鼓爵士,玉柏王,王王[2018,古典,蓝光]

[复制链接]
tikus75 发表于 2020-12-20 20:46:24 | 显示全部楼层 |阅读模式 打印 上一主题 下一主题
The Asia Tour - Berliner Philharmoniker, Sir Simon Rattle, Seong-Jin Cho, Yuja Wang
Год выпуска: 2018
Лейбл: Berliner Philharmoniker
Страна-производитель: EU
Жанр: Classical
Продолжительность: 01:19:29 + 00:55:00 + 01:45:08 + 00:27:17
Язык: Undetermined
Субтитры: English, German, Spanish, Chinese, Korean, Japanese (Bonus Track Only)
Исполнители: Berliner Philharmoniker, Sir Simon Rattle, Seong-Jin Cho, Yuja Wang
Треклист:
Ravel: Piano Concerto in G major Seong-Jin Cho (piano)
Strauss, R: Don Juan, Op. 20
Bartók: Piano Concerto No. 2, BB 101, Sz. 95 Yuja Wang (piano)
Brahms: Symphony No. 4 in E minor, Op. 98
Stravinsky: Petrushka
Chin, U: Chorós Chordón
Rachmaninov: Symphony No. 3 in A minor, Op. 44Berliner Philharmoniker
Sir Simon RattleДоп. информация: Bonus video: Documentary: The Berliner Philharmoniker in Asia. A Tour Diary« (28 mins)
Качество видео: Blu-ray
Формат/Контейнер: BDMV
Видео кодек: H.264
Аудио кодек: PCM + DTS
Видео поток: MPEG-4 AVC Video / 15998 kbps / 1080i / 29.970 fps / 16:9 / High Profile 4.1
Аудио поток #1: Undetermined / LPCM Audio / 2.0 / 48 kHz / 2304 kbps / 24-bit
Аудио поток #2: Undetermined / DTS-HD Master Audio / 5.1 / 48 kHz / 3685 kbps / 24-bit (DTS Core: 5.1 / 48 kHz / 1509 kbps / 24-bit)
Box


Скриншоты













BDInfo
Disc Title: THE_ASIA_TOUR
Disc Size: 47,158,578,518 bytes
Protection: AACS
BD-Java: No
BDInfo: 0.7.1
Notes:
BDINFO HOME:
Cinema Squid
http://www.cinemasquid.com/blu-ray/tools/bdinfo
INCLUDES FORUMS REPORT FOR:
AVS Forum Blu-ray Audio and Video Specifications Thread
http://www.avsforum.com/avs-vb/showthread.php?t=1155731
********************
PLAYLIST: 00005.MPLS
********************

Код:

                                                                                Total   Video
Title                                                           Codec   Length  Movie Size      Disc Size       Bitrate Bitrate Main Audio Track                          Secondary Audio Track
-----                                                           ------  ------- --------------  --------------  ------- ------- ------------------                        ---------------------
00005.MPLS                                                      AVC     1:46:12 18,572,525,568  47,158,578,518  23.31   16.00   LPCM 2.0 2304Kbps (48kHz/24-bit)          DTS-HD Master 5.1 3685Kbps (48kHz/24-bit)

Код:
DISC INFO:
Disc Title:     THE_ASIA_TOUR
Disc Size:      47,158,578,518 bytes
Protection:     AACS
BD-Java:        No
BDInfo:         0.7.1
PLAYLIST REPORT:
Name:                   00005.MPLS
Length:                 1:46:12.833 (h:m:s.ms)
Size:                   18,572,525,568 bytes
Total Bitrate:          23.31 Mbps
VIDEO:
Codec                   Bitrate             Description
-----                   -------             -----------
MPEG-4 AVC Video        15998 kbps          1080i / 29.970 fps / 16:9 / High Profile 4.1
AUDIO:
Codec                           Language        Bitrate         Description
-----                           --------        -------         -----------
LPCM Audio                      Undetermined    2304 kbps       2.0 / 48 kHz / 2304 kbps / 24-bit
DTS-HD Master Audio             Undetermined    3685 kbps       5.1 / 48 kHz / 3685 kbps / 24-bit (DTS Core: 5.1 / 48 kHz / 1509 kbps / 24-bit)
FILES:
Name            Time In         Length          Size            Total Bitrate
----            -------         ------          ----            -------------
00000.M2TS      0:00:00.000     0:19:29.568     3,410,300,928   23,327
00004.M2TS      0:19:29.568     0:35:30.795     6,187,352,064   23,230
00002.M2TS      0:55:00.363     0:51:12.135     8,974,860,288   23,371
00005.M2TS      1:46:12.499     0:00:00.333     12,288          295
CHAPTERS:
Number          Time In         Length          Avg Video Rate  Max 1-Sec Rate  Max 1-Sec Time  Max 5-Sec Rate  Max 5-Sec Time  Max 10Sec Rate  Max 10Sec Time  Avg Frame Size  Max Frame Size  Max Frame Time
------          -------         ------          --------------  --------------  --------------  --------------  --------------  --------------  --------------  --------------  --------------  --------------
1               0:00:00.000     0:00:46.046     10,447 kbps     35,799 kbps     00:00:22.655    26,930 kbps     00:00:21.054    22,996 kbps     00:00:20.053    43,542 bytes    395,974 bytes   00:00:25.258
2               0:00:46.046     0:17:41.060     16,288 kbps     27,445 kbps     00:03:48.561    25,819 kbps     00:03:48.561    24,401 kbps     00:03:48.461    67,934 bytes    395,952 bytes   00:08:28.875
3               0:18:27.106     0:01:02.462     15,180 kbps     30,893 kbps     00:19:00.772    25,637 kbps     00:18:59.571    22,626 kbps     00:18:59.738    63,312 bytes    400,057 bytes   00:19:09.748
4               0:19:29.568     0:00:48.048     14,049 kbps     36,884 kbps     00:19:56.762    23,152 kbps     00:19:52.791    20,892 kbps     00:19:47.886    58,598 bytes    391,097 bytes   00:19:57.763
5               0:20:17.616     0:09:32.571     15,933 kbps     28,075 kbps     00:28:41.252    22,918 kbps     00:29:42.280    21,340 kbps     00:26:49.307    66,455 bytes    427,044 bytes   00:20:37.035
6               0:29:50.188     0:11:56.716     15,661 kbps     29,694 kbps     00:30:20.051    26,445 kbps     00:30:16.047    25,697 kbps     00:30:12.644    65,319 bytes    597,634 bytes   00:30:21.853
7               0:41:46.904     0:05:59.358     16,485 kbps     26,690 kbps     00:42:50.401    23,924 kbps     00:42:48.465    21,633 kbps     00:42:46.530    68,757 bytes    394,791 bytes   00:43:38.949
8               0:47:46.263     0:02:41.161     18,753 kbps     29,664 kbps     00:48:17.494    26,570 kbps     00:48:13.457    24,483 kbps     00:48:08.452    78,214 bytes    665,809 bytes   00:48:56.266
9               0:50:27.424     0:03:25.171     14,146 kbps     21,856 kbps     00:50:31.228    18,799 kbps     00:50:28.825    18,656 kbps     00:53:27.604    59,000 bytes    507,345 bytes   00:50:42.739
10              0:53:52.596     0:01:07.767     17,975 kbps     34,771 kbps     00:54:33.303    28,647 kbps     00:54:31.468    24,049 kbps     00:54:28.932    74,970 bytes    436,053 bytes   00:54:35.105
11              0:55:00.363     0:00:40.039     13,399 kbps     40,411 kbps     00:55:12.342    26,349 kbps     00:55:12.208    22,799 kbps     00:55:12.275    55,885 bytes    484,083 bytes   00:55:16.379
12              0:55:40.403     0:13:18.797     15,908 kbps     26,874 kbps     01:07:55.838    24,497 kbps     00:57:05.555    23,800 kbps     00:56:58.948    66,349 bytes    492,209 bytes   01:06:25.715
13              1:08:59.201     0:11:50.710     15,446 kbps     26,702 kbps     01:16:33.355    24,495 kbps     01:16:15.037    24,191 kbps     01:16:10.032    64,424 bytes    530,425 bytes   01:16:29.451
14              1:20:49.911     0:06:19.378     16,574 kbps     27,258 kbps     01:23:13.355    24,697 kbps     01:26:49.871    22,247 kbps     01:22:16.798    69,126 bytes    341,809 bytes   01:24:20.021
15              1:27:09.290     0:09:42.415     16,607 kbps     27,007 kbps     01:34:18.152    25,428 kbps     01:34:14.148    24,757 kbps     01:34:10.144    69,264 bytes    399,823 bytes   01:34:20.154
16              1:36:51.705     0:02:44.998     15,915 kbps     29,910 kbps     01:39:11.245    25,333 kbps     01:38:16.156    22,842 kbps     01:38:13.554    66,378 bytes    374,306 bytes   01:37:01.348
17              1:39:36.704     0:05:19.318     16,196 kbps     24,727 kbps     01:42:54.168    22,579 kbps     01:42:05.285    21,738 kbps     01:42:05.085    67,550 bytes    444,586 bytes   01:42:00.681
18              1:44:56.023     0:01:16.810     15,284 kbps     30,154 kbps     01:45:29.089    25,533 kbps     01:45:44.171    20,710 kbps     01:45:43.470    63,774 bytes    403,553 bytes   01:45:51.878
STREAM DIAGNOSTICS:
File            PID             Type            Codec           Language                Seconds                 Bitrate                 Bytes           Packets
----            ---             ----            -----           --------                --------------          --------------          -------------   -----
00000.M2TS      4113 (0x1011)   0x1B            AVC                                     1169.502                16,000                  2,338,962,991   12,732,274
00000.M2TS      4352 (0x1100)   0x80            LPCM            und (Undetermined)      1169.502                2,311                   337,768,928     1,871,296
00000.M2TS      4353 (0x1101)   0x86            DTS-HD MA       und (Undetermined)      1169.502                3,696                   540,353,132     3,119,210
00004.M2TS      4113 (0x1011)   0x1B            AVC                                     2130.662                15,999                  4,261,154,548   23,195,719
00004.M2TS      4352 (0x1100)   0x80            LPCM            und (Undetermined)      2130.662                2,311                   615,376,484     3,409,288
00004.M2TS      4353 (0x1101)   0x86            DTS-HD MA       und (Undetermined)      2130.662                3,604                   959,951,864     5,549,355
00002.M2TS      4113 (0x1011)   0x1B            AVC                                     3072.036                16,000                  6,144,058,619   33,445,465
00002.M2TS      4352 (0x1100)   0x80            LPCM            und (Undetermined)      3072.036                2,310                   887,229,700     4,915,400
00002.M2TS      4353 (0x1101)   0x86            DTS-HD MA       und (Undetermined)      3072.036                3,738                   1,435,252,700   8,280,240
00005.M2TS      4113 (0x1011)   0x1B            AVC                                     0.200                   244                     6,107           41

QUICK SUMMARY:
Disc Title: THE_ASIA_TOUR
Disc Size: 47,158,578,518 bytes
Protection: AACS
BD-Java: No
Playlist: 00005.MPLS
Size: 18,572,525,568 bytes
Length: 1:46:12.833
Total Bitrate: 23.31 Mbps
Video: MPEG-4 AVC Video / 15998 kbps / 1080i / 29.970 fps / 16:9 / High Profile 4.1
Audio: Undetermined / LPCM Audio / 2.0 / 48 kHz / 2304 kbps / 24-bit
Audio: Undetermined / DTS-HD Master Audio / 5.1 / 48 kHz / 3685 kbps / 24-bit (DTS Core: 5.1 / 48 kHz / 1509 kbps / 24-bit)
********************
PLAYLIST: 00006.MPLS
********************

Код:

                                                                                Total   Video
Title                                                           Codec   Length  Movie Size      Disc Size       Bitrate Bitrate Main Audio Track                          Secondary Audio Track
-----                                                           ------  ------- --------------  --------------  ------- ------- ------------------                        ---------------------
00006.MPLS                                                      AVC     1:45:08 18,297,341,952  47,158,578,518  23.20   16.00   LPCM 2.0 2304Kbps (48kHz/24-bit)          DTS-HD Master 5.1 3578Kbps (48kHz/24-bit)

Код:
DISC INFO:
Disc Title:     THE_ASIA_TOUR
Disc Size:      47,158,578,518 bytes
Protection:     AACS
BD-Java:        No
BDInfo:         0.7.1
PLAYLIST REPORT:
Name:                   00006.MPLS
Length:                 1:45:08.402 (h:m:s.ms)
Size:                   18,297,341,952 bytes
Total Bitrate:          23.20 Mbps
VIDEO:
Codec                   Bitrate             Description
-----                   -------             -----------
MPEG-4 AVC Video        15999 kbps          1080i / 29.970 fps / 16:9 / High Profile 4.1
AUDIO:
Codec                           Language        Bitrate         Description
-----                           --------        -------         -----------
LPCM Audio                      Undetermined    2304 kbps       2.0 / 48 kHz / 2304 kbps / 24-bit
DTS-HD Master Audio             Undetermined    3578 kbps       5.1 / 48 kHz / 3578 kbps / 24-bit (DTS Core: 5.1 / 48 kHz / 1509 kbps / 24-bit)
FILES:
Name            Time In         Length          Size            Total Bitrate
----            -------         ------          ----            -------------
00011.M2TS      0:00:00.000     0:37:47.164     6,567,997,440   23,176
00009.M2TS      0:37:47.164     0:15:12.544     2,668,947,456   23,398
00003.M2TS      0:52:59.709     0:52:08.358     9,060,384,768   23,170
00005.M2TS      1:45:08.068     0:00:00.333     12,288          295
CHAPTERS:
Number          Time In         Length          Avg Video Rate  Max 1-Sec Rate  Max 1-Sec Time  Max 5-Sec Rate  Max 5-Sec Time  Max 10Sec Rate  Max 10Sec Time  Avg Frame Size  Max Frame Size  Max Frame Time
------          -------         ------          --------------  --------------  --------------  --------------  --------------  --------------  --------------  --------------  --------------  --------------
1               0:00:00.000     0:00:30.530     13,039 kbps     27,068 kbps     00:00:14.814    23,145 kbps     00:00:14.814    21,368 kbps     00:00:14.814    54,325 bytes    376,406 bytes   00:00:15.682
2               0:00:30.530     0:07:05.925     15,972 kbps     24,471 kbps     00:01:51.744    22,977 kbps     00:01:51.878    21,255 kbps     00:01:51.744    66,617 bytes    491,541 bytes   00:06:40.700
3               0:07:36.455     0:02:42.495     16,956 kbps     27,777 kbps     00:10:01.000    23,842 kbps     00:09:59.398    21,741 kbps     00:09:56.262    70,722 bytes    443,047 bytes   00:07:37.256
4               0:10:18.951     0:04:22.528     15,312 kbps     24,731 kbps     00:13:34.246    21,448 kbps     00:13:30.242    21,011 kbps     00:13:25.237    63,865 bytes    447,587 bytes   00:13:03.215
5               0:14:41.480     0:03:32.612     15,683 kbps     24,235 kbps     00:16:34.893    21,883 kbps     00:16:30.889    20,717 kbps     00:16:30.656    65,410 bytes    485,817 bytes   00:16:22.781
6               0:18:14.093     0:03:02.182     16,671 kbps     24,639 kbps     00:20:04.036    21,988 kbps     00:20:02.434    21,670 kbps     00:20:03.035    69,531 bytes    465,758 bytes   00:18:26.905
7               0:21:16.275     0:01:20.747     18,506 kbps     23,148 kbps     00:22:16.301    20,536 kbps     00:22:16.301    19,992 kbps     00:22:15.300    77,186 bytes    400,709 bytes   00:21:21.079
8               0:22:37.022     0:02:34.988     16,708 kbps     24,354 kbps     00:24:47.786    21,873 kbps     00:23:29.708    21,123 kbps     00:23:28.707    69,685 bytes    482,262 bytes   00:24:28.767
9               0:25:12.010     0:01:14.073     17,474 kbps     22,781 kbps     00:25:15.814    20,668 kbps     00:25:12.611    20,080 kbps     00:25:13.311    72,883 bytes    461,523 bytes   00:26:15.874
10              0:26:26.084     0:01:04.731     19,362 kbps     24,416 kbps     00:27:17.936    21,698 kbps     00:27:13.932    21,119 kbps     00:27:08.927    80,756 bytes    439,063 bytes   00:26:50.909
11              0:27:30.815     0:02:01.621     19,060 kbps     25,042 kbps     00:28:55.033    22,984 kbps     00:28:55.033    22,375 kbps     00:28:51.629    79,494 bytes    389,792 bytes   00:29:00.038
12              0:29:32.437     0:01:31.925     18,079 kbps     25,655 kbps     00:29:57.629    23,280 kbps     00:29:54.359    20,732 kbps     00:29:49.354    75,406 bytes    368,821 bytes   00:30:47.278
13              0:31:04.362     0:00:47.881     15,526 kbps     24,418 kbps     00:31:23.181    22,027 kbps     00:31:19.177    21,285 kbps     00:31:14.172    64,758 bytes    435,834 bytes   00:31:05.163
14              0:31:52.243     0:00:54.721     13,249 kbps     18,525 kbps     00:32:04.722    15,442 kbps     00:32:24.742    14,931 kbps     00:32:21.339    55,260 bytes    539,644 bytes   00:32:09.727
15              0:32:46.965     0:01:15.074     13,517 kbps     21,345 kbps     00:32:56.374    16,968 kbps     00:32:56.374    16,231 kbps     00:32:56.174    56,377 bytes    531,104 bytes   00:32:55.773
16              0:34:02.040     0:00:52.552     14,008 kbps     19,633 kbps     00:34:25.863    17,200 kbps     00:34:22.660    16,223 kbps     00:34:22.460    58,426 bytes    544,633 bytes   00:34:34.872
17              0:34:54.592     0:02:52.572     12,140 kbps     21,291 kbps     00:34:58.396    18,203 kbps     00:34:54.892    16,415 kbps     00:34:54.892    50,634 bytes    433,709 bytes   00:34:55.393
18              0:37:47.164     0:00:43.043     10,787 kbps     20,686 kbps     00:38:18.829    18,152 kbps     00:38:15.326    17,703 kbps     00:38:11.122    44,990 bytes    305,152 bytes   00:38:25.903
19              0:38:30.207     0:12:13.733     16,557 kbps     26,744 kbps     00:42:40.491    24,171 kbps     00:45:09.440    23,394 kbps     00:42:40.491    69,057 bytes    473,168 bytes   00:50:16.747
20              0:50:43.940     0:02:15.768     14,643 kbps     24,291 kbps     00:52:27.511    20,834 kbps     00:52:26.710    18,946 kbps     00:52:25.709    61,072 bytes    334,315 bytes   00:52:16.500
21              0:52:59.709     0:00:34.034     8,389 kbps      14,532 kbps     00:53:29.839    12,646 kbps     00:53:16.927    11,514 kbps     00:53:16.726    34,987 bytes    272,256 bytes   00:53:33.743
22              0:53:33.743     0:17:07.026     16,708 kbps     23,512 kbps     01:00:52.949    21,128 kbps     00:59:00.837    20,596 kbps     01:00:43.940    69,688 bytes    497,971 bytes   00:53:53.029
23              1:10:40.769     0:12:06.725     15,693 kbps     24,403 kbps     01:18:48.690    22,229 kbps     01:18:44.686    21,602 kbps     01:18:40.482    65,453 bytes    456,650 bytes   01:19:57.092
24              1:22:47.495     0:12:30.750     16,742 kbps     23,541 kbps     01:23:23.932    21,465 kbps     01:23:23.932    20,609 kbps     01:23:22.130    69,829 bytes    441,571 bytes   01:33:15.389
25              1:35:18.245     0:02:43.162     12,879 kbps     18,401 kbps     01:38:00.174    16,496 kbps     01:36:07.561    15,500 kbps     01:36:06.560    53,714 bytes    448,572 bytes   01:37:57.171
26              1:38:01.408     0:05:36.336     15,835 kbps     23,473 kbps     01:41:07.494    21,464 kbps     01:41:03.490    20,958 kbps     01:40:58.485    66,044 bytes    469,848 bytes   01:38:59.867
27              1:43:37.744     0:01:30.657     13,312 kbps     18,823 kbps     01:43:51.658    16,704 kbps     01:43:51.658    15,449 kbps     01:43:50.657    55,541 bytes    288,032 bytes   01:44:51.785
STREAM DIAGNOSTICS:
File            PID             Type            Codec           Language                Seconds                 Bitrate                 Bytes           Packets
----            ---             ----            -----           --------                --------------          --------------          -------------   -----
00011.M2TS      4113 (0x1011)   0x1B            AVC                                     2267.098                16,000                  4,534,202,402   24,681,985
00011.M2TS      4352 (0x1100)   0x80            LPCM            und (Undetermined)      2267.098                2,310                   654,757,252     3,627,464
00011.M2TS      4353 (0x1101)   0x86            DTS-HD MA       und (Undetermined)      2267.098                3,551                   1,006,406,532   5,822,893
00009.M2TS      4113 (0x1011)   0x1B            AVC                                     912.445                 16,002                  1,825,094,846   9,934,911
00009.M2TS      4352 (0x1100)   0x80            LPCM            und (Undetermined)      912.445                 2,311                   263,573,320     1,460,240
00009.M2TS      4353 (0x1101)   0x86            DTS-HD MA       und (Undetermined)      912.445                 3,764                   429,253,720     2,475,002
00003.M2TS      4113 (0x1011)   0x1B            AVC                                     3128.292                16,000                  6,256,635,083   34,058,148
00003.M2TS      4352 (0x1100)   0x80            LPCM            und (Undetermined)      3128.292                2,310                   903,470,368     5,005,376
00003.M2TS      4353 (0x1101)   0x86            DTS-HD MA       und (Undetermined)      3128.292                3,545                   1,386,052,820   8,021,131
00005.M2TS      4113 (0x1011)   0x1B            AVC                                     0.200                   244                     6,107           41

QUICK SUMMARY:
Disc Title: THE_ASIA_TOUR
Disc Size: 47,158,578,518 bytes
Protection: AACS
BD-Java: No
Playlist: 00006.MPLS
Size: 18,297,341,952 bytes
Length: 1:45:08.402
Total Bitrate: 23.20 Mbps
Video: MPEG-4 AVC Video / 15999 kbps / 1080i / 29.970 fps / 16:9 / High Profile 4.1
Audio: Undetermined / LPCM Audio / 2.0 / 48 kHz / 2304 kbps / 24-bit
Audio: Undetermined / DTS-HD Master Audio / 5.1 / 48 kHz / 3578 kbps / 24-bit (DTS Core: 5.1 / 48 kHz / 1509 kbps / 24-bit)
********************
PLAYLIST: 00004.MPLS
********************

Код:

                                                                                Total   Video
Title                                                           Codec   Length  Movie Size      Disc Size       Bitrate Bitrate Main Audio Track                          Secondary Audio Track
-----                                                           ------  ------- --------------  --------------  ------- ------- ------------------                        ---------------------
00004.MPLS                                                      AVC     0:32:19 5,645,869,056   47,158,578,518  23.29   16.00   LPCM 2.0 2304Kbps (48kHz/24-bit)          DTS-HD Master 5.1 3667Kbps (48kHz/24-bit)

Код:
DISC INFO:
Disc Title:     THE_ASIA_TOUR
Disc Size:      47,158,578,518 bytes
Protection:     AACS
BD-Java:        No
BDInfo:         0.7.1
PLAYLIST REPORT:
Name:                   00004.MPLS
Length:                 0:32:19.037 (h:m:s.ms)
Size:                   5,645,869,056 bytes
Total Bitrate:          23.29 Mbps
VIDEO:
Codec                   Bitrate             Description
-----                   -------             -----------
MPEG-4 AVC Video        15996 kbps          1080i / 29.970 fps / 16:9 / High Profile 4.1
AUDIO:
Codec                           Language        Bitrate         Description
-----                           --------        -------         -----------
LPCM Audio                      Undetermined    2304 kbps       2.0 / 48 kHz / 2304 kbps / 24-bit
DTS-HD Master Audio             Undetermined    3667 kbps       5.1 / 48 kHz / 3667 kbps / 24-bit (DTS Core: 5.1 / 48 kHz / 1509 kbps / 24-bit)
FILES:
Name            Time In         Length          Size            Total Bitrate
----            -------         ------          ----            -------------
00010.M2TS      0:00:00.000     0:32:18.703     5,645,856,768   23,297
00005.M2TS      0:32:18.703     0:00:00.333     12,288          295
CHAPTERS:
Number          Time In         Length          Avg Video Rate  Max 1-Sec Rate  Max 1-Sec Time  Max 5-Sec Rate  Max 5-Sec Time  Max 10Sec Rate  Max 10Sec Time  Avg Frame Size  Max Frame Size  Max Frame Time
------          -------         ------          --------------  --------------  --------------  --------------  --------------  --------------  --------------  --------------  --------------  --------------
1               0:00:00.000     0:00:49.416     14,390 kbps     30,777 kbps     00:00:25.592    26,468 kbps     00:00:24.190    23,925 kbps     00:00:21.688    59,976 bytes    777,564 bytes   00:00:31.698
2               0:00:49.416     0:08:59.171     16,344 kbps     31,236 kbps     00:08:01.948    27,719 kbps     00:06:36.028    25,821 kbps     00:06:33.493    68,168 bytes    702,772 bytes   00:02:15.768
3               0:09:48.588     0:09:15.555     15,640 kbps     31,889 kbps     00:15:34.600    28,212 kbps     00:13:46.759    25,415 kbps     00:13:44.190    65,232 bytes    569,090 bytes   00:15:54.420
4               0:19:04.143     0:03:55.735     16,624 kbps     32,987 kbps     00:20:11.176    28,063 kbps     00:20:09.575    24,128 kbps     00:20:09.641    69,338 bytes    732,939 bytes   00:22:31.616
5               0:22:59.878     0:03:11.691     18,059 kbps     28,029 kbps     00:23:13.492    25,045 kbps     00:23:10.555    22,988 kbps     00:23:05.550    75,323 bytes    724,939 bytes   00:23:15.560
6               0:26:11.570     0:04:51.290     14,357 kbps     31,481 kbps     00:27:42.861    28,410 kbps     00:27:40.458    25,605 kbps     00:27:37.889    59,880 bytes    621,584 bytes   00:27:45.463
7               0:31:02.861     0:01:16.176     16,308 kbps     30,155 kbps     00:31:49.474    25,114 kbps     00:31:48.506    24,574 kbps     00:31:48.339    68,050 bytes    729,377 bytes   00:32:06.691
STREAM DIAGNOSTICS:
File            PID             Type            Codec           Language                Seconds                 Bitrate                 Bytes           Packets
----            ---             ----            -----           --------                --------------          --------------          -------------   -----
00010.M2TS      4113 (0x1011)   0x1B            AVC                                     1938.637                15,999                  3,877,145,715   21,105,411
00010.M2TS      4352 (0x1100)   0x80            LPCM            und (Undetermined)      1938.637                2,310                   559,902,336     3,101,952
00010.M2TS      4353 (0x1101)   0x86            DTS-HD MA       und (Undetermined)      1938.637                3,668                   888,871,904     5,133,169
00005.M2TS      4113 (0x1011)   0x1B            AVC                                     0.200                   244                     6,107           41

QUICK SUMMARY:
Disc Title: THE_ASIA_TOUR
Disc Size: 47,158,578,518 bytes
Protection: AACS
BD-Java: No
Playlist: 00004.MPLS
Size: 5,645,869,056 bytes
Length: 0:32:19.037
Total Bitrate: 23.29 Mbps
Video: MPEG-4 AVC Video / 15996 kbps / 1080i / 29.970 fps / 16:9 / High Profile 4.1
Audio: Undetermined / LPCM Audio / 2.0 / 48 kHz / 2304 kbps / 24-bit
Audio: Undetermined / DTS-HD Master Audio / 5.1 / 48 kHz / 3667 kbps / 24-bit (DTS Core: 5.1 / 48 kHz / 1509 kbps / 24-bit)
********************
PLAYLIST: 00020.MPLS
********************

Код:

                                                                                Total   Video
Title                                                           Codec   Length  Movie Size      Disc Size       Bitrate Bitrate Main Audio Track                          Secondary Audio Track
-----                                                           ------  ------- --------------  --------------  ------- ------- ------------------                        ---------------------
00020.MPLS                                                      AVC     0:27:18 3,300,243,456   47,158,578,518  16.12   15.00   DD AC3 2.0 192Kbps

Код:
DISC INFO:
Disc Title:     THE_ASIA_TOUR
Disc Size:      47,158,578,518 bytes
Protection:     AACS
BD-Java:        No
BDInfo:         0.7.1
PLAYLIST REPORT:
Name:                   00020.MPLS
Length:                 0:27:18.303 (h:m:s.ms)
Size:                   3,300,243,456 bytes
Total Bitrate:          16.12 Mbps
(*) Indicates included stream hidden by this playlist.
VIDEO:
Codec                   Bitrate             Description
-----                   -------             -----------
MPEG-4 AVC Video        14996 kbps          1080i / 29.970 fps / 16:9 / High Profile 4.1
AUDIO:
Codec                           Language        Bitrate         Description
-----                           --------        -------         -----------
Dolby Digital Audio             Undetermined    192 kbps        2.0 / 48 kHz / 192 kbps
SUBTITLES:
Codec                           Language        Bitrate         Description
-----                           --------        -------         -----------
Presentation Graphics
        23.738 kbps
FILES:
Name            Time In         Length          Size            Total Bitrate
----            -------         ------          ----            -------------
00012.M2TS      0:00:00.000     0:27:17.969     3,300,231,168   16,119
00005.M2TS      0:27:17.969     0:00:00.333     12,288          295
CHAPTERS:
Number          Time In         Length          Avg Video Rate  Max 1-Sec Rate  Max 1-Sec Time  Max 5-Sec Rate  Max 5-Sec Time  Max 10Sec Rate  Max 10Sec Time  Avg Frame Size  Max Frame Size  Max Frame Time
------          -------         ------          --------------  --------------  --------------  --------------  --------------  --------------  --------------  --------------  --------------  --------------
1               0:00:00.000     0:27:18.303     14,996 kbps     31,017 kbps     00:00:59.893    25,465 kbps     00:19:01.907    22,627 kbps     00:15:58.857    62,547 bytes    613,210 bytes   00:23:25.871
STREAM DIAGNOSTICS:
File            PID             Type            Codec           Language                Seconds                 Bitrate                 Bytes           Packets
----            ---             ----            -----           --------                --------------          --------------          -------------   -----
00012.M2TS      4113 (0x1011)   0x1B            AVC                                     1637.836                15,001                  3,071,070,081   16,719,421
00012.M2TS      4352 (0x1100)   0x81            AC3             und (Undetermined)      1637.836                192                     39,312,384      255,940
00012.M2TS      4608 (0x1200)   0x90            PGS             eng (English)           1637.836                15                      3,094,454       17,475
00012.M2TS      4609 (0x1201)   0x90            PGS             deu (German)            1637.836                15                      3,128,345       17,699
00012.M2TS      4610 (0x1202)   0x90            PGS             spa (Spanish)           1637.836                32                      6,510,679       36,736
00012.M2TS      4611 (0x1203)   0x90            PGS             zho (Chinese)           1637.836                27                      5,533,098       31,689
00012.M2TS      4612 (0x1204)   0x90            PGS             kor (Korean)            1637.836                23                      4,692,640       26,867
00012.M2TS      4613 (0x1205)   0x90            PGS             jpn (Japanese)          1637.836                24                      4,861,231       27,969
00005.M2TS      4113 (0x1011)   0x1B            AVC                                     0.200                   244                     6,107           41

QUICK SUMMARY:
Disc Title: THE_ASIA_TOUR
Disc Size: 47,158,578,518 bytes
Protection: AACS
BD-Java: No
Playlist: 00020.MPLS
Size: 3,300,243,456 bytes
Length: 0:27:18.303
Total Bitrate: 16.12 Mbps
Video: MPEG-4 AVC Video / 14996 kbps / 1080i / 29.970 fps / 16:9 / High Profile 4.1
Audio: Undetermined / Dolby Digital Audio / 2.0 / 48 kHz / 192 kbps
Subtitle: English / 15.111 kbps
* Subtitle: German / 15.276 kbps
* Subtitle: Spanish / 31.792 kbps
* Subtitle: Chinese / 27.019 kbps
* Subtitle: Korean / 22.915 kbps
* Subtitle: Japanese / 23.738 kbps
********************
PLAYLIST: 00021.MPLS
********************

Код:

                                                                                Total   Video
Title                                                           Codec   Length  Movie Size      Disc Size       Bitrate Bitrate Main Audio Track                          Secondary Audio Track
-----                                                           ------  ------- --------------  --------------  ------- ------- ------------------                        ---------------------
00021.MPLS                                                      AVC     0:27:18 3,300,243,456   47,158,578,518  16.12   15.00   DD AC3 2.0 192Kbps

Код:
DISC INFO:
Disc Title:     THE_ASIA_TOUR
Disc Size:      47,158,578,518 bytes
Protection:     AACS
BD-Java:        No
BDInfo:         0.7.1
PLAYLIST REPORT:
Name:                   00021.MPLS
Length:                 0:27:18.303 (h:m:s.ms)
Size:                   3,300,243,456 bytes
Total Bitrate:          16.12 Mbps
(*) Indicates included stream hidden by this playlist.
VIDEO:
Codec                   Bitrate             Description
-----                   -------             -----------
MPEG-4 AVC Video        14996 kbps          1080i / 29.970 fps / 16:9 / High Profile 4.1
AUDIO:
Codec                           Language        Bitrate         Description
-----                           --------        -------         -----------
Dolby Digital Audio             Undetermined    192 kbps        2.0 / 48 kHz / 192 kbps
SUBTITLES:
Codec                           Language        Bitrate         Description
-----                           --------        -------         -----------
* Presentation Graphics         English         15.111 kbps
Presentation Graphics           German          15.276 kbps
* Presentation Graphics         Spanish         31.792 kbps
* Presentation Graphics         Chinese         27.019 kbps
* Presentation Graphics         Korean          22.915 kbps
* Presentation Graphics         Japanese        23.738 kbps
FILES:
Name            Time In         Length          Size            Total Bitrate
----            -------         ------          ----            -------------
00012.M2TS      0:00:00.000     0:27:17.969     3,300,231,168   16,119
00005.M2TS      0:27:17.969     0:00:00.333     12,288          295
CHAPTERS:
Number          Time In         Length          Avg Video Rate  Max 1-Sec Rate  Max 1-Sec Time  Max 5-Sec Rate  Max 5-Sec Time  Max 10Sec Rate  Max 10Sec Time  Avg Frame Size  Max Frame Size  Max Frame Time
------          -------         ------          --------------  --------------  --------------  --------------  --------------  --------------  --------------  --------------  --------------  --------------
1               0:00:00.000     0:27:18.303     14,996 kbps     31,017 kbps     00:00:59.893    25,465 kbps     00:19:01.907    22,627 kbps     00:15:58.857    62,547 bytes    613,210 bytes   00:23:25.871
STREAM DIAGNOSTICS:
File            PID             Type            Codec           Language                Seconds                 Bitrate                 Bytes           Packets
----            ---             ----            -----           --------                --------------          --------------          -------------   -----
00012.M2TS      4113 (0x1011)   0x1B            AVC                                     1637.836                15,001                  3,071,070,081   16,719,421
00012.M2TS      4352 (0x1100)   0x81            AC3             und (Undetermined)      1637.836                192                     39,312,384      255,940
00012.M2TS      4608 (0x1200)   0x90            PGS             eng (English)           1637.836                15                      3,094,454       17,475
00012.M2TS      4609 (0x1201)   0x90            PGS             deu (German)            1637.836                15                      3,128,345       17,699
00012.M2TS      4610 (0x1202)   0x90            PGS             spa (Spanish)           1637.836                32                      6,510,679       36,736
00012.M2TS      4611 (0x1203)   0x90            PGS             zho (Chinese)           1637.836                27                      5,533,098       31,689
00012.M2TS      4612 (0x1204)   0x90            PGS             kor (Korean)            1637.836                23                      4,692,640       26,867
00012.M2TS      4613 (0x1205)   0x90            PGS             jpn (Japanese)          1637.836                24                      4,861,231       27,969
00005.M2TS      4113 (0x1011)   0x1B            AVC                                     0.200                   244                     6,107           41

QUICK SUMMARY:
Disc Title: THE_ASIA_TOUR
Disc Size: 47,158,578,518 bytes
Protection: AACS
BD-Java: No
Playlist: 00021.MPLS
Size: 3,300,243,456 bytes
Length: 0:27:18.303
Total Bitrate: 16.12 Mbps
Video: MPEG-4 AVC Video / 14996 kbps / 1080i / 29.970 fps / 16:9 / High Profile 4.1
Audio: Undetermined / Dolby Digital Audio / 2.0 / 48 kHz / 192 kbps
* Subtitle: English / 15.111 kbps
Subtitle: German / 15.276 kbps
* Subtitle: Spanish / 31.792 kbps
* Subtitle: Chinese / 27.019 kbps
* Subtitle: Korean / 22.915 kbps
* Subtitle: Japanese / 23.738 kbps
********************
PLAYLIST: 00022.MPLS
********************

Код:

                                                                                Total   Video
Title                                                           Codec   Length  Movie Size      Disc Size       Bitrate Bitrate Main Audio Track                          Secondary Audio Track
-----                                                           ------  ------- --------------  --------------  ------- ------- ------------------                        ---------------------
00022.MPLS                                                      AVC     0:27:18 3,300,243,456   47,158,578,518  16.12   15.00   DD AC3 2.0 192Kbps

Код:
DISC INFO:
Disc Title:     THE_ASIA_TOUR
Disc Size:      47,158,578,518 bytes
Protection:     AACS
BD-Java:        No
BDInfo:         0.7.1
PLAYLIST REPORT:
Name:                   00022.MPLS
Length:                 0:27:18.303 (h:m:s.ms)
Size:                   3,300,243,456 bytes
Total Bitrate:          16.12 Mbps
(*) Indicates included stream hidden by this playlist.
VIDEO:
Codec                   Bitrate             Description
-----                   -------             -----------
MPEG-4 AVC Video        14996 kbps          1080i / 29.970 fps / 16:9 / High Profile 4.1
AUDIO:
Codec                           Language        Bitrate         Description
-----                           --------        -------         -----------
Dolby Digital Audio             Undetermined    192 kbps        2.0 / 48 kHz / 192 kbps
SUBTITLES:
Codec                           Language        Bitrate         Description
-----                           --------        -------         -----------
* Presentation Graphics         English         15.111 kbps
* Presentation Graphics         German          15.276 kbps
Presentation Graphics           Spanish         31.792 kbps
* Presentation Graphics         Chinese         27.019 kbps
* Presentation Graphics         Korean          22.915 kbps
* Presentation Graphics         Japanese        23.738 kbps
FILES:
Name            Time In         Length          Size            Total Bitrate
----            -------         ------          ----            -------------
00012.M2TS      0:00:00.000     0:27:17.969     3,300,231,168   16,119
00005.M2TS      0:27:17.969     0:00:00.333     12,288          295
CHAPTERS:
Number          Time In         Length          Avg Video Rate  Max 1-Sec Rate  Max 1-Sec Time  Max 5-Sec Rate  Max 5-Sec Time  Max 10Sec Rate  Max 10Sec Time  Avg Frame Size  Max Frame Size  Max Frame Time
------          -------         ------          --------------  --------------  --------------  --------------  --------------  --------------  --------------  --------------  --------------  --------------
1               0:00:00.000     0:27:18.303     14,996 kbps     31,017 kbps     00:00:59.893    25,465 kbps     00:19:01.907    22,627 kbps     00:15:58.857    62,547 bytes    613,210 bytes   00:23:25.871
STREAM DIAGNOSTICS:
File            PID             Type            Codec           Language                Seconds                 Bitrate                 Bytes           Packets
----            ---             ----            -----           --------                --------------          --------------          -------------   -----
00012.M2TS      4113 (0x1011)   0x1B            AVC                                     1637.836                15,001                  3,071,070,081   16,719,421
00012.M2TS      4352 (0x1100)   0x81            AC3             und (Undetermined)      1637.836                192                     39,312,384      255,940
00012.M2TS      4608 (0x1200)   0x90            PGS             eng (English)           1637.836                15                      3,094,454       17,475
00012.M2TS      4609 (0x1201)   0x90            PGS             deu (German)            1637.836                15                      3,128,345       17,699
00012.M2TS      4610 (0x1202)   0x90            PGS             spa (Spanish)           1637.836                32                      6,510,679       36,736
00012.M2TS      4611 (0x1203)   0x90            PGS             zho (Chinese)           1637.836                27                      5,533,098       31,689
00012.M2TS      4612 (0x1204)   0x90            PGS             kor (Korean)            1637.836                23                      4,692,640       26,867
00012.M2TS      4613 (0x1205)   0x90            PGS             jpn (Japanese)          1637.836                24                      4,861,231       27,969
00005.M2TS      4113 (0x1011)   0x1B            AVC                                     0.200                   244                     6,107           41

QUICK SUMMARY:
Disc Title: THE_ASIA_TOUR
Disc Size: 47,158,578,518 bytes
Protection: AACS
BD-Java: No
Playlist: 00022.MPLS
Size: 3,300,243,456 bytes
Length: 0:27:18.303
Total Bitrate: 16.12 Mbps
Video: MPEG-4 AVC Video / 14996 kbps / 1080i / 29.970 fps / 16:9 / High Profile 4.1
Audio: Undetermined / Dolby Digital Audio / 2.0 / 48 kHz / 192 kbps
* Subtitle: English / 15.111 kbps
* Subtitle: German / 15.276 kbps
Subtitle: Spanish / 31.792 kbps
* Subtitle: Chinese / 27.019 kbps
* Subtitle: Korean / 22.915 kbps
* Subtitle: Japanese / 23.738 kbps
********************
PLAYLIST: 00023.MPLS
********************

Код:

                                                                                Total   Video
Title                                                           Codec   Length  Movie Size      Disc Size       Bitrate Bitrate Main Audio Track                          Secondary Audio Track
-----                                                           ------  ------- --------------  --------------  ------- ------- ------------------                        ---------------------
00023.MPLS                                                      AVC     0:27:18 3,300,243,456   47,158,578,518  16.12   15.00   DD AC3 2.0 192Kbps

Код:
DISC INFO:
Disc Title:     THE_ASIA_TOUR
Disc Size:      47,158,578,518 bytes
Protection:     AACS
BD-Java:        No
BDInfo:         0.7.1
PLAYLIST REPORT:
Name:                   00023.MPLS
Length:                 0:27:18.303 (h:m:s.ms)
Size:                   3,300,243,456 bytes
Total Bitrate:          16.12 Mbps
(*) Indicates included stream hidden by this playlist.
VIDEO:
Codec                   Bitrate             Description
-----                   -------             -----------
MPEG-4 AVC Video        14996 kbps          1080i / 29.970 fps / 16:9 / High Profile 4.1
AUDIO:
Codec                           Language        Bitrate         Description
-----                           --------        -------         -----------
Dolby Digital Audio             Undetermined    192 kbps        2.0 / 48 kHz / 192 kbps
SUBTITLES:
Codec                           Language        Bitrate         Description
-----                           --------        -------         -----------
* Presentation Graphics         English         15.111 kbps
* Presentation Graphics         German          15.276 kbps
* Presentation Graphics         Spanish         31.792 kbps
Presentation Graphics           Chinese         27.019 kbps
* Presentation Graphics         Korean          22.915 kbps
* Presentation Graphics         Japanese        23.738 kbps
FILES:
Name            Time In         Length          Size            Total Bitrate
----            -------         ------          ----            -------------
00012.M2TS      0:00:00.000     0:27:17.969     3,300,231,168   16,119
00005.M2TS      0:27:17.969     0:00:00.333     12,288          295
CHAPTERS:
Number          Time In         Length          Avg Video Rate  Max 1-Sec Rate  Max 1-Sec Time  Max 5-Sec Rate  Max 5-Sec Time  Max 10Sec Rate  Max 10Sec Time  Avg Frame Size  Max Frame Size  Max Frame Time
------          -------         ------          --------------  --------------  --------------  --------------  --------------  --------------  --------------  --------------  --------------  --------------
1               0:00:00.000     0:27:18.303     14,996 kbps     31,017 kbps     00:00:59.893    25,465 kbps     00:19:01.907    22,627 kbps     00:15:58.857    62,547 bytes    613,210 bytes   00:23:25.871
STREAM DIAGNOSTICS:
File            PID             Type            Codec           Language                Seconds                 Bitrate                 Bytes           Packets
----            ---             ----            -----           --------                --------------          --------------          -------------   -----
00012.M2TS      4113 (0x1011)   0x1B            AVC                                     1637.836                15,001                  3,071,070,081   16,719,421
00012.M2TS      4352 (0x1100)   0x81            AC3             und (Undetermined)      1637.836                192                     39,312,384      255,940
00012.M2TS      4608 (0x1200)   0x90            PGS             eng (English)           1637.836                15                      3,094,454       17,475
00012.M2TS      4609 (0x1201)   0x90            PGS             deu (German)            1637.836                15                      3,128,345       17,699
00012.M2TS      4610 (0x1202)   0x90            PGS             spa (Spanish)           1637.836                32                      6,510,679       36,736
00012.M2TS      4611 (0x1203)   0x90            PGS             zho (Chinese)           1637.836                27                      5,533,098       31,689
00012.M2TS      4612 (0x1204)   0x90            PGS             kor (Korean)            1637.836                23                      4,692,640       26,867
00012.M2TS      4613 (0x1205)   0x90            PGS             jpn (Japanese)          1637.836                24                      4,861,231       27,969
00005.M2TS      4113 (0x1011)   0x1B            AVC                                     0.200                   244                     6,107           41

QUICK SUMMARY:
Disc Title: THE_ASIA_TOUR
Disc Size: 47,158,578,518 bytes
Protection: AACS
BD-Java: No
Playlist: 00023.MPLS
Size: 3,300,243,456 bytes
Length: 0:27:18.303
Total Bitrate: 16.12 Mbps
Video: MPEG-4 AVC Video / 14996 kbps / 1080i / 29.970 fps / 16:9 / High Profile 4.1
Audio: Undetermined / Dolby Digital Audio / 2.0 / 48 kHz / 192 kbps
* Subtitle: English / 15.111 kbps
* Subtitle: German / 15.276 kbps
* Subtitle: Spanish / 31.792 kbps
Subtitle: Chinese / 27.019 kbps
* Subtitle: Korean / 22.915 kbps
* Subtitle: Japanese / 23.738 kbps
********************
PLAYLIST: 00024.MPLS
********************

Код:

                                                                                Total   Video
Title                                                           Codec   Length  Movie Size      Disc Size       Bitrate Bitrate Main Audio Track                          Secondary Audio Track
-----                                                           ------  ------- --------------  --------------  ------- ------- ------------------                        ---------------------
00024.MPLS                                                      AVC     0:27:18 3,300,243,456   47,158,578,518  16.12   15.00   DD AC3 2.0 192Kbps

Код:
DISC INFO:
Disc Title:     THE_ASIA_TOUR
Disc Size:      47,158,578,518 bytes
Protection:     AACS
BD-Java:        No
BDInfo:         0.7.1
PLAYLIST REPORT:
Name:                   00024.MPLS
Length:                 0:27:18.303 (h:m:s.ms)
Size:                   3,300,243,456 bytes
Total Bitrate:          16.12 Mbps
(*) Indicates included stream hidden by this playlist.
VIDEO:
Codec                   Bitrate             Description
-----                   -------             -----------
MPEG-4 AVC Video        14996 kbps          1080i / 29.970 fps / 16:9 / High Profile 4.1
AUDIO:
Codec                           Language        Bitrate         Description
-----                           --------        -------         -----------
Dolby Digital Audio             Undetermined    192 kbps        2.0 / 48 kHz / 192 kbps
SUBTITLES:
Codec                           Language        Bitrate         Description
-----                           --------        -------         -----------
* Presentation Graphics         English         15.111 kbps
* Presentation Graphics         German          15.276 kbps
* Presentation Graphics         Spanish         31.792 kbps
* Presentation Graphics         Chinese         27.019 kbps
Presentation Graphics           Korean          22.915 kbps
* Presentation Graphics         Japanese        23.738 kbps
FILES:
Name            Time In         Length          Size            Total Bitrate
----            -------         ------          ----            -------------
00012.M2TS      0:00:00.000     0:27:17.969     3,300,231,168   16,119
00005.M2TS      0:27:17.969     0:00:00.333     12,288          295
CHAPTERS:
Number          Time In         Length          Avg Video Rate  Max 1-Sec Rate  Max 1-Sec Time  Max 5-Sec Rate  Max 5-Sec Time  Max 10Sec Rate  Max 10Sec Time  Avg Frame Size  Max Frame Size  Max Frame Time
------          -------         ------          --------------  --------------  --------------  --------------  --------------  --------------  --------------  --------------  --------------  --------------
1               0:00:00.000     0:27:18.303     14,996 kbps     31,017 kbps     00:00:59.893    25,465 kbps     00:19:01.907    22,627 kbps     00:15:58.857    62,547 bytes    613,210 bytes   00:23:25.871
STREAM DIAGNOSTICS:
File            PID             Type            Codec           Language                Seconds                 Bitrate                 Bytes           Packets
----            ---             ----            -----           --------                --------------          --------------          -------------   -----
00012.M2TS      4113 (0x1011)   0x1B            AVC                                     1637.836                15,001                  3,071,070,081   16,719,421
00012.M2TS      4352 (0x1100)   0x81            AC3             und (Undetermined)      1637.836                192                     39,312,384      255,940
00012.M2TS      4608 (0x1200)   0x90            PGS             eng (English)           1637.836                15                      3,094,454       17,475
00012.M2TS      4609 (0x1201)   0x90            PGS             deu (German)            1637.836                15                      3,128,345       17,699
00012.M2TS      4610 (0x1202)   0x90            PGS             spa (Spanish)           1637.836                32                      6,510,679       36,736
00012.M2TS      4611 (0x1203)   0x90            PGS             zho (Chinese)           1637.836                27                      5,533,098       31,689
00012.M2TS      4612 (0x1204)   0x90            PGS             kor (Korean)            1637.836                23                      4,692,640       26,867
00012.M2TS      4613 (0x1205)   0x90            PGS             jpn (Japanese)          1637.836                24                      4,861,231       27,969
00005.M2TS      4113 (0x1011)   0x1B            AVC                                     0.200                   244                     6,107           41

QUICK SUMMARY:
Disc Title: THE_ASIA_TOUR
Disc Size: 47,158,578,518 bytes
Protection: AACS
BD-Java: No
Playlist: 00024.MPLS
Size: 3,300,243,456 bytes
Length: 0:27:18.303
Total Bitrate: 16.12 Mbps
Video: MPEG-4 AVC Video / 14996 kbps / 1080i / 29.970 fps / 16:9 / High Profile 4.1
Audio: Undetermined / Dolby Digital Audio / 2.0 / 48 kHz / 192 kbps
* Subtitle: English / 15.111 kbps
* Subtitle: German / 15.276 kbps
* Subtitle: Spanish / 31.792 kbps
* Subtitle: Chinese / 27.019 kbps
Subtitle: Korean / 22.915 kbps
* Subtitle: Japanese / 23.738 kbps
********************
PLAYLIST: 00025.MPLS
********************

Код:

                                                                                Total   Video
Title                                                           Codec   Length  Movie Size      Disc Size       Bitrate Bitrate Main Audio Track                          Secondary Audio Track
-----                                                           ------  ------- --------------  --------------  ------- ------- ------------------                        ---------------------
00025.MPLS                                                      AVC     0:27:18 3,300,243,456   47,158,578,518  16.12   15.00   DD AC3 2.0 192Kbps

Код:
DISC INFO:
Disc Title:     THE_ASIA_TOUR
Disc Size:      47,158,578,518 bytes
Protection:     AACS
BD-Java:        No
BDInfo:         0.7.1
PLAYLIST REPORT:
Name:                   00025.MPLS
Length:                 0:27:18.303 (h:m:s.ms)
Size:                   3,300,243,456 bytes
Total Bitrate:          16.12 Mbps
(*) Indicates included stream hidden by this playlist.
VIDEO:
Codec                   Bitrate             Description
-----                   -------             -----------
MPEG-4 AVC Video        14996 kbps          1080i / 29.970 fps / 16:9 / High Profile 4.1
AUDIO:
Codec                           Language        Bitrate         Description
-----                           --------        -------         -----------
Dolby Digital Audio             Undetermined    192 kbps        2.0 / 48 kHz / 192 kbps
SUBTITLES:
Codec                           Language        Bitrate         Description
-----                           --------        -------         -----------
* Presentation Graphics         English         15.111 kbps
* Presentation Graphics         German          15.276 kbps
* Presentation Graphics         Spanish         31.792 kbps
* Presentation Graphics         Chinese         27.019 kbps
* Presentation Graphics         Korean          22.915 kbps
Presentation Graphics           Japanese        23.738 kbps
FILES:
Name            Time In         Length          Size            Total Bitrate
----            -------         ------          ----            -------------
00012.M2TS      0:00:00.000     0:27:17.969     3,300,231,168   16,119
00005.M2TS      0:27:17.969     0:00:00.333     12,288          295
CHAPTERS:
Number          Time In         Length          Avg Video Rate  Max 1-Sec Rate  Max 1-Sec Time  Max 5-Sec Rate  Max 5-Sec Time  Max 10Sec Rate  Max 10Sec Time  Avg Frame Size  Max Frame Size  Max Frame Time
------          -------         ------          --------------  --------------  --------------  --------------  --------------  --------------  --------------  --------------  --------------  --------------
1               0:00:00.000     0:27:18.303     14,996 kbps     31,017 kbps     00:00:59.893    25,465 kbps     00:19:01.907    22,627 kbps     00:15:58.857    62,547 bytes    613,210 bytes   00:23:25.871
STREAM DIAGNOSTICS:
File            PID             Type            Codec           Language                Seconds                 Bitrate                 Bytes           Packets
----            ---             ----            -----           --------                --------------          --------------          -------------   -----
00012.M2TS      4113 (0x1011)   0x1B            AVC                                     1637.836                15,001                  3,071,070,081   16,719,421
00012.M2TS      4352 (0x1100)   0x81            AC3             und (Undetermined)      1637.836                192                     39,312,384      255,940
00012.M2TS      4608 (0x1200)   0x90            PGS             eng (English)           1637.836                15                      3,094,454       17,475
00012.M2TS      4609 (0x1201)   0x90            PGS             deu (German)            1637.836                15                      3,128,345       17,699
00012.M2TS      4610 (0x1202)   0x90            PGS             spa (Spanish)           1637.836                32                      6,510,679       36,736
00012.M2TS      4611 (0x1203)   0x90            PGS             zho (Chinese)           1637.836                27                      5,533,098       31,689
00012.M2TS      4612 (0x1204)   0x90            PGS             kor (Korean)            1637.836                23                      4,692,640       26,867
00012.M2TS      4613 (0x1205)   0x90            PGS             jpn (Japanese)          1637.836                24                      4,861,231       27,969
00005.M2TS      4113 (0x1011)   0x1B            AVC                                     0.200                   244                     6,107           41

QUICK SUMMARY:
Disc Title: THE_ASIA_TOUR
Disc Size: 47,158,578,518 bytes
Protection: AACS
BD-Java: No
Playlist: 00025.MPLS
Size: 3,300,243,456 bytes
Length: 0:27:18.303
Total Bitrate: 16.12 Mbps
Video: MPEG-4 AVC Video / 14996 kbps / 1080i / 29.970 fps / 16:9 / High Profile 4.1
Audio: Undetermined / Dolby Digital Audio / 2.0 / 48 kHz / 192 kbps
* Subtitle: English / 15.111 kbps
* Subtitle: German / 15.276 kbps
* Subtitle: Spanish / 31.792 kbps
* Subtitle: Chinese / 27.019 kbps
* Subtitle: Korean / 22.915 kbps
Subtitle: Japanese / 23.738 kbps
********************
PLAYLIST: 00017.MPLS
********************

Код:

                                                                                Total   Video
Title                                                           Codec   Length  Movie Size      Disc Size       Bitrate Bitrate Main Audio Track                          Secondary Audio Track
-----                                                           ------  ------- --------------  --------------  ------- ------- ------------------                        ---------------------
00017.MPLS                                                      AVC     0:01:55 215,230,464     47,158,578,518  14.88   13.95   DD AC3 2.0 192Kbps

Код:
DISC INFO:
Disc Title:     THE_ASIA_TOUR
Disc Size:      47,158,578,518 bytes
Protection:     AACS
BD-Java:        No
BDInfo:         0.7.1
PLAYLIST REPORT:
Name:                   00017.MPLS
Length:                 0:01:55.748 (h:m:s.ms)
Size:                   215,230,464 bytes
Total Bitrate:          14.88 Mbps
VIDEO:
Codec                   Bitrate             Description
-----                   -------             -----------
MPEG-4 AVC Video        13951 kbps          1080i / 29.970 fps / 16:9 / High Profile 4.1
AUDIO:
Codec                           Language        Bitrate         Description
-----                           --------        -------         -----------
Dolby Digital Audio             Undetermined    192 kbps        2.0 / 48 kHz / 192 kbps
FILES:
Name            Time In         Length          Size            Total Bitrate
----            -------         ------          ----            -------------
00020.M2TS      0:00:00.000     0:01:55.415     215,218,176     14,918
00005.M2TS      0:01:55.415     0:00:00.333     12,288          295
CHAPTERS:
Number          Time In         Length          Avg Video Rate  Max 1-Sec Rate  Max 1-Sec Time  Max 5-Sec Rate  Max 5-Sec Time  Max 10Sec Rate  Max 10Sec Time  Avg Frame Size  Max Frame Size  Max Frame Time
------          -------         ------          --------------  --------------  --------------  --------------  --------------  --------------  --------------  --------------  --------------  --------------
1               0:00:00.000     0:01:55.748     13,951 kbps     31,849 kbps     00:00:41.207    24,608 kbps     00:00:34.501    21,746 kbps     00:00:33.266    58,186 bytes    591,050 bytes   00:00:57.190
STREAM DIAGNOSTICS:
File            PID             Type            Codec           Language                Seconds                 Bitrate                 Bytes           Packets
----            ---             ----            -----           --------                --------------          --------------          -------------   -----
00020.M2TS      4113 (0x1011)   0x1B            AVC                                     115.282                 14,007                  201,840,778     1,098,989
00020.M2TS      4352 (0x1100)   0x81            AC3             und (Undetermined)      115.282                 192                     2,770,944       18,040
00005.M2TS      4113 (0x1011)   0x1B            AVC                                     0.200                   244                     6,107           41

QUICK SUMMARY:
Disc Title: THE_ASIA_TOUR
Disc Size: 47,158,578,518 bytes
Protection: AACS
BD-Java: No
Playlist: 00017.MPLS
Size: 215,230,464 bytes
Length: 0:01:55.748
Total Bitrate: 14.88 Mbps
Video: MPEG-4 AVC Video / 13951 kbps / 1080i / 29.970 fps / 16:9 / High Profile 4.1
Audio: Undetermined / Dolby Digital Audio / 2.0 / 48 kHz / 192 kbps
********************
PLAYLIST: 00012.MPLS
********************

Код:

                                                                                Total   Video
Title                                                           Codec   Length  Movie Size      Disc Size       Bitrate Bitrate Main Audio Track                          Secondary Audio Track
-----                                                           ------  ------- --------------  --------------  ------- ------- ------------------                        ---------------------
00012.MPLS                                                      AVC     0:01:55 214,026,240     47,158,578,518  14.87   13.94   DD AC3 2.0 192Kbps

Код:
DISC INFO:
Disc Title:     THE_ASIA_TOUR
Disc Size:      47,158,578,518 bytes
Protection:     AACS
BD-Java:        No
BDInfo:         0.7.1
PLAYLIST REPORT:
Name:                   00012.MPLS
Length:                 0:01:55.148 (h:m:s.ms)
Size:                   214,026,240 bytes
Total Bitrate:          14.87 Mbps
VIDEO:
Codec                   Bitrate             Description
-----                   -------             -----------
MPEG-4 AVC Video        13943 kbps          1080i / 29.970 fps / 16:9 / High Profile 4.1
AUDIO:
Codec                           Language        Bitrate         Description
-----                           --------        -------         -----------
Dolby Digital Audio             Undetermined    192 kbps        2.0 / 48 kHz / 192 kbps
FILES:
Name            Time In         Length          Size            Total Bitrate
----            -------         ------          ----            -------------
00015.M2TS      0:00:00.000     0:01:54.814     214,013,952     14,912
00005.M2TS      0:01:54.814     0:00:00.333     12,288          295
CHAPTERS:
Number          Time In         Length          Avg Video Rate  Max 1-Sec Rate  Max 1-Sec Time  Max 5-Sec Rate  Max 5-Sec Time  Max 10Sec Rate  Max 10Sec Time  Avg Frame Size  Max Frame Size  Max Frame Time
------          -------         ------          --------------  --------------  --------------  --------------  --------------  --------------  --------------  --------------  --------------  --------------
1               0:00:00.000     0:01:55.148     13,943 kbps     31,741 kbps     00:00:41.207    25,022 kbps     00:00:34.667    21,437 kbps     00:00:33.033    58,155 bytes    560,171 bytes   00:00:57.190
STREAM DIAGNOSTICS:
File            PID             Type            Codec           Language                Seconds                 Bitrate                 Bytes           Packets
----            ---             ----            -----           --------                --------------          --------------          -------------   -----
00015.M2TS      4113 (0x1011)   0x1B            AVC                                     114.681                 14,000                  200,686,411     1,092,711
00015.M2TS      4352 (0x1100)   0x81            AC3             und (Undetermined)      114.681                 193                     2,770,944       18,040
00005.M2TS      4113 (0x1011)   0x1B            AVC                                     0.200                   244                     6,107           41

QUICK SUMMARY:
Disc Title: THE_ASIA_TOUR
Disc Size: 47,158,578,518 bytes
Protection: AACS
BD-Java: No
Playlist: 00012.MPLS
Size: 214,026,240 bytes
Length: 0:01:55.148
Total Bitrate: 14.87 Mbps
Video: MPEG-4 AVC Video / 13943 kbps / 1080i / 29.970 fps / 16:9 / High Profile 4.1
Audio: Undetermined / Dolby Digital Audio / 2.0 / 48 kHz / 192 kbps
********************
PLAYLIST: 00014.MPLS
********************

Код:

                                                                                Total   Video
Title                                                           Codec   Length  Movie Size      Disc Size       Bitrate Bitrate Main Audio Track                          Secondary Audio Track
-----                                                           ------  ------- --------------  --------------  ------- ------- ------------------                        ---------------------
00014.MPLS                                                      AVC     0:01:55 214,087,680     47,158,578,518  14.88   13.95   DD AC3 2.0 192Kbps

Код:
DISC INFO:
Disc Title:     THE_ASIA_TOUR
Disc Size:      47,158,578,518 bytes
Protection:     AACS
BD-Java:        No
BDInfo:         0.7.1
PLAYLIST REPORT:
Name:                   00014.MPLS
Length:                 0:01:55.115 (h:m:s.ms)
Size:                   214,087,680 bytes
Total Bitrate:          14.88 Mbps
VIDEO:
Codec                   Bitrate             Description
-----                   -------             -----------
MPEG-4 AVC Video        13952 kbps          1080i / 29.970 fps / 16:9 / High Profile 4.1
AUDIO:
Codec                           Language        Bitrate         Description
-----                           --------        -------         -----------
Dolby Digital Audio             Undetermined    192 kbps        2.0 / 48 kHz / 192 kbps
FILES:
Name            Time In         Length          Size            Total Bitrate
----            -------         ------          ----            -------------
00017.M2TS      0:00:00.000     0:01:54.781     214,075,392     14,921
00005.M2TS      0:01:54.781     0:00:00.333     12,288          295
CHAPTERS:
Number          Time In         Length          Avg Video Rate  Max 1-Sec Rate  Max 1-Sec Time  Max 5-Sec Rate  Max 5-Sec Time  Max 10Sec Rate  Max 10Sec Time  Avg Frame Size  Max Frame Size  Max Frame Time
------          -------         ------          --------------  --------------  --------------  --------------  --------------  --------------  --------------  --------------  --------------  --------------
1               0:00:00.000     0:01:55.115     13,952 kbps     30,598 kbps     00:00:41.207    23,791 kbps     00:00:57.257    21,313 kbps     00:00:57.257    58,191 bytes    469,276 bytes   00:01:41.067
STREAM DIAGNOSTICS:
File            PID             Type            Codec           Language                Seconds                 Bitrate                 Bytes           Packets
----            ---             ----            -----           --------                --------------          --------------          -------------   -----
00017.M2TS      4113 (0x1011)   0x1B            AVC                                     114.681                 14,004                  200,752,219     1,093,055
00017.M2TS      4352 (0x1100)   0x81            AC3             und (Undetermined)      114.681                 193                     2,770,944       18,040
00005.M2TS      4113 (0x1011)   0x1B            AVC                                     0.200                   244                     6,107           41

QUICK SUMMARY:
Disc Title: THE_ASIA_TOUR
Disc Size: 47,158,578,518 bytes
Protection: AACS
BD-Java: No
Playlist: 00014.MPLS
Size: 214,087,680 bytes
Length: 0:01:55.115
Total Bitrate: 14.88 Mbps
Video: MPEG-4 AVC Video / 13952 kbps / 1080i / 29.970 fps / 16:9 / High Profile 4.1
Audio: Undetermined / Dolby Digital Audio / 2.0 / 48 kHz / 192 kbps
********************
PLAYLIST: 00015.MPLS
********************

Код:

                                                                                Total   Video
Title                                                           Codec   Length  Movie Size      Disc Size       Bitrate Bitrate Main Audio Track                          Secondary Audio Track
-----                                                           ------  ------- --------------  --------------  ------- ------- ------------------                        ---------------------
00015.MPLS                                                      AVC     0:01:55 214,093,824     47,158,578,518  14.88   13.95   DD AC3 2.0 192Kbps

Код:
DISC INFO:
Disc Title:     THE_ASIA_TOUR
Disc Size:      47,158,578,518 bytes
Protection:     AACS
BD-Java:        No
BDInfo:         0.7.1
PLAYLIST REPORT:
Name:                   00015.MPLS
Length:                 0:01:55.115 (h:m:s.ms)
Size:                   214,093,824 bytes
Total Bitrate:          14.88 Mbps
VIDEO:
Codec                   Bitrate             Description
-----                   -------             -----------
MPEG-4 AVC Video        13953 kbps          1080i / 29.970 fps / 16:9 / High Profile 4.1
AUDIO:
Codec                           Language        Bitrate         Description
-----                           --------        -------         -----------
Dolby Digital Audio             Undetermined    192 kbps        2.0 / 48 kHz / 192 kbps
FILES:
Name            Time In         Length          Size            Total Bitrate
----            -------         ------          ----            -------------
00018.M2TS      0:00:00.000     0:01:54.781     214,081,536     14,921
00005.M2TS      0:01:54.781     0:00:00.333     12,288          295
CHAPTERS:
Number          Time In         Length          Avg Video Rate  Max 1-Sec Rate  Max 1-Sec Time  Max 5-Sec Rate  Max 5-Sec Time  Max 10Sec Rate  Max 10Sec Time  Avg Frame Size  Max Frame Size  Max Frame Time
------          -------         ------          --------------  --------------  --------------  --------------  --------------  --------------  --------------  --------------  --------------  --------------
1               0:00:00.000     0:01:55.115     13,953 kbps     30,716 kbps     00:00:41.207    23,921 kbps     00:00:57.257    21,400 kbps     00:00:57.257    58,194 bytes    499,086 bytes   00:01:30.623
STREAM DIAGNOSTICS:
File            PID             Type            Codec           Language                Seconds                 Bitrate                 Bytes           Packets
----            ---             ----            -----           --------                --------------          --------------          -------------   -----
00018.M2TS      4113 (0x1011)   0x1B            AVC                                     114.681                 14,005                  200,762,217     1,093,071
00018.M2TS      4352 (0x1100)   0x81            AC3             und (Undetermined)      114.681                 193                     2,770,944       18,040
00005.M2TS      4113 (0x1011)   0x1B            AVC                                     0.200                   244                     6,107           41

QUICK SUMMARY:
Disc Title: THE_ASIA_TOUR
Disc Size: 47,158,578,518 bytes
Protection: AACS
BD-Java: No
Playlist: 00015.MPLS
Size: 214,093,824 bytes
Length: 0:01:55.115
Total Bitrate: 14.88 Mbps
Video: MPEG-4 AVC Video / 13953 kbps / 1080i / 29.970 fps / 16:9 / High Profile 4.1
Audio: Undetermined / Dolby Digital Audio / 2.0 / 48 kHz / 192 kbps
********************
PLAYLIST: 00013.MPLS
********************

Код:

                                                                                Total   Video
Title                                                           Codec   Length  Movie Size      Disc Size       Bitrate Bitrate Main Audio Track                          Secondary Audio Track
-----                                                           ------  ------- --------------  --------------  ------- ------- ------------------                        ---------------------
00013.MPLS                                                      AVC     0:01:55 214,093,824     47,158,578,518  14.88   13.96   DD AC3 2.0 192Kbps

Код:
DISC INFO:
Disc Title:     THE_ASIA_TOUR
Disc Size:      47,158,578,518 bytes
Protection:     AACS
BD-Java:        No
BDInfo:         0.7.1
PLAYLIST REPORT:
Name:                   00013.MPLS
Length:                 0:01:55.081 (h:m:s.ms)
Size:                   214,093,824 bytes
Total Bitrate:          14.88 Mbps
VIDEO:
Codec                   Bitrate             Description
-----                   -------             -----------
MPEG-4 AVC Video        13956 kbps          1080i / 29.970 fps / 16:9 / High Profile 4.1
AUDIO:
Codec                           Language        Bitrate         Description
-----                           --------        -------         -----------
Dolby Digital Audio             Undetermined    192 kbps        2.0 / 48 kHz / 192 kbps
FILES:
Name            Time In         Length          Size            Total Bitrate
----            -------         ------          ----            -------------
00016.M2TS      0:00:00.000     0:01:54.747     214,081,536     14,925
00005.M2TS      0:01:54.747     0:00:00.333     12,288          295
CHAPTERS:
Number          Time In         Length          Avg Video Rate  Max 1-Sec Rate  Max 1-Sec Time  Max 5-Sec Rate  Max 5-Sec Time  Max 10Sec Rate  Max 10Sec Time  Avg Frame Size  Max Frame Size  Max Frame Time
------          -------         ------          --------------  --------------  --------------  --------------  --------------  --------------  --------------  --------------  --------------  --------------
1               0:00:00.000     0:01:55.081     13,956 kbps     30,722 kbps     00:00:41.207    23,812 kbps     00:00:57.257    21,398 kbps     00:00:57.257    58,207 bytes    498,702 bytes   00:01:30.623
STREAM DIAGNOSTICS:
File            PID             Type            Codec           Language                Seconds                 Bitrate                 Bytes           Packets
----            ---             ----            -----           --------                --------------          --------------          -------------   -----
00016.M2TS      4113 (0x1011)   0x1B            AVC                                     114.681                 14,004                  200,750,787     1,093,062
00016.M2TS      4352 (0x1100)   0x81            AC3             und (Undetermined)      114.681                 193                     2,770,944       18,040
00005.M2TS      4113 (0x1011)   0x1B            AVC                                     0.200                   244                     6,107           41

QUICK SUMMARY:
Disc Title: THE_ASIA_TOUR
Disc Size: 47,158,578,518 bytes
Protection: AACS
BD-Java: No
Playlist: 00013.MPLS
Size: 214,093,824 bytes
Length: 0:01:55.081
Total Bitrate: 14.88 Mbps
Video: MPEG-4 AVC Video / 13956 kbps / 1080i / 29.970 fps / 16:9 / High Profile 4.1
Audio: Undetermined / Dolby Digital Audio / 2.0 / 48 kHz / 192 kbps
********************
PLAYLIST: 00016.MPLS
********************

Код:

                                                                                Total   Video
Title                                                           Codec   Length  Movie Size      Disc Size       Bitrate Bitrate Main Audio Track                          Secondary Audio Track
-----                                                           ------  ------- --------------  --------------  ------- ------- ------------------                        ---------------------
00016.MPLS                                                      AVC     0:01:54 213,387,264     47,158,578,518  14.88   13.95   DD AC3 2.0 192Kbps

Код:
DISC INFO:
Disc Title:     THE_ASIA_TOUR
Disc Size:      47,158,578,518 bytes
Protection:     AACS
BD-Java:        No
BDInfo:         0.7.1
PLAYLIST REPORT:
Name:                   00016.MPLS
Length:                 0:01:54.714 (h:m:s.ms)
Size:                   213,387,264 bytes
Total Bitrate:          14.88 Mbps
VIDEO:
Codec                   Bitrate             Description
-----                   -------             -----------
MPEG-4 AVC Video        13953 kbps          1080i / 29.970 fps / 16:9 / High Profile 4.1
AUDIO:
Codec                           Language        Bitrate         Description
-----                           --------        -------         -----------
Dolby Digital Audio             Undetermined    192 kbps        2.0 / 48 kHz / 192 kbps
FILES:
Name            Time In         Length          Size            Total Bitrate
----            -------         ------          ----            -------------
00019.M2TS      0:00:00.000     0:01:54.380     213,374,976     14,924
00005.M2TS      0:01:54.380     0:00:00.333     12,288          295
CHAPTERS:
Number          Time In         Length          Avg Video Rate  Max 1-Sec Rate  Max 1-Sec Time  Max 5-Sec Rate  Max 5-Sec Time  Max 10Sec Rate  Max 10Sec Time  Avg Frame Size  Max Frame Size  Max Frame Time
------          -------         ------          --------------  --------------  --------------  --------------  --------------  --------------  --------------  --------------  --------------  --------------
1               0:00:00.000     0:01:54.714     13,953 kbps     30,547 kbps     00:00:40.807    23,796 kbps     00:00:36.770    20,848 kbps     00:00:56.723    58,197 bytes    617,868 bytes   00:01:13.573
STREAM DIAGNOSTICS:
File            PID             Type            Codec           Language                Seconds                 Bitrate                 Bytes           Packets
----            ---             ----            -----           --------                --------------          --------------          -------------   -----
00019.M2TS      4113 (0x1011)   0x1B            AVC                                     114.281                 14,006                  200,073,465     1,089,388
00019.M2TS      4352 (0x1100)   0x81            AC3             und (Undetermined)      114.281                 194                     2,770,944       18,040
00005.M2TS      4113 (0x1011)   0x1B            AVC                                     0.200                   244                     6,107           41

QUICK SUMMARY:
Disc Title: THE_ASIA_TOUR
Disc Size: 47,158,578,518 bytes
Protection: AACS
BD-Java: No
Playlist: 00016.MPLS
Size: 213,387,264 bytes
Length: 0:01:54.714
Total Bitrate: 14.88 Mbps
Video: MPEG-4 AVC Video / 13953 kbps / 1080i / 29.970 fps / 16:9 / High Profile 4.1
Audio: Undetermined / Dolby Digital Audio / 2.0 / 48 kHz / 192 kbps
                                                                                       
                       
                       
                       
                       
                       
                                 磁力下载(论坛代下载服务)
                                                               
                                       
游客,本主题需向作者支付 10金币 才能浏览,金币充值, 免回复、免金币,直接查看内容请开通VIP支付

                                               
  • 43.92 GB
  • 温馨提示

    记得善用社区搜索功能,那里可能会有你想要的资源;论坛站内搜索

    如果你有什么需要的资源可以去资源求档发帖,求助社区的网友,我们会在第一时间给你回复哦;资源求档

    对于本社区网盘链接失效密码错误各种报错请在反馈板块反馈报错发帖,您的支持,是我们发展的最大动力;投诉建议

    回复

    使用道具 举报

    您需要登录后才可以回帖 登录 | 立即注册 微信登录

    本版积分规则

    关注0

    粉丝0

    帖子29493

    发布主题
    阅读排行更多+
    关闭

    站长推荐上一条 /1 下一条

    收藏帖子 返回列表 这是一个自定义按钮
    音乐分享,音乐下载。
    微信公众号
    微信号:maomiyinyue
    意见反馈:admin@maomicd.com

    加入我们的官方QQ群和微信群

    Powered by Discuz! X3.4 Archiver|手机版|小黑屋|猫咪音乐网 ( 苏ICP备20015413号 )|( 苏公网安备 32030502000272号) 繁體

    JS of wanmeiff.com and vcpic.com Please keep this copyright information, respect of, thank you!JS of wanmeiff.com and vcpic.com Please keep this copyright information, respect of, thank you!

    GMT+8, 2021-1-19 10:22