自购原抓音乐圈:只有自购、合购、原抓级高解析(hires、sacd、dsd)正版音乐资源分享!【点我打开
极速无线网卡:千兆无线网卡、服务器网卡、USB接口台式机笔记本网卡 千兆网线 厂家批发价格最低!【点我打开
广告

[古典音乐] 贝多芬 - 交响曲1-9(柏林伯勒法利克尔,Sir Simon Rattle)[2016年,古典,2xblu-ray]

[复制链接]
10086 发表于 2020-12-20 20:46:24 | 显示全部楼层 |阅读模式 打印 上一主题 下一主题
Beethoven - Symphonies 1-9 (Berliner Philharmoniker, Sir Simon Rattle)
Год выпуска: 2016
Лейбл: Berliner Philharmoniker Record
Жанр: Classical
Продолжительность: 04:09:20 + 04:08:08
Дирижер : Sir Simon Rattle
Исполнители:
Annette Dasch, soprano #2.14
Eva Vogel, mezzo-soprano #2.14
Christian Elsner, tenor #2.14
Dimitry Ivashchenko, bass #2.14
Rundfunkchor Berlin #2.14
Simon Halsey, chorus master #2.14
Berliner Philharmoniker
Описание: Recordings of all the Beethoven symphonies with their chief conductor are always a milestone in the artistic work of the Berliner Philharmoniker. So it was with Herbert von Karajan and Claudio Abbado, and expectations are correspondingly high for this cycle conducted by Sir Simon Rattle. Where does the special status of these symphonies come from? Simon Rattle has an explanation: “One of the things Beethoven does is to give you a mirror into yourself – where you are now as a musician.” In fact, this music contains such a wealth of extreme emotions and brilliant compositional ideas that reveal the qualities of the orchestra and its conductor as if under a magnifying glass.
On his personal approach to the performances, Sir Simon said, “You can make Beethoven too sophisticated or too elegant, you can clean him up too much. You can try to make him agree with himself when often he’s fighting with himself. I have the feeling probably that the more plain-spoken this music is, the better it is. And one knows with this orchestra, when you say ʻwill you joyfully motor this machine off the clifftop?ʼ, everybody says ʻof course we willʼ.” The concerts in which the Berliner Philharmoniker and their chief presented the symphonies in the Philharmonie in October 2015 were as thrilling as this suggests. The virtuosity of the works was revealed as impressively as their revolutionary energy. Performances in Paris, Vienna and New York followed and were rewarded with standing ovations from audiences.
The recording of the Berlin performances is available in an exclusive hardcover edition. It includes the cycle on five CDs and three Blu-ray discs as HD video, in uncompressed audio resolution and DTS surround sound. Its many extras include a video introduction with Sir Simon Rattle and a documentary about the making of the recordings with many interviews and glimpses behind-the-scenes.
Два диска Blu-ray видео из восьмидискового издания (+ BD-Audio + 5хСD)
Источник

BD1
Продолжительность: 04:09:20
Треклист:
Ludwig van Beethoven (1770-1827)
• Symphony No. 1 in C major, Op. 21
1. 1. Adagio molto – Allegro con brio 08:36
2. 2. Andante cantabile con moto 07:17
3. 3. Menuetto: Allegro molto e vivace – Trio 03:24
4. 4. Finale: Adagio – Allegro molto e vivace 05:25
• Symphony No. 3 in E flat major, Op. 55 “Eroica”
5. 1. Allegro con brio 16:20
6. 2. Marcia funebre: Adagio assai 15:17
7. 3. Scherzo: Allegro vivace – Trio 05:50
8. 4. Finale: Allegro molto – Poco andante – Presto 11:42
• Symphony No. 2 in D major, Op. 36
9. 1. Adagio – Allegro con brio 11:33
10. 2. Larghetto 09:54
11. 3. Scherzo: Allegro – Trio 13:18
12. 4. Allegro molto 06:00
• Symphony No. 5 in C minor, Op. 67
13. 1. Allegro con brio 06:59
14. 2. Andante con moto 09:03
15. 3. Allegro – 04:35
16. 4. Allegro – Presto 09:55
• Symphony No. 4 in B flat major, Op. 60
17. 1. Adagio – Allegro vivace 11:36
18. 2. Adagio 09:46
19. 3. Allegro molto e vivace – Trio: Un poco meno allegro – Tempo I – Un poco meno allegro 05:29
20. 4. Allegro ma non troppo 06:38
• Symphony No. 7 in A major, Op. 92
21. 1. Poco sostenuto – Vivace 13:45
22. 2. Allegretto 08:43
23. 3. Presto – Trio I und II: Assai meno presto 08:27
24. 4. Allegro con brio 08:17
• Bonus videos:
- The Berliner Philharmoniker's Digital Concert Hall - Trailer
- Behind The Scenes
Качество видео: Blu-ray
Формат/Контейнер: BDMV
Видео кодек: H.264
Аудио кодек: PCM, DTS
Видео поток: MPEG-4 AVC Video / 19992 kbps / 1080i / 29,970 fps / 16:9 / High Profile 4.1
Аудио поток#1: German / LPCM Audio / 2.0 / 48 kHz / 1536 kbps / 16-bit
Аудио поток#2: German / DTS-HD Master Audio / 5.0 / 48 kHz / 2273 kbps / 16-bit (DTS Core: 5.0 / 48 kHz / 1509 kbps / 16-bit)
BDInfo

Disc Title:     BEETHOVEN_BD1
Disc Size:      48 269 440 554 bytes
Protection:     AACS
BD-Java:        No
BDInfo:         0.5.8
Notes:
BDINFO HOME:
  Cinema Squid
    http://www.cinemasquid.com/blu-ray/tools/bdinfo
INCLUDES FORUMS REPORT FOR:
  AVS Forum Blu-ray Audio and Video Specifications Thread
    http://www.avsforum.com/avs-vb/showthread.php?t=1155731
********************
PLAYLIST: 00001.MPLS
********************
Код
1
                                                                                Total   Video
Title                                                           Codec   Length  Movie Size      Disc Size       Bitrate Bitrate Main Audio Track                          Secondary Audio Track
-----                                                           ------  ------- --------------  --------------  ------- ------- ------------------                        ---------------------
00001.MPLS                                                      AVC     0:56:09 10 692 587 520  48 269 440 554  25,39   19,99   LPCM 2.0 1536Kbps (48kHz/16-bit)          DTS-HD Master 5.0 2273Kbps (48kHz/16-bit)
Код
1
DISC INFO:
Disc Title:     BEETHOVEN_BD1
Disc Size:      48 269 440 554 bytes
Protection:     AACS
BD-Java:        No
BDInfo:         0.5.8
PLAYLIST REPORT:
Name:                   00001.MPLS
Length:                 0:56:09.065 (h:m:s.ms)
Size:                   10 692 587 520 bytes
Total Bitrate:          25,39 Mbps
VIDEO:
Codec                   Bitrate             Description
-----                   -------             -----------
MPEG-4 AVC Video        19992 kbps          1080i / 29,970 fps / 16:9 / High Profile 4.1
AUDIO:
Codec                           Language        Bitrate         Description
-----                           --------        -------         -----------
LPCM Audio                      German          1536 kbps       2.0 / 48 kHz / 1536 kbps / 16-bit
DTS-HD Master Audio             German          2273 kbps       5.0 / 48 kHz / 2273 kbps / 16-bit (DTS Core: 5.0 / 48 kHz / 1509 kbps / 16-bit)
FILES:
Name            Time In         Length          Size            Total Bitrate
----            -------         ------          ----            -------------
00001.M2TS      0:00:00.000     0:56:09.065     10 692 587 520  25 390
CHAPTERS:
Number          Time In         Length          Avg Video Rate  Max 1-Sec Rate  Max 1-Sec Time  Max 5-Sec Rate  Max 5-Sec Time  Max 10Sec Rate  Max 10Sec Time  Avg Frame Size  Max Frame Size  Max Frame Time
------          -------         ------          --------------  --------------  --------------  --------------  --------------  --------------  --------------  --------------  --------------  --------------
1               0:00:00.000     0:00:29.729     17 026 kbps     29 381 kbps     00:00:18.118    26 701 kbps     00:00:15.582    25 161 kbps     00:00:15.682    70 934 bytes    262 838 bytes   00:00:22.021
2               0:00:29.729     0:16:58.250     20 548 kbps     32 134 kbps     00:00:36.169    30 066 kbps     00:13:43.255    29 293 kbps     00:13:38.250    85 702 bytes    313 423 bytes   00:08:30.209
3               0:17:27.980     0:16:29.121     18 613 kbps     29 666 kbps     00:25:14.880    28 492 kbps     00:25:06.504    28 303 kbps     00:25:07.072    77 633 bytes    294 863 bytes   00:25:07.105
4               0:33:57.101     0:05:54.620     19 568 kbps     32 923 kbps     00:37:05.456    30 984 kbps     00:37:05.456    26 754 kbps     00:37:05.456    81 613 bytes    332 689 bytes   00:37:05.990
5               0:39:51.722     0:11:58.784     20 927 kbps     34 638 kbps     00:48:53.063    33 348 kbps     00:48:51.828    31 803 kbps     00:48:47.858    87 282 bytes    334 835 bytes   00:48:09.886
6               0:51:50.507     0:04:18.558     21 407 kbps     34 491 kbps     00:55:22.085    30 705 kbps     00:52:19.669    29 621 kbps     00:53:04.748    89 298 bytes    325 021 bytes   00:54:27.697
STREAM DIAGNOSTICS:
File            PID             Type            Codec           Language                Seconds                 Bitrate                 Bytes           Packets
----            ---             ----            -----           --------                --------------          --------------          -------------   -----
00001.M2TS      4113 (0x1011)   0x1B            AVC                                     3368,932                19 993                  8 419 470 970   45 816 669
00001.M2TS      4352 (0x1100)   0x80            LPCM            deu (German)            3368,932                1 542                   649 556 696     4 042 884
00001.M2TS      4353 (0x1101)   0x86            DTS-HD MA       deu (German)            3368,932                2 273                   957 364 772     5 718 107
QUICK SUMMARY:
Disc Title: BEETHOVEN_BD1
Disc Size: 48 269 440 554 bytes
Protection: AACS
BD-Java: No
Playlist: 00001.MPLS
Size: 10 692 587 520 bytes
Length: 0:56:09.065
Total Bitrate: 25,39 Mbps
Video: MPEG-4 AVC Video / 19992 kbps / 1080i / 29,970 fps / 16:9 / High Profile 4.1
Audio: German / LPCM Audio / 2.0 / 48 kHz / 1536 kbps / 16-bit
Audio: German / DTS-HD Master Audio / 5.0 / 48 kHz / 2273 kbps / 16-bit (DTS Core: 5.0 / 48 kHz / 1509 kbps / 16-bit)


Скриншоты






















BD2
Продолжительность: 04:08:08
Треклист:
Ludwig van Beethoven (1770-1827)
• Symphony No. 8 in F major, Op. 93
1. 1. Allegro vivace e con brio 09:10
2. 2. Allegretto scherzando 03:54
3. 3. Tempo di Menuetto – Trio 04:38
4. 4. Allegro vivace 07:26
• Symphony No. 6 in F major, Op. 68 “Pastoral”
5. 1. Angenehme, heitere Empfindungen, welche bei der Ankunft auf dem Lande im Menschen erwachen: Allegro ma non troppo 12:00
6. 2. Szene am Bach: Andante molto mosso 11:57
7. 3. Lustiges Zusammensein der Landleute: Allegro – 05:04
8. 4. Donner. Sturm: Allegro – 03:53
9. 5. Hirtengesang. Wohltätige, mit Dank an die Gottheit verbundene Gefühle nach dem Sturm: Allegretto 09:42
• Symphony No. 9 in D minor, Op. 125
10. 1. Allegro ma non troppo e un poco maestoso 15:20
11. 2. Molto vivace – Presto – Molto vivace – Presto 13:27
12. 3. Adagio molto e cantabile 15:56
13. 4a. Presto – 06:02
14. 4b. Presto – Recitativo “O Freunde, nicht diese Töne!” 17:02
• Bonus videos:
- Documentary: “Living with Beethoven” The nine symphonies with the Berliner Philharmoniker and Sir Simon Rattle
- Introduction: Sir Simon Rattle talks about Beethoven's Symphonies
Качество видео: Blu-ray
Формат/Контейнер: BDMV
Видео кодек: H.264
Аудио кодек: PCM, DTS
Видео поток: MPEG-4 AVC Video / 19996 kbps / 1080i / 29,970 fps / 16:9 / High Profile 4.1
Аудио поток#1: German / LPCM Audio / 2.0 / 48 kHz / 1536 kbps / 16-bit
Аудио поток#2: German / DTS-HD Master Audio / 5.0 / 48 kHz / 2267 kbps / 16-bit (DTS Core: 5.0 / 48 kHz / 1509 kbps / 16-bit)
BDInfo

Disc Title:     BEETHOVEN_BD2
Disc Size:      45 781 275 150 bytes
Protection:     AACS
BD-Java:        No
BDInfo:         0.5.8
Notes:
BDINFO HOME:
  Cinema Squid
    http://www.cinemasquid.com/blu-ray/tools/bdinfo
INCLUDES FORUMS REPORT FOR:
  AVS Forum Blu-ray Audio and Video Specifications Thread
    http://www.avsforum.com/avs-vb/showthread.php?t=1155731
********************
PLAYLIST: 00002.MPLS
********************
Код
1
                                                                                Total   Video
Title                                                           Codec   Length  Movie Size      Disc Size       Bitrate Bitrate Main Audio Track                          Secondary Audio Track
-----                                                           ------  ------- --------------  --------------  ------- ------- ------------------                        ---------------------
00002.MPLS                                                      AVC     1:16:22 14 548 684 800  45 781 275 150  25,40   20,00   LPCM 2.0 1536Kbps (48kHz/16-bit)          DTS-HD Master 5.0 2267Kbps (48kHz/16-bit)
Код
1
DISC INFO:
Disc Title:     BEETHOVEN_BD2
Disc Size:      45 781 275 150 bytes
Protection:     AACS
BD-Java:        No
BDInfo:         0.5.8
PLAYLIST REPORT:
Name:                   00002.MPLS
Length:                 1:16:22.878 (h:m:s.ms)
Size:                   14 548 684 800 bytes
Total Bitrate:          25,40 Mbps
VIDEO:
Codec                   Bitrate             Description
-----                   -------             -----------
MPEG-4 AVC Video        19996 kbps          1080i / 29,970 fps / 16:9 / High Profile 4.1
AUDIO:
Codec                           Language        Bitrate         Description
-----                           --------        -------         -----------
LPCM Audio                      German          1536 kbps       2.0 / 48 kHz / 1536 kbps / 16-bit
DTS-HD Master Audio             German          2267 kbps       5.0 / 48 kHz / 2267 kbps / 16-bit (DTS Core: 5.0 / 48 kHz / 1509 kbps / 16-bit)
SUBTITLES:
Codec                           Language        Bitrate         Description
-----                           --------        -------         -----------
Presentation Graphics           German          3,157 kbps
Presentation Graphics           English         3,004 kbps
Presentation Graphics           Japanese        2,631 kbps
FILES:
Name            Time In         Length          Size            Total Bitrate
----            -------         ------          ----            -------------
00002.M2TS      0:00:00.000     1:16:22.878     14 548 684 800  25 397
CHAPTERS:
Number          Time In         Length          Avg Video Rate  Max 1-Sec Rate  Max 1-Sec Time  Max 5-Sec Rate  Max 5-Sec Time  Max 10Sec Rate  Max 10Sec Time  Avg Frame Size  Max Frame Size  Max Frame Time
------          -------         ------          --------------  --------------  --------------  --------------  --------------  --------------  --------------  --------------  --------------  --------------
1               0:00:00.000     0:00:35.902     17 888 kbps     31 932 kbps     00:00:16.549    30 189 kbps     00:00:16.182    28 153 kbps     00:00:14.547    74 537 bytes    295 381 bytes   00:00:21.755
2               0:00:35.902     0:15:44.343     21 097 kbps     34 630 kbps     00:07:16.936    33 860 kbps     00:07:15.868    33 415 kbps     00:07:12.632    87 993 bytes    414 762 bytes   00:10:47.380
3               0:16:20.245     0:14:28.434     20 291 kbps     34 275 kbps     00:16:55.714    32 139 kbps     00:16:55.714    31 121 kbps     00:16:55.714    84 631 bytes    381 655 bytes   00:30:10.508
4               0:30:48.680     0:16:02.594     20 211 kbps     33 119 kbps     00:43:37.715    29 909 kbps     00:40:51.582    28 845 kbps     00:40:47.478    84 298 bytes    349 646 bytes   00:46:47.371
5               0:46:51.275     0:06:21.114     19 674 kbps     35 140 kbps     00:51:53.510    33 177 kbps     00:52:21.338    29 690 kbps     00:51:24.915    82 056 bytes    351 426 bytes   00:47:18.602
6               0:53:12.389     0:17:05.157     17 865 kbps     34 114 kbps     01:08:50.893    32 189 kbps     01:09:49.351    30 357 kbps     01:05:59.822    74 512 bytes    385 243 bytes   00:54:06.409
7               1:10:17.546     0:06:05.331     22 404 kbps     35 131 kbps     01:13:32.841    33 605 kbps     01:13:43.485    32 607 kbps     01:13:38.347    93 452 bytes    363 522 bytes   01:13:46.822
STREAM DIAGNOSTICS:
File            PID             Type            Codec           Language                Seconds                 Bitrate                 Bytes           Packets
----            ---             ----            -----           --------                --------------          --------------          -------------   -----
00002.M2TS      4113 (0x1011)   0x1B            AVC                                     4582,745                19 997                  11 454 917 528  62 335 229
00002.M2TS      4352 (0x1100)   0x80            LPCM            deu (German)            4582,745                1 542                   883 579 264     5 499 456
00002.M2TS      4353 (0x1101)   0x86            DTS-HD MA       deu (German)            4582,745                2 267                   1 298 664 064   7 757 379
00002.M2TS      4608 (0x1200)   0x90            PGS             deu (German)            4582,745                3                       1 808 662       10 295
00002.M2TS      4609 (0x1201)   0x90            PGS             eng (English)           4582,745                3                       1 720 631       9 816
00002.M2TS      4610 (0x1202)   0x90            PGS             jpn (Japanese)          4582,745                3                       1 507 103       8 665
QUICK SUMMARY:
Disc Title: BEETHOVEN_BD2
Disc Size: 45 781 275 150 bytes
Protection: AACS
BD-Java: No
Playlist: 00002.MPLS
Size: 14 548 684 800 bytes
Length: 1:16:22.878
Total Bitrate: 25,40 Mbps
Video: MPEG-4 AVC Video / 19996 kbps / 1080i / 29,970 fps / 16:9 / High Profile 4.1
Audio: German / LPCM Audio / 2.0 / 48 kHz / 1536 kbps / 16-bit
Audio: German / DTS-HD Master Audio / 5.0 / 48 kHz / 2267 kbps / 16-bit (DTS Core: 5.0 / 48 kHz / 1509 kbps / 16-bit)
Subtitle: German / 3,157 kbps
Subtitle: English / 3,004 kbps
Subtitle: Japanese / 2,631 kbps
********************
PLAYLIST: 00000.MPLS
********************
Код
1
                                                                                Total   Video
Title                                                           Codec   Length  Movie Size      Disc Size       Bitrate Bitrate Main Audio Track                          Secondary Audio Track
-----                                                           ------  ------- --------------  --------------  ------- ------- ------------------                        ---------------------
00000.MPLS                                                      AVC     0:49:37 9 452 808 192   45 781 275 150  25,39   19,99   LPCM 2.0 1536Kbps (48kHz/16-bit)          DTS-HD Master 5.0 2279Kbps (48kHz/16-bit)
Код
1
DISC INFO:
Disc Title:     BEETHOVEN_BD2
Disc Size:      45 781 275 150 bytes
Protection:     AACS
BD-Java:        No
BDInfo:         0.5.8
PLAYLIST REPORT:
Name:                   00000.MPLS
Length:                 0:49:37.974 (h:m:s.ms)
Size:                   9 452 808 192 bytes
Total Bitrate:          25,39 Mbps
VIDEO:
Codec                   Bitrate             Description
-----                   -------             -----------
MPEG-4 AVC Video        19993 kbps          1080i / 29,970 fps / 16:9 / High Profile 4.1
AUDIO:
Codec                           Language        Bitrate         Description
-----                           --------        -------         -----------
LPCM Audio                      German          1536 kbps       2.0 / 48 kHz / 1536 kbps / 16-bit
DTS-HD Master Audio             German          2279 kbps       5.0 / 48 kHz / 2279 kbps / 16-bit (DTS Core: 5.0 / 48 kHz / 1509 kbps / 16-bit)
FILES:
Name            Time In         Length          Size            Total Bitrate
----            -------         ------          ----            -------------
00000.M2TS      0:00:00.000     0:49:37.974     9 452 808 192   25 394
CHAPTERS:
Number          Time In         Length          Avg Video Rate  Max 1-Sec Rate  Max 1-Sec Time  Max 5-Sec Rate  Max 5-Sec Time  Max 10Sec Rate  Max 10Sec Time  Avg Frame Size  Max Frame Size  Max Frame Time
------          -------         ------          --------------  --------------  --------------  --------------  --------------  --------------  --------------  --------------  --------------  --------------
1               0:00:00.000     0:00:36.102     15 585 kbps     30 443 kbps     00:00:17.817    29 400 kbps     00:00:16.616    26 788 kbps     00:00:16.116    64 943 bytes    276 241 bytes   00:00:23.023
2               0:00:36.102     0:12:17.303     21 101 kbps     34 157 kbps     00:03:47.460    33 868 kbps     00:03:47.260    33 301 kbps     00:03:46.259    88 009 bytes    318 673 bytes   00:03:54.067
3               0:12:53.405     0:12:32.351     19 140 kbps     29 758 kbps     00:22:05.257    27 876 kbps     00:13:28.274    27 658 kbps     00:13:24.904    79 831 bytes    285 016 bytes   00:20:21.787
4               0:25:25.757     0:05:09.676     18 961 kbps     29 879 kbps     00:29:45.450    28 694 kbps     00:29:41.446    26 103 kbps     00:29:39.577    79 082 bytes    274 834 bytes   00:28:16.528
5               0:30:35.433     0:03:55.134     18 919 kbps     30 511 kbps     00:31:27.952    28 513 kbps     00:31:27.919    25 824 kbps     00:31:28.353    78 906 bytes    262 514 bytes   00:31:34.959
6               0:34:30.568     0:09:46.052     20 044 kbps     32 765 kbps     00:40:59.924    31 673 kbps     00:40:58.522    31 465 kbps     00:40:59.623    83 599 bytes    285 568 bytes   00:41:09.366
7               0:44:16.620     0:05:21.354     21 628 kbps     33 143 kbps     00:49:11.548    30 813 kbps     00:49:10.681    28 462 kbps     00:48:10.387    90 218 bytes    307 187 bytes   00:47:02.986
STREAM DIAGNOSTICS:
File            PID             Type            Codec           Language                Seconds                 Bitrate                 Bytes           Packets
----            ---             ----            -----           --------                --------------          --------------          -------------   -----
00000.M2TS      4113 (0x1011)   0x1B            AVC                                     2977,842                19 994                  7 442 255 361   40 498 954
00000.M2TS      4352 (0x1100)   0x80            LPCM            deu (German)            2977,842                1 542                   574 153 580     3 573 570
00000.M2TS      4353 (0x1101)   0x86            DTS-HD MA       deu (German)            2977,842                2 279                   848 300 424     5 061 054
QUICK SUMMARY:
Disc Title: BEETHOVEN_BD2
Disc Size: 45 781 275 150 bytes
Protection: AACS
BD-Java: No
Playlist: 00000.MPLS
Size: 9 452 808 192 bytes
Length: 0:49:37.974
Total Bitrate: 25,39 Mbps
Video: MPEG-4 AVC Video / 19993 kbps / 1080i / 29,970 fps / 16:9 / High Profile 4.1
Audio: German / LPCM Audio / 2.0 / 48 kHz / 1536 kbps / 16-bit
Audio: German / DTS-HD Master Audio / 5.0 / 48 kHz / 2279 kbps / 16-bit (DTS Core: 5.0 / 48 kHz / 1509 kbps / 16-bit)

Скриншоты






















                                                                                       
                       
                       
                       
                       
                       
                                 磁力下载(论坛代下载服务)
                                                               
                                       
游客,本主题需向作者支付 10金币 才能浏览,金币充值, 免回复、免金币,直接查看内容请开通VIP支付

                                               
  • 87.59 GB
  • 温馨提示

    记得善用社区搜索功能,那里可能会有你想要的资源;论坛站内搜索

    如果你有什么需要的资源可以去资源求档发帖,求助社区的网友,我们会在第一时间给你回复哦;资源求档

    对于本社区网盘链接失效密码错误各种报错请在反馈板块反馈报错发帖,您的支持,是我们发展的最大动力;投诉建议

    回复

    使用道具 举报

    您需要登录后才可以回帖 登录 | 立即注册 微信登录

    本版积分规则

    关注0

    粉丝3

    帖子50909

    发布主题
    阅读排行更多+
    关闭

    站长推荐上一条 /1 下一条

    收藏帖子 返回列表 这是一个自定义按钮
    音乐分享,音乐下载。
    微信公众号
    微信号:maomiyinyue
    意见反馈:[email protected]

    加入我们的官方QQ群和微信群

    Powered by Discuz! X3.4 Archiver|手机版|小黑屋|猫咪音乐网 ( 苏ICP备20015413号 )|( 苏公网安备 32030502000272号) 繁體

    JS of wanmeiff.com and vcpic.com Please keep this copyright information, respect of, thank you!JS of wanmeiff.com and vcpic.com Please keep this copyright information, respect of, thank you!

    GMT+8, 2021-1-26 10:24