自购原抓音乐圈:只有自购、合购、原抓级高解析(hires、sacd、dsd)正版音乐资源分享!【点我打开
极速无线网卡:千兆无线网卡、服务器网卡、USB接口台式机笔记本网卡 千兆网线 厂家批发价格最低!【点我打开
广告

[古典音乐] Henryk Mikolaj Gorecki - 交响曲号码3:悲伤歌曲的交响曲,OP。 36(Krzysztof Penderecki,Beth Gibbons,波兰国家广播交响乐团)[2019年,交响乐,现代古典,网络DL 1080p]

[复制链接]
全球搬运 发表于 2020-12-20 20:46:23 | 显示全部楼层 |阅读模式 打印 上一主题 下一主题
Henryk Mikołaj Górecki - Symphony No. 3: Symphony of Sorrowful Songs, Op. 36
Год выпуска: 2019
Лейбл: Domino Recording Company
Жанр: Symphony, Modern Classical
Продолжительность: 00:50:48
Дирижер: Krzysztof Penderecki
Исполнители: Beth Gibbons, Polish National Radio Symphony Orchestra
Треклист:
1. Lento - Sostenuto Tranquillo Ma Cantabile
2. Lento E Largo - Tranquillissimo
3. Lento - Cantabile-Semplice
Описание: Domino is proud to present Henryk Górecki: Symphony No. 3 (Symphony of Sorrowful Songs) performed by Beth Gibbons and the Polish National Radio Symphony Orchestra, conducted by Krzysztof Penderecki. The performance took place at The National Opera Grand Theatre in Warsaw on November 29th 2014. In advance of the concert, Beth Gibbons undertook an intense preparation process, including tackling the challenge of learning the original text (and the emotional weight it carries) without speaking the mother language.
Качество видео: WEB-DL 1080p
Формат/Контейнер: MKV
Видео кодек: H.264
Аудио кодек: PCM
Видео: AVC, 1920x1080 (16:9), 25.000 fps, 11.4 Mb/s
Аудио: PCM, 48.0 kHz, 2 ch, 2 304 kb/s
Mediainfo

General
Unique ID                   : 329255444993455893337881648634376265780 (0xF7B44AC62F0A8E166D754FE20278A034)
Complete name               : K:\Beth.Gibbons.&.the.Polish.National.Radio.Symphony.-.Henryk.Gorecki.Symphony.No.3.2019.1080p.WEB-DL.AVC.PCM.2.0.mkv
Format                      : Matroska
Format version              : Version 4
File size                   : 4.87 GiB
Duration                    : 50 min 48 s
Overall bit rate            : 13.7 Mb/s
Encoded date                : UTC 2019-05-04 21:15:11
Writing application         : mkvmerge v33.1.0 ('Primrose') 64-bit
Writing library             : libebml v1.3.7 + libmatroska v1.5.0
Video
ID                          : 1
Format                      : AVC
Format/Info                 : Advanced Video Codec
Format profile              : [email protected]
Format settings             : 2 Ref Frames
Format settings, CABAC      : No
Format settings, Reference  : 2 frames
Format settings, GOP        : M=2, N=50
Codec ID                    : V_MPEG4/ISO/AVC
Duration                    : 50 min 48 s
Bit rate                    : 11.4 Mb/s
Width                       : 1 920 pixels
Height                      : 1 080 pixels
Display aspect ratio        : 16:9
Frame rate mode             : Constant
Frame rate                  : 25.000 FPS
Color space                 : YUV
Chroma subsampling          : 4:2:0
Bit depth                   : 8 bits
Scan type                   : Progressive
Bits/(Pixel*Frame)          : 0.220
Stream size                 : 4.05 GiB (83%)
Default                     : Yes
Forced                      : No
Color range                 : Limited
Color primaries             : BT.709
Transfer characteristics    : BT.709
Matrix coefficients         : BT.709
Audio
ID                          : 2
Format                      : PCM
Format settings             : Little / Signed
Codec ID                    : A_PCM/INT/LIT
Duration                    : 50 min 48 s
Bit rate mode               : Constant
Bit rate                    : 2 304 kb/s
Channel(s)                  : 2 channels
Sampling rate               : 48.0 kHz
Frame rate                  : 32.000 FPS (1500 SPF)
Bit depth                   : 24 bits
Stream size                 : 837 MiB (17%)
Default                     : Yes
Forced                      : No

Скриншоты











                                                                                       
                       
                       
                       
                       
                       
                                 磁力下载(论坛代下载服务)
                                                               
                                       
游客,本主题需向作者支付 10金币 才能浏览,金币充值, 免回复、免金币,直接查看内容请开通VIP支付

                                               
  • 4.87 GB
  • 温馨提示

    记得善用社区搜索功能,那里可能会有你想要的资源;论坛站内搜索

    如果你有什么需要的资源可以去资源求档发帖,求助社区的网友,我们会在第一时间给你回复哦;资源求档

    对于本社区网盘链接失效密码错误各种报错请在反馈板块反馈报错发帖,您的支持,是我们发展的最大动力;投诉建议

    回复

    使用道具 举报

    您需要登录后才可以回帖 登录 | 立即注册 微信登录

    本版积分规则

    关注0

    粉丝10

    帖子69530

    发布主题
    阅读排行更多+
    关闭

    站长推荐上一条 /1 下一条

    收藏帖子 返回列表 这是一个自定义按钮
    音乐分享,音乐下载。
    微信公众号
    微信号:maomiyinyue
    意见反馈:[email protected]

    加入我们的官方QQ群和微信群

    Powered by Discuz! X3.4 Archiver|手机版|小黑屋|猫咪音乐网 ( 苏ICP备20015413号 )|( 苏公网安备 32030502000272号) 繁體

    JS of wanmeiff.com and vcpic.com Please keep this copyright information, respect of, thank you!JS of wanmeiff.com and vcpic.com Please keep this copyright information, respect of, thank you!

    GMT+8, 2021-1-27 10:52