自购原抓音乐圈:只有自购、合购、原抓级高解析(hires、sacd、dsd)正版音乐资源分享!【点我打开
极速无线网卡:千兆无线网卡、服务器网卡、USB接口台式机笔记本网卡 千兆网线 厂家批发价格最低!【点我打开
广告

[古典音乐] Gustav Holst - 行星,套房OP.32(Michelle A. Rakers,“美国主席”美国海洋乐队)[2019,古典,蓝光]

[复制链接]
韬199435 发表于 2020-12-20 20:46:23 | 显示全部楼层 |阅读模式 打印 上一主题 下一主题
Gustav Holst - The Planets, Suite Op.32
Год выпуска: 2019
Лейбл: Rachel M. Schlesinger Concert Hall
Страна-производитель: USA
Жанр: Classical
Продолжительность: 00:48:40
Дирижер: Michelle A. Rakers
Исполнители: "The President's Own" United States Marine Band
Треклист: I. Mars, the Bringer of War
II. Venus, the Bringer of Peace
III. Mercury, the Winged Messenger
IV. Jupiter, the Bringer of Jollity
V. Saturn, the Bringer of Old Age
VI. Uranus, the Magician
VII. Neptune, the Mystic
Описание: This wonderful arrangement was transcribed by Merlin Patterson in 1997/98. Before then, there was no complete transcript of The Planets suite that existed for concert band. Holst had personally arranged but not transcribed Mars and Jupiter for concert band ensemble, nor had he transcribed any of the other movements in the suite for a concert band ensemble. This recording by the U.S. Marine Band is special because it’s a complete and true transcription of the original suite. Patterson has taken everything from that orchestral suite, changing or omitting nothing, and presenting it in its original key.
Качество видео: Blu-ray
Формат/Контейнер: BDMV
Видео кодек: H.264
Аудио кодек: AC3
Видео поток: MPEG-4 AVC Video / 13472 kbps / 1080p / 23.976 fps / 16:9 / High Profile 4.1
Аудио поток: English / Dolby Digital Audio / 2.0 / 48 kHz / 192 kbps / DN -31dB
BDInfo

Disc Label:     Holst the Planets
Disc Size:      11,111,416,808 bytes
Protection:     AACS
BDInfo:         0.7.5.5
Notes:
BDINFO HOME:
  Cinema Squid (old)
    http://www.cinemasquid.com/blu-ray/tools/bdinfo
  UniqProject GitHub (new)
   https://github.com/UniqProject/BDInfo
INCLUDES FORUMS REPORT FOR:
  AVS Forum Blu-ray Audio and Video Specifications Thread
    http://www.avsforum.com/avs-vb/showthread.php?t=1155731
********************
PLAYLIST: 00009.MPLS
********************

Код:

                                                                                Total   Video
Title                                                           Codec   Length  Movie Size      Disc Size       Bitrate Bitrate Main Audio Track                          Secondary Audio Track
-----                                                           ------  ------- --------------  --------------  ------- ------- ------------------                        ---------------------
00009.MPLS                                                      AVC     0:48:40 5,245,894,656   11,111,416,808  14.37   13.47   DD AC3 2.0 192Kbps

Код:
DISC INFO:
Disc Label:     Holst the Planets
Disc Size:      11,111,416,808 bytes
Protection:     AACS
BDInfo:         0.7.5.5
PLAYLIST REPORT:
Name:                   00009.MPLS
Length:                 0:48:40.000 (h:m:s.ms)
Size:                   5,245,894,656 bytes
Total Bitrate:          14.37 Mbps
VIDEO:
Codec                   Bitrate             Description
-----                   -------             -----------
MPEG-4 AVC Video        13472 kbps          1080p / 23.976 fps / 16:9 / High Profile 4.1
AUDIO:
Codec                           Language        Bitrate         Description
-----                           --------        -------         -----------
Dolby Digital Audio             English         192 kbps        2.0 / 48 kHz /   192 kbps / DN -31dB
FILES:
Name            Time In         Length          Size            Total Bitrate
----            -------         ------          ----            -------------
00009.M2TS      0:00:00.000     0:07:06.801     766,574,592     14,369
00010.M2TS      0:07:06.801     0:07:45.631     836,960,256     14,380
00011.M2TS      0:14:52.433     0:04:24.222     472,645,632     14,311
00012.M2TS      0:19:16.655     0:07:47.758     840,499,200     14,375
00013.M2TS      0:27:04.414     0:08:28.883     914,030,592     14,369
00014.M2TS      0:35:33.297     0:05:38.629     608,501,760     14,376
00015.M2TS      0:41:11.927     0:07:28.072     806,682,624     14,403
CHAPTERS:
Number          Time In         Length          Avg Video Rate  Max 1-Sec Rate  Max 1-Sec Time  Max 5-Sec Rate  Max 5-Sec Time  Max 10Sec Rate  Max 10Sec Time  Avg Frame Size  Max Frame Size  Max Frame Time
------          -------         ------          --------------  --------------  --------------  --------------  --------------  --------------  --------------  --------------  --------------  --------------
1               0:00:00.000     0:07:06.801     13,468 kbps     24,898 kbps     00:00:01.251    16,648 kbps     00:00:48.757    15,270 kbps     00:00:48.339    70,209 bytes    671,361 bytes   00:00:29.279
2               0:07:06.801     0:00:21.229     13,766 kbps     21,940 kbps     00:07:12.431    15,303 kbps     00:07:12.014    14,538 kbps     00:07:12.014    71,630 bytes    583,695 bytes   00:07:27.071
3               0:07:28.030     0:07:24.402     13,466 kbps     23,612 kbps     00:09:26.023    15,825 kbps     00:14:02.091    14,656 kbps     00:14:02.341    70,213 bytes    669,275 bytes   00:07:29.323
4               0:14:52.433     0:04:24.222     13,410 kbps     22,743 kbps     00:14:57.646    16,352 kbps     00:14:57.646    15,085 kbps     00:14:57.646    69,915 bytes    622,643 bytes   00:16:29.613
5               0:19:16.655     0:07:47.758     13,475 kbps     24,424 kbps     00:19:17.906    16,167 kbps     00:24:09.447    14,927 kbps     00:24:08.738    70,253 bytes    646,377 bytes   00:22:45.906
6               0:27:04.414     0:08:28.883     13,468 kbps     24,733 kbps     00:27:05.665    16,446 kbps     00:27:09.961    15,147 kbps     00:27:09.419    70,218 bytes    645,322 bytes   00:35:05.853
7               0:35:33.297     0:05:38.629     13,474 kbps     25,521 kbps     00:35:39.262    16,891 kbps     00:35:38.803    15,768 kbps     00:35:38.511    70,247 bytes    659,458 bytes   00:41:00.416
8               0:41:11.927     0:07:28.072     13,501 kbps     27,537 kbps     00:48:37.873    16,255 kbps     00:43:02.329    15,020 kbps     00:48:28.780    70,395 bytes    780,397 bytes   00:48:31.575
STREAM DIAGNOSTICS:
File            PID             Type            Codec           Language                Seconds                 Bitrate                 Bytes           Packets
----            ---             ----            -----           --------                --------------          --------------          -------------   -----
00009.M2TS      4113 (0x1011)   0x1B            AVC                                     426.676                 13,471                  718,444,320     3,910,576
00009.M2TS      4352 (0x1100)   0x81            AC3             eng (English)           426.676                 192                     10,242,048      66,680
00010.M2TS      4113 (0x1011)   0x1B            AVC                                     465.548                 13,482                  784,582,260     4,270,554
00010.M2TS      4352 (0x1100)   0x81            AC3             eng (English)           465.548                 192                     11,173,632      72,745
00011.M2TS      4113 (0x1011)   0x1B            AVC                                     264.097                 13,416                  442,905,798     2,410,828
00011.M2TS      4352 (0x1100)   0x81            AC3             eng (English)           264.097                 192                     6,339,840       41,275
00012.M2TS      4113 (0x1011)   0x1B            AVC                                     467.592                 13,480                  787,884,043     4,288,515
00012.M2TS      4352 (0x1100)   0x81            AC3             eng (English)           467.592                 192                     11,225,088      73,080
00013.M2TS      4113 (0x1011)   0x1B            AVC                                     508.717                 13,473                  856,733,761     4,663,324
00013.M2TS      4352 (0x1100)   0x81            AC3             eng (English)           508.717                 192                     12,211,968      79,505
00014.M2TS      4113 (0x1011)   0x1B            AVC                                     338.547                 13,477                  570,328,711     3,104,381
00014.M2TS      4352 (0x1100)   0x81            AC3             eng (English)           338.547                 192                     8,125,440       52,900
00015.M2TS      4113 (0x1011)   0x1B            AVC                                     447.948                 13,506                  756,259,786     4,116,374
00015.M2TS      4352 (0x1100)   0x81            AC3             eng (English)           447.948                 192                     10,752,000      70,000


QUICK SUMMARY:
Disc Label: Holst the Planets
Disc Size: 11,111,416,808 bytes
Protection: AACS
Playlist: 00009.MPLS
Size: 5,245,894,656 bytes
Length: 0:48:40.000
Total Bitrate: 14.37 Mbps
Video: MPEG-4 AVC Video / 13472 kbps / 1080p / 23.976 fps / 16:9 / High Profile 4.1
Audio: English / Dolby Digital Audio / 2.0 / 48 kHz /   192 kbps / DN -31dB
********************
PLAYLIST: 00006.MPLS
********************

Код:

                                                                                Total   Video
Title                                                           Codec   Length  Movie Size      Disc Size       Bitrate Bitrate Main Audio Track                          Secondary Audio Track
-----                                                           ------  ------- --------------  --------------  ------- ------- ------------------                        ---------------------
00006.MPLS                                                      AVC     0:08:28 914,030,592     11,111,416,808  14.37   13.47   DD AC3 2.0 192Kbps

Код:
DISC INFO:
Disc Label:     Holst the Planets
Disc Size:      11,111,416,808 bytes
Protection:     AACS
BDInfo:         0.7.5.5
PLAYLIST REPORT:
Name:                   00006.MPLS
Length:                 0:08:28.883 (h:m:s.ms)
Size:                   914,030,592 bytes
Total Bitrate:          14.37 Mbps
VIDEO:
Codec                   Bitrate             Description
-----                   -------             -----------
MPEG-4 AVC Video        13468 kbps          1080p / 23.976 fps / 16:9 / High Profile 4.1
AUDIO:
Codec                           Language        Bitrate         Description
-----                           --------        -------         -----------
Dolby Digital Audio             English         192 kbps        2.0 / 48 kHz /   192 kbps / DN -31dB
FILES:
Name            Time In         Length          Size            Total Bitrate
----            -------         ------          ----            -------------
00006.M2TS      0:00:00.000     0:08:28.883     914,030,592     14,369
CHAPTERS:
Number          Time In         Length          Avg Video Rate  Max 1-Sec Rate  Max 1-Sec Time  Max 5-Sec Rate  Max 5-Sec Time  Max 10Sec Rate  Max 10Sec Time  Avg Frame Size  Max Frame Size  Max Frame Time
------          -------         ------          --------------  --------------  --------------  --------------  --------------  --------------  --------------  --------------  --------------  --------------
1               0:00:00.000     0:08:28.883     13,468 kbps     24,733 kbps     00:00:01.251    16,446 kbps     00:00:05.547    15,147 kbps     00:00:05.005    70,218 bytes    645,322 bytes   00:08:01.439
STREAM DIAGNOSTICS:
File            PID             Type            Codec           Language                Seconds                 Bitrate                 Bytes           Packets
----            ---             ----            -----           --------                --------------          --------------          -------------   -----
00006.M2TS      4113 (0x1011)   0x1B            AVC                                     508.717                 13,473                  856,733,761     4,663,324
00006.M2TS      4352 (0x1100)   0x81            AC3             eng (English)           508.717                 192                     12,211,968      79,505


QUICK SUMMARY:
Disc Label: Holst the Planets
Disc Size: 11,111,416,808 bytes
Protection: AACS
Playlist: 00006.MPLS
Size: 914,030,592 bytes
Length: 0:08:28.883
Total Bitrate: 14.37 Mbps
Video: MPEG-4 AVC Video / 13468 kbps / 1080p / 23.976 fps / 16:9 / High Profile 4.1
Audio: English / Dolby Digital Audio / 2.0 / 48 kHz /   192 kbps / DN -31dB
********************
PLAYLIST: 00005.MPLS
********************

Код:

                                                                                Total   Video
Title                                                           Codec   Length  Movie Size      Disc Size       Bitrate Bitrate Main Audio Track                          Secondary Audio Track
-----                                                           ------  ------- --------------  --------------  ------- ------- ------------------                        ---------------------
00005.MPLS                                                      AVC     0:07:47 840,499,200     11,111,416,808  14.37   13.48   DD AC3 2.0 192Kbps

Код:
DISC INFO:
Disc Label:     Holst the Planets
Disc Size:      11,111,416,808 bytes
Protection:     AACS
BDInfo:         0.7.5.5
PLAYLIST REPORT:
Name:                   00005.MPLS
Length:                 0:07:47.758 (h:m:s.ms)
Size:                   840,499,200 bytes
Total Bitrate:          14.37 Mbps
VIDEO:
Codec                   Bitrate             Description
-----                   -------             -----------
MPEG-4 AVC Video        13475 kbps          1080p / 23.976 fps / 16:9 / High Profile 4.1
AUDIO:
Codec                           Language        Bitrate         Description
-----                           --------        -------         -----------
Dolby Digital Audio             English         192 kbps        2.0 / 48 kHz /   192 kbps / DN -31dB
FILES:
Name            Time In         Length          Size            Total Bitrate
----            -------         ------          ----            -------------
00005.M2TS      0:00:00.000     0:07:47.758     840,499,200     14,375
CHAPTERS:
Number          Time In         Length          Avg Video Rate  Max 1-Sec Rate  Max 1-Sec Time  Max 5-Sec Rate  Max 5-Sec Time  Max 10Sec Rate  Max 10Sec Time  Avg Frame Size  Max Frame Size  Max Frame Time
------          -------         ------          --------------  --------------  --------------  --------------  --------------  --------------  --------------  --------------  --------------  --------------
1               0:00:00.000     0:07:47.758     13,475 kbps     24,424 kbps     00:00:01.251    16,167 kbps     00:04:52.792    14,927 kbps     00:04:52.083    70,253 bytes    646,377 bytes   00:03:29.250
STREAM DIAGNOSTICS:
File            PID             Type            Codec           Language                Seconds                 Bitrate                 Bytes           Packets
----            ---             ----            -----           --------                --------------          --------------          -------------   -----
00005.M2TS      4113 (0x1011)   0x1B            AVC                                     467.592                 13,480                  787,884,043     4,288,515
00005.M2TS      4352 (0x1100)   0x81            AC3             eng (English)           467.592                 192                     11,225,088      73,080


QUICK SUMMARY:
Disc Label: Holst the Planets
Disc Size: 11,111,416,808 bytes
Protection: AACS
Playlist: 00005.MPLS
Size: 840,499,200 bytes
Length: 0:07:47.758
Total Bitrate: 14.37 Mbps
Video: MPEG-4 AVC Video / 13475 kbps / 1080p / 23.976 fps / 16:9 / High Profile 4.1
Audio: English / Dolby Digital Audio / 2.0 / 48 kHz /   192 kbps / DN -31dB
********************
PLAYLIST: 00003.MPLS
********************

Код:

                                                                                Total   Video
Title                                                           Codec   Length  Movie Size      Disc Size       Bitrate Bitrate Main Audio Track                          Secondary Audio Track
-----                                                           ------  ------- --------------  --------------  ------- ------- ------------------                        ---------------------
00003.MPLS                                                      AVC     0:07:45 836,960,256     11,111,416,808  14.38   13.48   DD AC3 2.0 192Kbps

Код:
DISC INFO:
Disc Label:     Holst the Planets
Disc Size:      11,111,416,808 bytes
Protection:     AACS
BDInfo:         0.7.5.5
PLAYLIST REPORT:
Name:                   00003.MPLS
Length:                 0:07:45.631 (h:m:s.ms)
Size:                   836,960,256 bytes
Total Bitrate:          14.38 Mbps
VIDEO:
Codec                   Bitrate             Description
-----                   -------             -----------
MPEG-4 AVC Video        13480 kbps          1080p / 23.976 fps / 16:9 / High Profile 4.1
AUDIO:
Codec                           Language        Bitrate         Description
-----                           --------        -------         -----------
Dolby Digital Audio             English         192 kbps        2.0 / 48 kHz /   192 kbps / DN -31dB
FILES:
Name            Time In         Length          Size            Total Bitrate
----            -------         ------          ----            -------------
00003.M2TS      0:00:00.000     0:07:45.631     836,960,256     14,380
CHAPTERS:
Number          Time In         Length          Avg Video Rate  Max 1-Sec Rate  Max 1-Sec Time  Max 5-Sec Rate  Max 5-Sec Time  Max 10Sec Rate  Max 10Sec Time  Avg Frame Size  Max Frame Size  Max Frame Time
------          -------         ------          --------------  --------------  --------------  --------------  --------------  --------------  --------------  --------------  --------------  --------------
1               0:00:00.000     0:07:45.631     13,480 kbps     23,612 kbps     00:02:19.222    15,825 kbps     00:06:55.289    14,656 kbps     00:06:55.540    70,278 bytes    669,275 bytes   00:00:22.522
STREAM DIAGNOSTICS:
File            PID             Type            Codec           Language                Seconds                 Bitrate                 Bytes           Packets
----            ---             ----            -----           --------                --------------          --------------          -------------   -----
00003.M2TS      4113 (0x1011)   0x1B            AVC                                     465.548                 13,482                  784,582,260     4,270,554
00003.M2TS      4352 (0x1100)   0x81            AC3             eng (English)           465.548                 192                     11,173,632      72,745


QUICK SUMMARY:
Disc Label: Holst the Planets
Disc Size: 11,111,416,808 bytes
Protection: AACS
Playlist: 00003.MPLS
Size: 836,960,256 bytes
Length: 0:07:45.631
Total Bitrate: 14.38 Mbps
Video: MPEG-4 AVC Video / 13480 kbps / 1080p / 23.976 fps / 16:9 / High Profile 4.1
Audio: English / Dolby Digital Audio / 2.0 / 48 kHz /   192 kbps / DN -31dB
********************
PLAYLIST: 00000.MPLS
********************

Код:

                                                                                Total   Video
Title                                                           Codec   Length  Movie Size      Disc Size       Bitrate Bitrate Main Audio Track                          Secondary Audio Track
-----                                                           ------  ------- --------------  --------------  ------- ------- ------------------                        ---------------------
00000.MPLS                                                      AVC     0:07:41 512,950,272     11,111,416,808  8.89    8.19    DD AC3 2.0 192Kbps

Код:
DISC INFO:
Disc Label:     Holst the Planets
Disc Size:      11,111,416,808 bytes
Protection:     AACS
BDInfo:         0.7.5.5
PLAYLIST REPORT:
Name:                   00000.MPLS
Length:                 0:07:41.761 (h:m:s.ms)
Size:                   512,950,272 bytes
Total Bitrate:          8.89 Mbps
VIDEO:
Codec                   Bitrate             Description
-----                   -------             -----------
MPEG-4 AVC Video        8186 kbps           1080i / 29.970 fps / 16:9 / High Profile 4.1
AUDIO:
Codec                           Language        Bitrate         Description
-----                           --------        -------         -----------
Dolby Digital Audio             English         192 kbps        2.0 / 48 kHz /   192 kbps / DN -31dB
SUBTITLES:
Codec                           Language        Bitrate         Description
-----                           --------        -------         -----------
Interactive Graphics            English         2.403 kbps
FILES:
Name            Time In         Length          Size            Total Bitrate
----            -------         ------          ----            -------------
00000.M2TS      0:00:00.000     0:07:41.761     512,950,272     8,887
CHAPTERS:
Number          Time In         Length          Avg Video Rate  Max 1-Sec Rate  Max 1-Sec Time  Max 5-Sec Rate  Max 5-Sec Time  Max 10Sec Rate  Max 10Sec Time  Avg Frame Size  Max Frame Size  Max Frame Time
------          -------         ------          --------------  --------------  --------------  --------------  --------------  --------------  --------------  --------------  --------------  --------------
1               0:00:00.000     0:07:41.761     8,186 kbps      9,740 kbps      00:04:00.206    8,807 kbps      00:04:00.206    8,347 kbps      00:04:00.206    34,143 bytes    566,232 bytes   00:05:06.906
STREAM DIAGNOSTICS:
File            PID             Type            Codec           Language                Seconds                 Bitrate                 Bytes           Packets
----            ---             ----            -----           --------                --------------          --------------          -------------   -----
00000.M2TS      4113 (0x1011)   0x1B            AVC                                     461.661                 8,188                   472,509,265     2,583,127
00000.M2TS      4352 (0x1100)   0x81            AC3             eng (English)           461.661                 192                     11,082,240      72,150
00000.M2TS      5120 (0x1400)   0x91            IGS             eng (English)           461.661                 2                       138,690         774


QUICK SUMMARY:
Disc Label: Holst the Planets
Disc Size: 11,111,416,808 bytes
Protection: AACS
Playlist: 00000.MPLS
Size: 512,950,272 bytes
Length: 0:07:41.761
Total Bitrate: 8.89 Mbps
Video: MPEG-4 AVC Video / 8186 kbps / 1080i / 29.970 fps / 16:9 / High Profile 4.1
Audio: English / Dolby Digital Audio / 2.0 / 48 kHz /   192 kbps / DN -31dB
Subtitle: English / 2.403 kbps
********************
PLAYLIST: 00008.MPLS
********************

Код:

                                                                                Total   Video
Title                                                           Codec   Length  Movie Size      Disc Size       Bitrate Bitrate Main Audio Track                          Secondary Audio Track
-----                                                           ------  ------- --------------  --------------  ------- ------- ------------------                        ---------------------
00008.MPLS                                                      AVC     0:07:28 806,682,624     11,111,416,808  14.40   13.50   DD AC3 2.0 192Kbps

Код:
DISC INFO:
Disc Label:     Holst the Planets
Disc Size:      11,111,416,808 bytes
Protection:     AACS
BDInfo:         0.7.5.5
PLAYLIST REPORT:
Name:                   00008.MPLS
Length:                 0:07:28.072 (h:m:s.ms)
Size:                   806,682,624 bytes
Total Bitrate:          14.40 Mbps
VIDEO:
Codec                   Bitrate             Description
-----                   -------             -----------
MPEG-4 AVC Video        13502 kbps          1080p / 23.976 fps / 16:9 / High Profile 4.1
AUDIO:
Codec                           Language        Bitrate         Description
-----                           --------        -------         -----------
Dolby Digital Audio             English         192 kbps        2.0 / 48 kHz /   192 kbps / DN -31dB
FILES:
Name            Time In         Length          Size            Total Bitrate
----            -------         ------          ----            -------------
00008.M2TS      0:00:00.000     0:07:28.072     806,682,624     14,403
CHAPTERS:
Number          Time In         Length          Avg Video Rate  Max 1-Sec Rate  Max 1-Sec Time  Max 5-Sec Rate  Max 5-Sec Time  Max 10Sec Rate  Max 10Sec Time  Avg Frame Size  Max Frame Size  Max Frame Time
------          -------         ------          --------------  --------------  --------------  --------------  --------------  --------------  --------------  --------------  --------------  --------------
1               0:00:00.000     0:07:28.072     13,502 kbps     27,537 kbps     00:07:25.945    16,255 kbps     00:01:50.401    15,020 kbps     00:07:16.853    70,396 bytes    780,397 bytes   00:07:19.647
STREAM DIAGNOSTICS:
File            PID             Type            Codec           Language                Seconds                 Bitrate                 Bytes           Packets
----            ---             ----            -----           --------                --------------          --------------          -------------   -----
00008.M2TS      4113 (0x1011)   0x1B            AVC                                     447.948                 13,506                  756,259,786     4,116,374
00008.M2TS      4352 (0x1100)   0x81            AC3             eng (English)           447.948                 192                     10,752,000      70,000


QUICK SUMMARY:
Disc Label: Holst the Planets
Disc Size: 11,111,416,808 bytes
Protection: AACS
Playlist: 00008.MPLS
Size: 806,682,624 bytes
Length: 0:07:28.072
Total Bitrate: 14.40 Mbps
Video: MPEG-4 AVC Video / 13502 kbps / 1080p / 23.976 fps / 16:9 / High Profile 4.1
Audio: English / Dolby Digital Audio / 2.0 / 48 kHz /   192 kbps / DN -31dB
********************
PLAYLIST: 00002.MPLS
********************

Код:

                                                                                Total   Video
Title                                                           Codec   Length  Movie Size      Disc Size       Bitrate Bitrate Main Audio Track                          Secondary Audio Track
-----                                                           ------  ------- --------------  --------------  ------- ------- ------------------                        ---------------------
00002.MPLS                                                      AVC     0:07:06 766,574,592     11,111,416,808  14.37   13.47   DD AC3 2.0 192Kbps

Код:
DISC INFO:
Disc Label:     Holst the Planets
Disc Size:      11,111,416,808 bytes
Protection:     AACS
BDInfo:         0.7.5.5
PLAYLIST REPORT:
Name:                   00002.MPLS
Length:                 0:07:06.801 (h:m:s.ms)
Size:                   766,574,592 bytes
Total Bitrate:          14.37 Mbps
VIDEO:
Codec                   Bitrate             Description
-----                   -------             -----------
MPEG-4 AVC Video        13467 kbps          1080p / 23.976 fps / 16:9 / High Profile 4.1
AUDIO:
Codec                           Language        Bitrate         Description
-----                           --------        -------         -----------
Dolby Digital Audio             English         192 kbps        2.0 / 48 kHz /   192 kbps / DN -31dB
FILES:
Name            Time In         Length          Size            Total Bitrate
----            -------         ------          ----            -------------
00002.M2TS      0:00:00.000     0:07:06.801     766,574,592     14,369
CHAPTERS:
Number          Time In         Length          Avg Video Rate  Max 1-Sec Rate  Max 1-Sec Time  Max 5-Sec Rate  Max 5-Sec Time  Max 10Sec Rate  Max 10Sec Time  Avg Frame Size  Max Frame Size  Max Frame Time
------          -------         ------          --------------  --------------  --------------  --------------  --------------  --------------  --------------  --------------  --------------  --------------
1               0:00:00.000     0:07:06.801     13,467 kbps     24,898 kbps     00:00:01.251    16,648 kbps     00:00:48.757    15,270 kbps     00:00:48.339    70,209 bytes    671,361 bytes   00:00:29.279
STREAM DIAGNOSTICS:
File            PID             Type            Codec           Language                Seconds                 Bitrate                 Bytes           Packets
----            ---             ----            -----           --------                --------------          --------------          -------------   -----
00002.M2TS      4113 (0x1011)   0x1B            AVC                                     426.676                 13,471                  718,444,320     3,910,576
00002.M2TS      4352 (0x1100)   0x81            AC3             eng (English)           426.676                 192                     10,242,048      66,680


QUICK SUMMARY:
Disc Label: Holst the Planets
Disc Size: 11,111,416,808 bytes
Protection: AACS
Playlist: 00002.MPLS
Size: 766,574,592 bytes
Length: 0:07:06.801
Total Bitrate: 14.37 Mbps
Video: MPEG-4 AVC Video / 13467 kbps / 1080p / 23.976 fps / 16:9 / High Profile 4.1
Audio: English / Dolby Digital Audio / 2.0 / 48 kHz /   192 kbps / DN -31dB
********************
PLAYLIST: 00007.MPLS
********************

Код:

                                                                                Total   Video
Title                                                           Codec   Length  Movie Size      Disc Size       Bitrate Bitrate Main Audio Track                          Secondary Audio Track
-----                                                           ------  ------- --------------  --------------  ------- ------- ------------------                        ---------------------
00007.MPLS                                                      AVC     0:05:38 608,501,760     11,111,416,808  14.38   13.47   DD AC3 2.0 192Kbps

Код:
DISC INFO:
Disc Label:     Holst the Planets
Disc Size:      11,111,416,808 bytes
Protection:     AACS
BDInfo:         0.7.5.5
PLAYLIST REPORT:
Name:                   00007.MPLS
Length:                 0:05:38.629 (h:m:s.ms)
Size:                   608,501,760 bytes
Total Bitrate:          14.38 Mbps
VIDEO:
Codec                   Bitrate             Description
-----                   -------             -----------
MPEG-4 AVC Video        13474 kbps          1080p / 23.976 fps / 16:9 / High Profile 4.1
AUDIO:
Codec                           Language        Bitrate         Description
-----                           --------        -------         -----------
Dolby Digital Audio             English         192 kbps        2.0 / 48 kHz /   192 kbps / DN -31dB
FILES:
Name            Time In         Length          Size            Total Bitrate
----            -------         ------          ----            -------------
00007.M2TS      0:00:00.000     0:05:38.629     608,501,760     14,376
CHAPTERS:
Number          Time In         Length          Avg Video Rate  Max 1-Sec Rate  Max 1-Sec Time  Max 5-Sec Rate  Max 5-Sec Time  Max 10Sec Rate  Max 10Sec Time  Avg Frame Size  Max Frame Size  Max Frame Time
------          -------         ------          --------------  --------------  --------------  --------------  --------------  --------------  --------------  --------------  --------------  --------------
1               0:00:00.000     0:05:38.629     13,474 kbps     25,521 kbps     00:00:05.964    16,891 kbps     00:00:05.505    15,768 kbps     00:00:05.213    70,246 bytes    659,458 bytes   00:05:27.118
STREAM DIAGNOSTICS:
File            PID             Type            Codec           Language                Seconds                 Bitrate                 Bytes           Packets
----            ---             ----            -----           --------                --------------          --------------          -------------   -----
00007.M2TS      4113 (0x1011)   0x1B            AVC                                     338.547                 13,477                  570,328,711     3,104,381
00007.M2TS      4352 (0x1100)   0x81            AC3             eng (English)           338.547                 192                     8,125,440       52,900


QUICK SUMMARY:
Disc Label: Holst the Planets
Disc Size: 11,111,416,808 bytes
Protection: AACS
Playlist: 00007.MPLS
Size: 608,501,760 bytes
Length: 0:05:38.629
Total Bitrate: 14.38 Mbps
Video: MPEG-4 AVC Video / 13474 kbps / 1080p / 23.976 fps / 16:9 / High Profile 4.1
Audio: English / Dolby Digital Audio / 2.0 / 48 kHz /   192 kbps / DN -31dB
********************
PLAYLIST: 00004.MPLS
********************

Код:

                                                                                Total   Video
Title                                                           Codec   Length  Movie Size      Disc Size       Bitrate Bitrate Main Audio Track                          Secondary Audio Track
-----                                                           ------  ------- --------------  --------------  ------- ------- ------------------                        ---------------------
00004.MPLS                                                      AVC     0:04:24 472,645,632     11,111,416,808  14.31   13.41   DD AC3 2.0 192Kbps

Код:
DISC INFO:
Disc Label:     Holst the Planets
Disc Size:      11,111,416,808 bytes
Protection:     AACS
BDInfo:         0.7.5.5
PLAYLIST REPORT:
Name:                   00004.MPLS
Length:                 0:04:24.222 (h:m:s.ms)
Size:                   472,645,632 bytes
Total Bitrate:          14.31 Mbps
VIDEO:
Codec                   Bitrate             Description
-----                   -------             -----------
MPEG-4 AVC Video        13410 kbps          1080p / 23.976 fps / 16:9 / High Profile 4.1
AUDIO:
Codec                           Language        Bitrate         Description
-----                           --------        -------         -----------
Dolby Digital Audio             English         192 kbps        2.0 / 48 kHz /   192 kbps / DN -31dB
FILES:
Name            Time In         Length          Size            Total Bitrate
----            -------         ------          ----            -------------
00004.M2TS      0:00:00.000     0:04:24.222     472,645,632     14,311
CHAPTERS:
Number          Time In         Length          Avg Video Rate  Max 1-Sec Rate  Max 1-Sec Time  Max 5-Sec Rate  Max 5-Sec Time  Max 10Sec Rate  Max 10Sec Time  Avg Frame Size  Max Frame Size  Max Frame Time
------          -------         ------          --------------  --------------  --------------  --------------  --------------  --------------  --------------  --------------  --------------  --------------
1               0:00:00.000     0:04:24.222     13,410 kbps     22,743 kbps     00:00:05.213    16,352 kbps     00:00:05.213    15,085 kbps     00:00:05.213    69,914 bytes    622,643 bytes   00:01:37.180
STREAM DIAGNOSTICS:
File            PID             Type            Codec           Language                Seconds                 Bitrate                 Bytes           Packets
----            ---             ----            -----           --------                --------------          --------------          -------------   -----
00004.M2TS      4113 (0x1011)   0x1B            AVC                                     264.097                 13,416                  442,905,798     2,410,828
00004.M2TS      4352 (0x1100)   0x81            AC3             eng (English)           264.097                 192                     6,339,840       41,275


QUICK SUMMARY:
Disc Label: Holst the Planets
Disc Size: 11,111,416,808 bytes
Protection: AACS
Playlist: 00004.MPLS
Size: 472,645,632 bytes
Length: 0:04:24.222
Total Bitrate: 14.31 Mbps
Video: MPEG-4 AVC Video / 13410 kbps / 1080p / 23.976 fps / 16:9 / High Profile 4.1
Audio: English / Dolby Digital Audio / 2.0 / 48 kHz /   192 kbps / DN -31dB
********************
PLAYLIST: 00001.MPLS
********************

Код:

                                                                                Total   Video
Title                                                           Codec   Length  Movie Size      Disc Size       Bitrate Bitrate Main Audio Track                          Secondary Audio Track
-----                                                           ------  ------- --------------  --------------  ------- ------- ------------------                        ---------------------
00001.MPLS                                                      AVC     0:00:59 106,561,536     11,111,416,808  14.40   13.49   DD AC3 2.0 192Kbps

Код:
DISC INFO:
Disc Label:     Holst the Planets
Disc Size:      11,111,416,808 bytes
Protection:     AACS
BDInfo:         0.7.5.5
PLAYLIST REPORT:
Name:                   00001.MPLS
Length:                 0:00:59.184 (h:m:s.ms)
Size:                   106,561,536 bytes
Total Bitrate:          14.40 Mbps
VIDEO:
Codec                   Bitrate             Description
-----                   -------             -----------
MPEG-4 AVC Video        13485 kbps          1080p / 23.976 fps / 16:9 / High Profile 4.1
AUDIO:
Codec                           Language        Bitrate         Description
-----                           --------        -------         -----------
Dolby Digital Audio             English         192 kbps        2.0 / 48 kHz /   192 kbps / DN -31dB
FILES:
Name            Time In         Length          Size            Total Bitrate
----            -------         ------          ----            -------------
00001.M2TS      0:00:00.000     0:00:59.184     106,561,536     14,404
CHAPTERS:
Number          Time In         Length          Avg Video Rate  Max 1-Sec Rate  Max 1-Sec Time  Max 5-Sec Rate  Max 5-Sec Time  Max 10Sec Rate  Max 10Sec Time  Avg Frame Size  Max Frame Size  Max Frame Time
------          -------         ------          --------------  --------------  --------------  --------------  --------------  --------------  --------------  --------------  --------------  --------------
1               0:00:00.000     0:00:59.184     13,485 kbps     22,762 kbps     00:00:22.439    16,547 kbps     00:00:01.000    14,648 kbps     00:00:13.430    70,307 bytes    745,057 bytes   00:00:26.276
STREAM DIAGNOSTICS:
File            PID             Type            Codec           Language                Seconds                 Bitrate                 Bytes           Packets
----            ---             ----            -----           --------                --------------          --------------          -------------   -----
00001.M2TS      4113 (0x1011)   0x1B            AVC                                     59.059                  13,514                  99,765,017      543,054
00001.M2TS      4352 (0x1100)   0x81            AC3             eng (English)           59.059                  192                     1,419,264       9,240


QUICK SUMMARY:
Disc Label: Holst the Planets
Disc Size: 11,111,416,808 bytes
Protection: AACS
Playlist: 00001.MPLS
Size: 106,561,536 bytes
Length: 0:00:59.184
Total Bitrate: 14.40 Mbps
Video: MPEG-4 AVC Video / 13485 kbps / 1080p / 23.976 fps / 16:9 / High Profile 4.1
Audio: English / Dolby Digital Audio / 2.0 / 48 kHz /   192 kbps / DN -31dB

Скриншоты









                                                                                       
                       
                       
                       
                       
                       
                                 磁力下载(论坛代下载服务)
                                                               
                                       
游客,本主题需向作者支付 10金币 才能浏览,金币充值, 免回复、免金币,直接查看内容请开通VIP支付

                                               
  • 10.35 GB
  • 温馨提示

    记得善用社区搜索功能,那里可能会有你想要的资源;论坛站内搜索

    如果你有什么需要的资源可以去资源求档发帖,求助社区的网友,我们会在第一时间给你回复哦;资源求档

    对于本社区网盘链接失效密码错误各种报错请在反馈板块反馈报错发帖,您的支持,是我们发展的最大动力;投诉建议

    回复

    使用道具 举报

    您需要登录后才可以回帖 登录 | 立即注册 微信登录

    本版积分规则

    关注0

    粉丝0

    帖子29332

    发布主题
    阅读排行更多+
    关闭

    站长推荐上一条 /1 下一条

    收藏帖子 返回列表 这是一个自定义按钮
    音乐分享,音乐下载。
    微信公众号
    微信号:maomiyinyue
    意见反馈:[email protected]

    加入我们的官方QQ群和微信群

    Powered by Discuz! X3.4 Archiver|手机版|小黑屋|猫咪音乐网 ( 苏ICP备20015413号 )|( 苏公网安备 32030502000272号) 繁體

    JS of wanmeiff.com and vcpic.com Please keep this copyright information, respect of, thank you!JS of wanmeiff.com and vcpic.com Please keep this copyright information, respect of, thank you!

    GMT+8, 2021-1-27 04:27