自购原抓音乐圈:只有自购、合购、原抓级高解析(hires、sacd、dsd)正版音乐资源分享!【点我打开
极速无线网卡:千兆无线网卡、服务器网卡、USB接口台式机笔记本网卡 千兆网线 厂家批发价格最低!【点我打开
广告

[古典音乐] Berlioz,Liszt,Wagner - Symphonie Fantastique(Royal Concertgebouw Orchestra,Daniele Gatti)[2016,古典,蓝光]

[复制链接]
全球搬运 发表于 2020-12-20 20:46:23 | 显示全部楼层 |阅读模式 打印 上一主题 下一主题
Hector Berlioz - Symphonie fantastique
Год выпуска: 2016
Лейбл: RCO Live
Жанр: Classical
Продолжительность: 01:35:06
Дирижер: Daniele Gatti
Исполнители: Royal Concertgebouw Orchestra
Треклист:
Richard Wagner (1813-1883)
Tannhäuser Overture (Dresden version, 1845) 15:11
Franz Liszt (1811-1886)
Orpheus, symphonic poem No. 4, S98 (1854) 12:57

Hector Berlioz (1803-1869)
Symphonie fantastique, Op. 14 (1830) 57:30
I. Reveries - Passions 16:17
II. Un Bal 06:25
III. Scene aux Champs 17:35
IV. Marche au Supplice 07:27
V. Songe dune Nuit du Sabbat 10:26
Описание: With the release of this live recording of Hector Berlioz's Symphonie fantastique, RCO Live celebrates the start of its collaboration with Daniele Gatti as the Royal Concertgebouw Orchestra's seventh chief conductor on 9 September 2016. His unconventional take on this spectacular score evokes the astonishment audiences must have experienced at the time of the 1830 premiere. It is exactly this sense of surprise and freshness – founded on a thorough knowledge of the score – and the sheer joy of making music together that prompted the members of the RCO to choose Daniele Gatti as their new chief conductor.
Источник
Качество видео: Blu-ray
Формат/Контейнер: BDMV
Видео кодек: H.264
Аудио кодек: PCM, DTS
Видео поток: MPEG-4 AVC 21695 kbps / 1920*1080i / 29,970 fps / 16:9 / High Profile 4.1
Аудио поток#1: English LPCM 2.0 / 96 kHz / 4608 kbps / 24-bit
Аудио поток#2: English DTS-HD MA 5.0 / 96 kHz / 6715 kbps / 24-bit (DTS Core: 5.0 / 48 kHz / 1509 kbps / 24-bit)
BDInfo

Disc Title:     Berlioz.Symphonie Fantastique.RCO, Daniele Gatti.2016.BD1080i
Disc Size:      25 000 013 355 bytes
Protection:     AACS
BD-Java:        Yes
BDInfo:         0.5.8
Notes:
BDINFO HOME:
  Cinema Squid
    http://www.cinemasquid.com/blu-ray/tools/bdinfo
INCLUDES FORUMS REPORT FOR:
  AVS Forum Blu-ray Audio and Video Specifications Thread
    http://www.avsforum.com/avs-vb/showthread.php?t=1155731
********************
PLAYLIST: 00002.MPLS
********************

Код:

                                                                                Total   Video
Title                                                           Codec   Length  Movie Size      Disc Size       Bitrate Bitrate Main Audio Track                          Secondary Audio Track
-----                                                           ------  ------- --------------  --------------  ------- ------- ------------------                        ---------------------
00002.MPLS                                                      AVC     1:35:06 24 890 314 752  25 000 013 355  34,90   21,70   LPCM 2.0 4608Kbps (96kHz/24-bit)          DTS-HD Master 5.0 6715Kbps (96kHz/24-bit)

Код:
DISC INFO:
Disc Title:     Berlioz.Symphonie Fantastique.RCO, Daniele Gatti.2016.BD1080i
Disc Size:      25 000 013 355 bytes
Protection:     AACS
BD-Java:        Yes
BDInfo:         0.5.8
PLAYLIST REPORT:
Name:                   00002.MPLS
Length:                 1:35:06.300 (h:m:s.ms)
Size:                   24 890 314 752 bytes
Total Bitrate:          34,90 Mbps
VIDEO:
Codec                   Bitrate             Description
-----                   -------             -----------
MPEG-4 AVC Video        21695 kbps          1080i / 29,970 fps / 16:9 / High Profile 4.1
AUDIO:
Codec                           Language        Bitrate         Description
-----                           --------        -------         -----------
LPCM Audio                      English         4608 kbps       2.0 / 96 kHz / 4608 kbps / 24-bit
DTS-HD Master Audio             English         6715 kbps       5.0 / 96 kHz / 6715 kbps / 24-bit (DTS Core: 5.0 / 48 kHz / 1509 kbps / 24-bit)
FILES:
Name            Time In         Length          Size            Total Bitrate
----            -------         ------          ----            -------------
00002.M2TS      0:00:00.000     1:35:06.300     24 890 314 752  34 895
CHAPTERS:
Number          Time In         Length          Avg Video Rate  Max 1-Sec Rate  Max 1-Sec Time  Max 5-Sec Rate  Max 5-Sec Time  Max 10Sec Rate  Max 10Sec Time  Avg Frame Size  Max Frame Size  Max Frame Time
------          -------         ------          --------------  --------------  --------------  --------------  --------------  --------------  --------------  --------------  --------------  --------------
1               0:00:00.000     1:35:06.300     21 695 kbps     32 715 kbps     00:17:06.392    23 348 kbps     00:31:55.413    22 629 kbps     00:17:06.725    90 488 bytes    638 376 bytes   00:53:03.413
STREAM DIAGNOSTICS:
File            PID             Type            Codec           Language                Seconds                 Bitrate                 Bytes           Packets
----            ---             ----            -----           --------                --------------          --------------          -------------   -----
00002.M2TS      4113 (0x1011)   0x1B            AVC                                     5706,234                21 696                  15 475 039 621  84 203 038
00002.M2TS      4352 (0x1100)   0x80            LPCM            eng (English)           5706,234                4 614                   3 291 347 190   18 259 961
00002.M2TS      4353 (0x1101)   0x86            DTS-HD MA       eng (English)           5706,234                6 715                   4 789 595 660   26 920 465


QUICK SUMMARY:
Disc Title: Berlioz.Symphonie Fantastique.RCO, Daniele Gatti.2016.BD1080i
Disc Size: 25 000 013 355 bytes
Protection: AACS
BD-Java: Yes
Playlist: 00002.MPLS
Size: 24 890 314 752 bytes
Length: 1:35:06.300
Total Bitrate: 34,90 Mbps
Video: MPEG-4 AVC Video / 21695 kbps / 1080i / 29,970 fps / 16:9 / High Profile 4.1
Audio: English / LPCM Audio / 2.0 / 96 kHz / 4608 kbps / 24-bit
Audio: English / DTS-HD Master Audio / 5.0 / 96 kHz / 6715 kbps / 24-bit (DTS Core: 5.0 / 48 kHz / 1509 kbps / 24-bit)
********************
PLAYLIST: 01002.MPLS
********************

Код:

                                                                                Total   Video
Title                                                           Codec   Length  Movie Size      Disc Size       Bitrate Bitrate Main Audio Track                          Secondary Audio Track
-----                                                           ------  ------- --------------  --------------  ------- ------- ------------------                        ---------------------
01002.MPLS                                                      AVC     1:35:06 24 890 314 752  25 000 013 355  34,90   21,70   LPCM 2.0 4608Kbps (96kHz/24-bit)          DTS-HD Master 5.0 6715Kbps (96kHz/24-bit)

Код:
DISC INFO:
Disc Title:     Berlioz.Symphonie Fantastique.RCO, Daniele Gatti.2016.BD1080i
Disc Size:      25 000 013 355 bytes
Protection:     AACS
BD-Java:        Yes
BDInfo:         0.5.8
PLAYLIST REPORT:
Name:                   01002.MPLS
Length:                 1:35:06.300 (h:m:s.ms)
Size:                   24 890 314 752 bytes
Total Bitrate:          34,90 Mbps
VIDEO:
Codec                   Bitrate             Description
-----                   -------             -----------
MPEG-4 AVC Video        21695 kbps          1080i / 29,970 fps / 16:9 / High Profile 4.1
AUDIO:
Codec                           Language        Bitrate         Description
-----                           --------        -------         -----------
LPCM Audio                      English         4608 kbps       2.0 / 96 kHz / 4608 kbps / 24-bit
DTS-HD Master Audio             English         6715 kbps       5.0 / 96 kHz / 6715 kbps / 24-bit (DTS Core: 5.0 / 48 kHz / 1509 kbps / 24-bit)
FILES:
Name            Time In         Length          Size            Total Bitrate
----            -------         ------          ----            -------------
00002.M2TS      0:00:00.000     1:35:06.300     24 890 314 752  34 895
CHAPTERS:
Number          Time In         Length          Avg Video Rate  Max 1-Sec Rate  Max 1-Sec Time  Max 5-Sec Rate  Max 5-Sec Time  Max 10Sec Rate  Max 10Sec Time  Avg Frame Size  Max Frame Size  Max Frame Time
------          -------         ------          --------------  --------------  --------------  --------------  --------------  --------------  --------------  --------------  --------------  --------------
1               0:00:00.000     0:17:06.225     21 698 kbps     30 566 kbps     00:00:00.100    23 001 kbps     00:00:00.233    22 437 kbps     00:00:00.400    90 495 bytes    594 544 bytes   00:11:11.904
2               0:17:06.225     0:14:48.954     21 697 kbps     32 715 kbps     00:17:06.392    23 275 kbps     00:17:06.759    22 629 kbps     00:17:06.725    90 493 bytes    599 833 bytes   00:28:11.823
3               0:31:55.179     0:17:32.284     21 703 kbps     30 496 kbps     00:31:55.413    23 348 kbps     00:31:55.413    22 554 kbps     00:31:55.480    90 520 bytes    566 349 bytes   00:32:11.396
4               0:49:27.464     0:06:44.203     21 693 kbps     29 137 kbps     00:51:58.849    22 930 kbps     00:53:03.113    22 314 kbps     00:50:46.877    90 479 bytes    638 376 bytes   00:53:03.413
5               0:56:11.668     0:18:10.622     21 701 kbps     28 880 kbps     00:59:29.265    23 028 kbps     01:08:26.769    22 275 kbps     01:07:49.832    90 513 bytes    551 822 bytes   01:00:06.669
6               1:14:22.291     0:07:41.694     21 699 kbps     29 199 kbps     01:20:37.899    22 969 kbps     01:15:59.788    22 301 kbps     01:18:44.920    90 505 bytes    530 521 bytes   01:15:34.897
7               1:22:03.985     0:13:02.314     21 671 kbps     28 878 kbps     01:28:49.490    22 918 kbps     01:24:02.203    22 332 kbps     01:22:22.470    90 392 bytes    573 384 bytes   01:26:04.692
STREAM DIAGNOSTICS:
File            PID             Type            Codec           Language                Seconds                 Bitrate                 Bytes           Packets
----            ---             ----            -----           --------                --------------          --------------          -------------   -----
00002.M2TS      4113 (0x1011)   0x1B            AVC                                     5706,234                21 696                  15 475 039 621  84 203 038
00002.M2TS      4352 (0x1100)   0x80            LPCM            eng (English)           5706,234                4 614                   3 291 347 190   18 259 961
00002.M2TS      4353 (0x1101)   0x86            DTS-HD MA       eng (English)           5706,234                6 715                   4 789 595 660   26 920 465


QUICK SUMMARY:
Disc Title: Berlioz.Symphonie Fantastique.RCO, Daniele Gatti.2016.BD1080i
Disc Size: 25 000 013 355 bytes
Protection: AACS
BD-Java: Yes
Playlist: 01002.MPLS
Size: 24 890 314 752 bytes
Length: 1:35:06.300
Total Bitrate: 34,90 Mbps
Video: MPEG-4 AVC Video / 21695 kbps / 1080i / 29,970 fps / 16:9 / High Profile 4.1
Audio: English / LPCM Audio / 2.0 / 96 kHz / 4608 kbps / 24-bit
Audio: English / DTS-HD Master Audio / 5.0 / 96 kHz / 6715 kbps / 24-bit (DTS Core: 5.0 / 48 kHz / 1509 kbps / 24-bit)
********************
PLAYLIST: 00001.MPLS
********************

Код:

                                                                                Total   Video
Title                                                           Codec   Length  Movie Size      Disc Size       Bitrate Bitrate Main Audio Track                          Secondary Audio Track
-----                                                           ------  ------- --------------  --------------  ------- ------- ------------------                        ---------------------
00001.MPLS                                                      AVC     0:03:00 106 358 784     25 000 013 355  4,72    4,43

Код:
DISC INFO:
Disc Title:     Berlioz.Symphonie Fantastique.RCO, Daniele Gatti.2016.BD1080i
Disc Size:      25 000 013 355 bytes
Protection:     AACS
BD-Java:        Yes
BDInfo:         0.5.8
PLAYLIST REPORT:
Name:                   00001.MPLS
Length:                 0:03:00.079 (h:m:s.ms)
Size:                   106 358 784 bytes
Total Bitrate:          4,72 Mbps
VIDEO:
Codec                   Bitrate             Description
-----                   -------             -----------
MPEG-4 AVC Video        4430 kbps           1080i / 29,970 fps / 16:9 / High Profile 4.1
FILES:
Name            Time In         Length          Size            Total Bitrate
----            -------         ------          ----            -------------
00001.M2TS      0:00:00.000     0:03:00.079     106 358 784     4 725
CHAPTERS:
Number          Time In         Length          Avg Video Rate  Max 1-Sec Rate  Max 1-Sec Time  Max 5-Sec Rate  Max 5-Sec Time  Max 10Sec Rate  Max 10Sec Time  Avg Frame Size  Max Frame Size  Max Frame Time
------          -------         ------          --------------  --------------  --------------  --------------  --------------  --------------  --------------  --------------  --------------  --------------
1               0:00:00.000     0:03:00.079     4 430 kbps      7 436 kbps      00:01:58.618    4 856 kbps      00:00:00.767    4 528 kbps      00:00:00.400    18 477 bytes    390 592 bytes   00:01:58.651
STREAM DIAGNOSTICS:
File            PID             Type            Codec           Language                Seconds                 Bitrate                 Bytes           Packets
----            ---             ----            -----           --------                --------------          --------------          -------------   -----
00001.M2TS      4113 (0x1011)   0x1B            AVC                                     180,013                 4 432                   99 722 244      545 956


QUICK SUMMARY:
Disc Title: Berlioz.Symphonie Fantastique.RCO, Daniele Gatti.2016.BD1080i
Disc Size: 25 000 013 355 bytes
Protection: AACS
BD-Java: Yes
Playlist: 00001.MPLS
Size: 106 358 784 bytes
Length: 0:03:00.079
Total Bitrate: 4,72 Mbps
Video: MPEG-4 AVC Video / 4430 kbps / 1080i / 29,970 fps / 16:9 / High Profile 4.1
********************
PLAYLIST: 01001.MPLS
********************

Код:

                                                                                Total   Video
Title                                                           Codec   Length  Movie Size      Disc Size       Bitrate Bitrate Main Audio Track                          Secondary Audio Track
-----                                                           ------  ------- --------------  --------------  ------- ------- ------------------                        ---------------------
01001.MPLS                                                      AVC     0:03:00 106 358 784     25 000 013 355  4,72    4,43

Код:
DISC INFO:
Disc Title:     Berlioz.Symphonie Fantastique.RCO, Daniele Gatti.2016.BD1080i
Disc Size:      25 000 013 355 bytes
Protection:     AACS
BD-Java:        Yes
BDInfo:         0.5.8
PLAYLIST REPORT:
Name:                   01001.MPLS
Length:                 0:03:00.079 (h:m:s.ms)
Size:                   106 358 784 bytes
Total Bitrate:          4,72 Mbps
VIDEO:
Codec                   Bitrate             Description
-----                   -------             -----------
MPEG-4 AVC Video        4430 kbps           1080i / 29,970 fps / 16:9 / High Profile 4.1
FILES:
Name            Time In         Length          Size            Total Bitrate
----            -------         ------          ----            -------------
00001.M2TS      0:00:00.000     0:03:00.079     106 358 784     4 725
CHAPTERS:
Number          Time In         Length          Avg Video Rate  Max 1-Sec Rate  Max 1-Sec Time  Max 5-Sec Rate  Max 5-Sec Time  Max 10Sec Rate  Max 10Sec Time  Avg Frame Size  Max Frame Size  Max Frame Time
------          -------         ------          --------------  --------------  --------------  --------------  --------------  --------------  --------------  --------------  --------------  --------------
1               0:00:00.000     0:03:00.079     4 430 kbps      7 436 kbps      00:01:58.618    4 856 kbps      00:00:00.767    4 528 kbps      00:00:00.400    18 477 bytes    390 592 bytes   00:01:58.651
STREAM DIAGNOSTICS:
File            PID             Type            Codec           Language                Seconds                 Bitrate                 Bytes           Packets
----            ---             ----            -----           --------                --------------          --------------          -------------   -----
00001.M2TS      4113 (0x1011)   0x1B            AVC                                     180,013                 4 432                   99 722 244      545 956


QUICK SUMMARY:
Disc Title: Berlioz.Symphonie Fantastique.RCO, Daniele Gatti.2016.BD1080i
Disc Size: 25 000 013 355 bytes
Protection: AACS
BD-Java: Yes
Playlist: 01001.MPLS
Size: 106 358 784 bytes
Length: 0:03:00.079
Total Bitrate: 4,72 Mbps
Video: MPEG-4 AVC Video / 4430 kbps / 1080i / 29,970 fps / 16:9 / High Profile 4.1

Скриншоты
















                                                                                       
                       
                       
                       
                       
                       
                                 磁力下载(论坛代下载服务)
                                                               
                                       
游客,本主题需向作者支付 10金币 才能浏览,金币充值, 免回复、免金币,直接查看内容请开通VIP支付

                                               
  • 23.28 GB
  • 温馨提示

    记得善用社区搜索功能,那里可能会有你想要的资源;论坛站内搜索

    如果你有什么需要的资源可以去资源求档发帖,求助社区的网友,我们会在第一时间给你回复哦;资源求档

    对于本社区网盘链接失效密码错误各种报错请在反馈板块反馈报错发帖,您的支持,是我们发展的最大动力;投诉建议

    回复

    使用道具 举报

    您需要登录后才可以回帖 登录 | 立即注册 微信登录

    本版积分规则

    关注0

    粉丝10

    帖子69530

    发布主题
    阅读排行更多+
    关闭

    站长推荐上一条 /1 下一条

    收藏帖子 返回列表 这是一个自定义按钮
    音乐分享,音乐下载。
    微信公众号
    微信号:maomiyinyue
    意见反馈:[email protected]

    加入我们的官方QQ群和微信群

    Powered by Discuz! X3.4 Archiver|手机版|小黑屋|猫咪音乐网 ( 苏ICP备20015413号 )|( 苏公网安备 32030502000272号) 繁體

    JS of wanmeiff.com and vcpic.com Please keep this copyright information, respect of, thank you!JS of wanmeiff.com and vcpic.com Please keep this copyright information, respect of, thank you!

    GMT+8, 2021-1-26 07:44