自购原抓音乐圈:只有自购、合购、原抓级高解析(hires、sacd、dsd)正版音乐资源分享!【点我打开
极速无线网卡:千兆无线网卡、服务器网卡、USB接口台式机笔记本网卡 千兆网线 厂家批发价格最低!【点我打开
广告

[古典音乐] 莫扎特,施特劳斯,鲁瓦尔★克利夫兰乐团★百年庆典(Franz Welser-Möst(指挥),朗朗)[2018,古典,蓝光]

[复制链接]
elmisy 发表于 2020-12-20 20:46:23 | 显示全部楼层 |阅读模式 打印 上一主题 下一主题
The Cleveland Orchestra
Centennial Celebration
1918 - 2018
Год выпуска: 2018
Лейбл: Concord Records
Жанр: Classical
Продолжительность: 01:20:35+00:08:52+00:03:27+00:02:55
Качество видео: Blu-ray
Формат/Контейнер: BDMV
Видео кодек: MPEG-4 AVC Video
Аудио кодек: PCM, DTS-HD
Видео поток: MPEG-4 AVC Video / 25992 kbps / 1080i / 29,970 fps / 16:9 / High Profile 4.1
Аудио поток 1: DTS-HD Master Audio / 5.1 / 48 kHz / 2267 kbps / 24-bit (DTS Core: 5.1 / 48 kHz / 1509 kbps / 24-bit)
Аудио поток 2: LPCM Audio / 2.0 / 48 kHz / 2304 kbps / 24-bitRecorded Live At Severance Hall, Ceveland, Ohio, September 29,2018
Michael Beyer (video director)
The Cleveland Orchestra
Franz Welser-Möst (conductor)
Lang Lang (piano)
Wolfgang Amadeus Mozart - Piano Concerto №24
Richard Strauss - Symphonic Fantasy From "Die Frau Ohne Schatten"
Johann Strauss Jr. - Wiener Blut
Maurice Ravel - La Valse
+3 bonus documentary

Отчёт MediaInfo / BDInfo

Disc Title:     The Cleveland Orchestra - Centennial Celebration 2018 Blu-ray
Disc Size:      21 319 641 397 bytes
Protection:     AACS
BD-Java:        No
BDInfo:         0.5.8
Notes:
BDINFO HOME:
  Cinema Squid
    http://www.cinemasquid.com/blu-ray/tools/bdinfo
INCLUDES FORUMS REPORT FOR:
  AVS Forum Blu-ray Audio and Video Specifications Thread
    http://www.avsforum.com/avs-vb/showthread.php?t=1155731
********************
PLAYLIST: 00002.MPLS
********************

Код:

                                                                                Total   Video
Title                                                           Codec   Length  Movie Size      Disc Size       Bitrate Bitrate Main Audio Track                          Secondary Audio Track
-----                                                           ------  ------- --------------  --------------  ------- ------- ------------------                        ---------------------
00002.MPLS                                                      AVC     1:20:35 19 500 238 848  21 319 641 397  32,26   25,99   DTS-HD Master 5.1 2267Kbps (48kHz/24-bit) LPCM 2.0 2304Kbps (48kHz/24-bit)

Код:
DISC INFO:
Disc Title:     The Cleveland Orchestra - Centennial Celebration 2018 Blu-ray
Disc Size:      21 319 641 397 bytes
Protection:     AACS
BD-Java:        No
BDInfo:         0.5.8
PLAYLIST REPORT:
Name:                   00002.MPLS
Length:                 1:20:35.564 (h:m:s.ms)
Size:                   19 500 238 848 bytes
Total Bitrate:          32,26 Mbps
VIDEO:
Codec                   Bitrate             Description
-----                   -------             -----------
MPEG-4 AVC Video        25992 kbps          1080i / 29,970 fps / 16:9 / High Profile 4.1
AUDIO:
Codec                           Language        Bitrate         Description
-----                           --------        -------         -----------
DTS-HD Master Audio             Miscellaneous languages2267 kbps       5.1 / 48 kHz / 2267 kbps / 24-bit (DTS Core: 5.1 / 48 kHz / 1509 kbps / 24-bit)
LPCM Audio                      Miscellaneous languages2304 kbps       2.0 / 48 kHz / 2304 kbps / 24-bit
FILES:
Name            Time In         Length          Size            Total Bitrate
----            -------         ------          ----            -------------
00003.M2TS      0:00:00.000     1:20:34.563     19 500 208 128  32 268
00002.M2TS      1:20:34.563     0:00:01.000     30 720          246
CHAPTERS:
Number          Time In         Length          Avg Video Rate  Max 1-Sec Rate  Max 1-Sec Time  Max 5-Sec Rate  Max 5-Sec Time  Max 10Sec Rate  Max 10Sec Time  Avg Frame Size  Max Frame Size  Max Frame Time
------          -------         ------          --------------  --------------  --------------  --------------  --------------  --------------  --------------  --------------  --------------  --------------
1               0:00:00.000     0:01:21.681     25 014 kbps     37 200 kbps     00:00:07.273    36 000 kbps     00:00:03.670    33 773 kbps     00:00:01.468    104 287 bytes   356 012 bytes   00:00:30.864
2               0:01:21.681     0:15:24.823     24 415 kbps     36 860 kbps     00:03:17.830    35 973 kbps     00:03:13.826    35 142 kbps     00:03:09.522    101 829 bytes   338 339 bytes   00:07:06.926
3               0:16:46.505     0:07:39.058     22 806 kbps     36 066 kbps     00:23:58.670    35 830 kbps     00:23:54.466    34 386 kbps     00:23:50.162    95 120 bytes    290 602 bytes   00:23:47.259
4               0:24:25.564     0:10:27.293     23 970 kbps     34 923 kbps     00:32:52.937    33 701 kbps     00:30:31.963    33 488 kbps     00:30:33.231    99 977 bytes    474 399 bytes   00:34:52.857
5               0:34:52.857     0:23:24.603     27 570 kbps     37 303 kbps     00:48:22.299    36 022 kbps     00:52:43.660    35 911 kbps     00:52:38.622    114 991 bytes   517 172 bytes   00:35:01.866
6               0:58:17.460     0:08:58.504     27 648 kbps     37 379 kbps     01:07:13.629    36 073 kbps     01:06:00.690    35 930 kbps     01:05:55.685    115 316 bytes   366 717 bytes   01:07:12.661
7               1:07:15.965     0:12:19.004     27 430 kbps     37 194 kbps     01:10:42.304    36 080 kbps     01:10:38.300    35 920 kbps     01:12:31.046    114 406 bytes   360 498 bytes   01:09:27.129
8               1:19:34.970     0:00:59.592     28 039 kbps     32 466 kbps     01:19:45.747    31 592 kbps     01:20:03.365    31 070 kbps     01:20:03.165    116 946 bytes   324 299 bytes   01:20:03.698
9               1:20:34.563     0:00:01.001     111 kbps        0 kbps          00:00:00.000    0 kbps          00:00:00.000    0 kbps          00:00:00.000    478 bytes       2 439 bytes     01:20:35.163
STREAM DIAGNOSTICS:
File            PID             Type            Codec           Language                Seconds                 Bitrate                 Bytes           Packets
----            ---             ----            -----           --------                --------------          --------------          -------------   -----
00003.M2TS      4113 (0x1011)   0x1B            AVC                                     4834,430                25 998                  15 710 523 123  85 467 888
00003.M2TS      4352 (0x1100)   0x86            DTS-HD MA       mis (Miscellaneous languages)4834,430                2 267                   1 370 015 200   8 198 406
00003.M2TS      4353 (0x1101)   0x80            LPCM            mis (Miscellaneous languages)4834,430                2 310                   1 396 222 372   7 735 304
00002.M2TS      4113 (0x1011)   0x1B            AVC                                     0,901                   145                     16 302          112


QUICK SUMMARY:
Disc Title: The Cleveland Orchestra - Centennial Celebration 2018 Blu-ray
Disc Size: 21 319 641 397 bytes
Protection: AACS
BD-Java: No
Playlist: 00002.MPLS
Size: 19 500 238 848 bytes
Length: 1:20:35.564
Total Bitrate: 32,26 Mbps
Video: MPEG-4 AVC Video / 25992 kbps / 1080i / 29,970 fps / 16:9 / High Profile 4.1
Audio: Miscellaneous languages / DTS-HD Master Audio / 5.1 / 48 kHz / 2267 kbps / 24-bit (DTS Core: 5.1 / 48 kHz / 1509 kbps / 24-bit)
Audio: Miscellaneous languages / LPCM Audio / 2.0 / 48 kHz / 2304 kbps / 24-bit
********************
PLAYLIST: 00007.MPLS
********************

Код:

                                                                                Total   Video
Title                                                           Codec   Length  Movie Size      Disc Size       Bitrate Bitrate Main Audio Track                          Secondary Audio Track
-----                                                           ------  ------- --------------  --------------  ------- ------- ------------------                        ---------------------
00007.MPLS                                                      AVC     0:08:52 1 561 546 752   21 319 641 397  23,44   19,96   DTS-HD Master 5.0 2206Kbps (48kHz/24-bit)

Код:
DISC INFO:
Disc Title:     The Cleveland Orchestra - Centennial Celebration 2018 Blu-ray
Disc Size:      21 319 641 397 bytes
Protection:     AACS
BD-Java:        No
BDInfo:         0.5.8
PLAYLIST REPORT:
Name:                   00007.MPLS
Length:                 0:08:52.865 (h:m:s.ms)
Size:                   1 561 546 752 bytes
Total Bitrate:          23,44 Mbps
VIDEO:
Codec                   Bitrate             Description
-----                   -------             -----------
MPEG-4 AVC Video        19959 kbps          1080i / 29,970 fps / 16:9 / High Profile 4.1
AUDIO:
Codec                           Language        Bitrate         Description
-----                           --------        -------         -----------
DTS-HD Master Audio             English         2206 kbps       5.0 / 48 kHz / 2206 kbps / 24-bit (DTS Core: 5.0 / 48 kHz / 1509 kbps / 24-bit)
FILES:
Name            Time In         Length          Size            Total Bitrate
----            -------         ------          ----            -------------
00004.M2TS      0:00:00.000     0:02:30.483     443 430 912     23 574
00005.M2TS      0:02:30.483     0:03:26.673     606 633 984     23 482
00006.M2TS      0:05:57.156     0:02:54.707     511 451 136     23 420
00002.M2TS      0:08:51.864     0:00:01.000     30 720          246
CHAPTERS:
Number          Time In         Length          Avg Video Rate  Max 1-Sec Rate  Max 1-Sec Time  Max 5-Sec Rate  Max 5-Sec Time  Max 10Sec Rate  Max 10Sec Time  Avg Frame Size  Max Frame Size  Max Frame Time
------          -------         ------          --------------  --------------  --------------  --------------  --------------  --------------  --------------  --------------  --------------  --------------
1               0:00:00.000     0:02:30.483     19 998 kbps     41 190 kbps     00:01:32.992    37 017 kbps     00:01:29.055    32 098 kbps     00:00:47.914    83 391 bytes    431 404 bytes   00:01:15.375
2               0:02:30.483     0:03:26.673     19 996 kbps     36 892 kbps     00:04:45.685    35 479 kbps     00:04:42.348    32 389 kbps     00:02:41.628    83 400 bytes    395 866 bytes   00:03:23.269
3               0:05:57.156     0:02:54.707     19 996 kbps     41 124 kbps     00:06:51.043    36 807 kbps     00:06:47.039    36 228 kbps     00:06:42.034    83 400 bytes    448 471 bytes   00:06:51.844
4               0:08:51.864     0:00:01.000     111 kbps        0 kbps          00:00:00.000    0 kbps          00:00:00.000    0 kbps          00:00:00.000    478 bytes       2 439 bytes     00:08:52.465
STREAM DIAGNOSTICS:
File            PID             Type            Codec           Language                Seconds                 Bitrate                 Bytes           Packets
----            ---             ----            -----           --------                --------------          --------------          -------------   -----
00004.M2TS      4113 (0x1011)   0x1B            AVC                                     150,350                 20 016                  376 173 896     2 047 047
00004.M2TS      4352 (0x1100)   0x86            DTS-HD MA       eng (English)           150,350                 2 288                   42 995 520      257 395
00005.M2TS      4113 (0x1011)   0x1B            AVC                                     206,540                 20 009                  516 578 452     2 811 081
00005.M2TS      4352 (0x1100)   0x86            DTS-HD MA       eng (English)           206,540                 2 205                   56 936 120      341 511
00006.M2TS      4113 (0x1011)   0x1B            AVC                                     174,574                 20 011                  436 678 596     2 376 333
00006.M2TS      4352 (0x1100)   0x86            DTS-HD MA       eng (English)           174,574                 2 154                   47 006 268      281 598
00002.M2TS      4113 (0x1011)   0x1B            AVC                                     0,901                   145                     16 302          112


QUICK SUMMARY:
Disc Title: The Cleveland Orchestra - Centennial Celebration 2018 Blu-ray
Disc Size: 21 319 641 397 bytes
Protection: AACS
BD-Java: No
Playlist: 00007.MPLS
Size: 1 561 546 752 bytes
Length: 0:08:52.865
Total Bitrate: 23,44 Mbps
Video: MPEG-4 AVC Video / 19959 kbps / 1080i / 29,970 fps / 16:9 / High Profile 4.1
Audio: English / DTS-HD Master Audio / 5.0 / 48 kHz / 2206 kbps / 24-bit (DTS Core: 5.0 / 48 kHz / 1509 kbps / 24-bit)
********************
PLAYLIST: 00004.MPLS
********************

Код:

                                                                                Total   Video
Title                                                           Codec   Length  Movie Size      Disc Size       Bitrate Bitrate Main Audio Track                          Secondary Audio Track
-----                                                           ------  ------- --------------  --------------  ------- ------- ------------------                        ---------------------
00004.MPLS                                                      AVC     0:03:27 606 664 704     21 319 641 397  23,37   19,90   DTS-HD Master 5.0 2193Kbps (48kHz/24-bit)

Код:
DISC INFO:
Disc Title:     The Cleveland Orchestra - Centennial Celebration 2018 Blu-ray
Disc Size:      21 319 641 397 bytes
Protection:     AACS
BD-Java:        No
BDInfo:         0.5.8
PLAYLIST REPORT:
Name:                   00004.MPLS
Length:                 0:03:27.674 (h:m:s.ms)
Size:                   606 664 704 bytes
Total Bitrate:          23,37 Mbps
VIDEO:
Codec                   Bitrate             Description
-----                   -------             -----------
MPEG-4 AVC Video        19900 kbps          1080i / 29,970 fps / 16:9 / High Profile 4.1
AUDIO:
Codec                           Language        Bitrate         Description
-----                           --------        -------         -----------
DTS-HD Master Audio             English         2193 kbps       5.0 / 48 kHz / 2193 kbps / 24-bit (DTS Core: 5.0 / 48 kHz / 1509 kbps / 24-bit)
FILES:
Name            Time In         Length          Size            Total Bitrate
----            -------         ------          ----            -------------
00005.M2TS      0:00:00.000     0:03:26.673     606 633 984     23 482
00002.M2TS      0:03:26.673     0:00:01.000     30 720          246
CHAPTERS:
Number          Time In         Length          Avg Video Rate  Max 1-Sec Rate  Max 1-Sec Time  Max 5-Sec Rate  Max 5-Sec Time  Max 10Sec Rate  Max 10Sec Time  Avg Frame Size  Max Frame Size  Max Frame Time
------          -------         ------          --------------  --------------  --------------  --------------  --------------  --------------  --------------  --------------  --------------  --------------
1               0:00:00.000     0:03:26.673     19 996 kbps     36 892 kbps     00:02:15.201    35 479 kbps     00:02:11.865    32 389 kbps     00:00:11.144    83 387 bytes    395 866 bytes   00:00:52.786
2               0:03:26.673     0:00:01.000     111 kbps        0 kbps          00:00:00.000    0 kbps          00:00:00.000    0 kbps          00:00:00.000    478 bytes       2 439 bytes     00:03:27.273
STREAM DIAGNOSTICS:
File            PID             Type            Codec           Language                Seconds                 Bitrate                 Bytes           Packets
----            ---             ----            -----           --------                --------------          --------------          -------------   -----
00005.M2TS      4113 (0x1011)   0x1B            AVC                                     206,540                 20 009                  516 578 452     2 811 081
00005.M2TS      4352 (0x1100)   0x86            DTS-HD MA       eng (English)           206,540                 2 205                   56 936 120      341 511
00002.M2TS      4113 (0x1011)   0x1B            AVC                                     0,901                   145                     16 302          112


QUICK SUMMARY:
Disc Title: The Cleveland Orchestra - Centennial Celebration 2018 Blu-ray
Disc Size: 21 319 641 397 bytes
Protection: AACS
BD-Java: No
Playlist: 00004.MPLS
Size: 606 664 704 bytes
Length: 0:03:27.674
Total Bitrate: 23,37 Mbps
Video: MPEG-4 AVC Video / 19900 kbps / 1080i / 29,970 fps / 16:9 / High Profile 4.1
Audio: English / DTS-HD Master Audio / 5.0 / 48 kHz / 2193 kbps / 24-bit (DTS Core: 5.0 / 48 kHz / 1509 kbps / 24-bit)
********************
PLAYLIST: 00005.MPLS
********************

Код:

                                                                                Total   Video
Title                                                           Codec   Length  Movie Size      Disc Size       Bitrate Bitrate Main Audio Track                          Secondary Audio Track
-----                                                           ------  ------- --------------  --------------  ------- ------- ------------------                        ---------------------
00005.MPLS                                                      AVC     0:02:55 511 481 856     21 319 641 397  23,29   19,88   DTS-HD Master 5.0 2140Kbps (48kHz/24-bit)

Код:
DISC INFO:
Disc Title:     The Cleveland Orchestra - Centennial Celebration 2018 Blu-ray
Disc Size:      21 319 641 397 bytes
Protection:     AACS
BD-Java:        No
BDInfo:         0.5.8
PLAYLIST REPORT:
Name:                   00005.MPLS
Length:                 0:02:55.708 (h:m:s.ms)
Size:                   511 481 856 bytes
Total Bitrate:          23,29 Mbps
VIDEO:
Codec                   Bitrate             Description
-----                   -------             -----------
MPEG-4 AVC Video        19883 kbps          1080i / 29,970 fps / 16:9 / High Profile 4.1
AUDIO:
Codec                           Language        Bitrate         Description
-----                           --------        -------         -----------
DTS-HD Master Audio             English         2140 kbps       5.0 / 48 kHz / 2140 kbps / 24-bit (DTS Core: 5.0 / 48 kHz / 1509 kbps / 24-bit)
FILES:
Name            Time In         Length          Size            Total Bitrate
----            -------         ------          ----            -------------
00006.M2TS      0:00:00.000     0:02:54.707     511 451 136     23 420
00002.M2TS      0:02:54.707     0:00:01.000     30 720          246
CHAPTERS:
Number          Time In         Length          Avg Video Rate  Max 1-Sec Rate  Max 1-Sec Time  Max 5-Sec Rate  Max 5-Sec Time  Max 10Sec Rate  Max 10Sec Time  Avg Frame Size  Max Frame Size  Max Frame Time
------          -------         ------          --------------  --------------  --------------  --------------  --------------  --------------  --------------  --------------  --------------  --------------
1               0:00:00.000     0:02:54.707     19 996 kbps     41 124 kbps     00:00:53.887    36 807 kbps     00:00:49.883    36 228 kbps     00:00:44.878    83 384 bytes    448 471 bytes   00:00:54.687
2               0:02:54.707     0:00:01.000     111 kbps        0 kbps          00:00:00.000    0 kbps          00:00:00.000    0 kbps          00:00:00.000    478 bytes       2 439 bytes     00:02:55.308
STREAM DIAGNOSTICS:
File            PID             Type            Codec           Language                Seconds                 Bitrate                 Bytes           Packets
----            ---             ----            -----           --------                --------------          --------------          -------------   -----
00006.M2TS      4113 (0x1011)   0x1B            AVC                                     174,574                 20 011                  436 678 596     2 376 333
00006.M2TS      4352 (0x1100)   0x86            DTS-HD MA       eng (English)           174,574                 2 154                   47 006 268      281 598
00002.M2TS      4113 (0x1011)   0x1B            AVC                                     0,901                   145                     16 302          112


QUICK SUMMARY:
Disc Title: The Cleveland Orchestra - Centennial Celebration 2018 Blu-ray
Disc Size: 21 319 641 397 bytes
Protection: AACS
BD-Java: No
Playlist: 00005.MPLS
Size: 511 481 856 bytes
Length: 0:02:55.708
Total Bitrate: 23,29 Mbps
Video: MPEG-4 AVC Video / 19883 kbps / 1080i / 29,970 fps / 16:9 / High Profile 4.1
Audio: English / DTS-HD Master Audio / 5.0 / 48 kHz / 2140 kbps / 24-bit (DTS Core: 5.0 / 48 kHz / 1509 kbps / 24-bit)
********************
PLAYLIST: 00003.MPLS
********************

Код:

                                                                                Total   Video
Title                                                           Codec   Length  Movie Size      Disc Size       Bitrate Bitrate Main Audio Track                          Secondary Audio Track
-----                                                           ------  ------- --------------  --------------  ------- ------- ------------------                        ---------------------
00003.MPLS                                                      AVC     0:02:31 443 461 632     21 319 641 397  23,42   19,87   DTS-HD Master 5.0 2271Kbps (48kHz/24-bit)

Код:
DISC INFO:
Disc Title:     The Cleveland Orchestra - Centennial Celebration 2018 Blu-ray
Disc Size:      21 319 641 397 bytes
Protection:     AACS
BD-Java:        No
BDInfo:         0.5.8
PLAYLIST REPORT:
Name:                   00003.MPLS
Length:                 0:02:31.484 (h:m:s.ms)
Size:                   443 461 632 bytes
Total Bitrate:          23,42 Mbps
VIDEO:
Codec                   Bitrate             Description
-----                   -------             -----------
MPEG-4 AVC Video        19867 kbps          1080i / 29,970 fps / 16:9 / High Profile 4.1
AUDIO:
Codec                           Language        Bitrate         Description
-----                           --------        -------         -----------
DTS-HD Master Audio             English         2271 kbps       5.0 / 48 kHz / 2271 kbps / 24-bit (DTS Core: 5.0 / 48 kHz / 1509 kbps / 24-bit)
FILES:
Name            Time In         Length          Size            Total Bitrate
----            -------         ------          ----            -------------
00004.M2TS      0:00:00.000     0:02:30.483     443 430 912     23 574
00002.M2TS      0:02:30.483     0:00:01.000     30 720          246
CHAPTERS:
Number          Time In         Length          Avg Video Rate  Max 1-Sec Rate  Max 1-Sec Time  Max 5-Sec Rate  Max 5-Sec Time  Max 10Sec Rate  Max 10Sec Time  Avg Frame Size  Max Frame Size  Max Frame Time
------          -------         ------          --------------  --------------  --------------  --------------  --------------  --------------  --------------  --------------  --------------  --------------
1               0:00:00.000     0:02:30.483     19 998 kbps     41 190 kbps     00:01:32.992    37 017 kbps     00:01:29.055    32 098 kbps     00:00:47.914    83 391 bytes    431 404 bytes   00:01:15.375
2               0:02:30.483     0:00:01.000     111 kbps        0 kbps          00:00:00.000    0 kbps          00:00:00.000    0 kbps          00:00:00.000    478 bytes       2 439 bytes     00:02:31.084
STREAM DIAGNOSTICS:
File            PID             Type            Codec           Language                Seconds                 Bitrate                 Bytes           Packets
----            ---             ----            -----           --------                --------------          --------------          -------------   -----
00004.M2TS      4113 (0x1011)   0x1B            AVC                                     150,350                 20 016                  376 173 896     2 047 047
00004.M2TS      4352 (0x1100)   0x86            DTS-HD MA       eng (English)           150,350                 2 288                   42 995 520      257 395
00002.M2TS      4113 (0x1011)   0x1B            AVC                                     0,901                   145                     16 302          112


QUICK SUMMARY:
Disc Title: The Cleveland Orchestra - Centennial Celebration 2018 Blu-ray
Disc Size: 21 319 641 397 bytes
Protection: AACS
BD-Java: No
Playlist: 00003.MPLS
Size: 443 461 632 bytes
Length: 0:02:31.484
Total Bitrate: 23,42 Mbps
Video: MPEG-4 AVC Video / 19867 kbps / 1080i / 29,970 fps / 16:9 / High Profile 4.1
Audio: English / DTS-HD Master Audio / 5.0 / 48 kHz / 2271 kbps / 24-bit (DTS Core: 5.0 / 48 kHz / 1509 kbps / 24-bit)


Скриншоты














Мои раздачи ®
https://rutracker.org/forum/https://rutracker.net/forum/tracker.php?rid=9539252


                                                                                       
                       
                       
                       
                       
                       
                                 磁力下载(论坛代下载服务)
                                                               
                                       
游客,本主题需向作者支付 10金币 才能浏览,金币充值, 免回复、免金币,直接查看内容请开通VIP支付

                                               
  • 19.86 GB
  • 温馨提示

    记得善用社区搜索功能,那里可能会有你想要的资源;论坛站内搜索

    如果你有什么需要的资源可以去资源求档发帖,求助社区的网友,我们会在第一时间给你回复哦;资源求档

    对于本社区网盘链接失效密码错误各种报错请在反馈板块反馈报错发帖,您的支持,是我们发展的最大动力;投诉建议

    回复

    使用道具 举报

    您需要登录后才可以回帖 登录 | 立即注册 微信登录

    本版积分规则

    关注0

    粉丝1

    帖子29169

    发布主题
    阅读排行更多+
    关闭

    站长推荐上一条 /1 下一条

    收藏帖子 返回列表 这是一个自定义按钮
    音乐分享,音乐下载。
    微信公众号
    微信号:maomiyinyue
    意见反馈:admin@maomicd.com

    加入我们的官方QQ群和微信群

    Powered by Discuz! X3.4 Archiver|手机版|小黑屋|猫咪音乐网 ( 苏ICP备20015413号 )|( 苏公网安备 32030502000272号) 繁體

    JS of wanmeiff.com and vcpic.com Please keep this copyright information, respect of, thank you!JS of wanmeiff.com and vcpic.com Please keep this copyright information, respect of, thank you!

    GMT+8, 2021-1-22 23:17