自购原抓音乐圈:只有自购、合购、原抓级高解析(hires、sacd、dsd)正版音乐资源分享!【点我打开
极速无线网卡:千兆无线网卡、服务器网卡、USB接口台式机笔记本网卡 千兆网线 厂家批发价格最低!【点我打开
广告

[古典音乐] Barenboim - 华沙​​协奏曲(肖邦)[2010,古典,Bdrip,720p]

[复制链接]
tikus75 发表于 2020-12-20 20:46:22 | 显示全部楼层 |阅读模式 打印 上一主题 下一主题
Daniel Barenboim - The Warsaw Recital (Fryderyk Chopin)
Жанр: Classical
Продолжительность: 1:31:03
Год выпуска: 2010Лейбл: Accentus
Страна-производитель: United States
Язык: German
Исполнители: Daniel BarenboimТреклист:
Piano Sonata No. 2 in B flat minor, Op. 35 'Marche funebre'
Fantasia in F minor, Op. 49
Nocturne No. 8 in D flat major, Op. 27 No. 2
Barcarolle in F sharp major, Op. 60
Waltz No. 2 in A flat major 'Grande Valse Brillante', Op. 34 No. 1
Waltz No. 3 in A minor 'Grande Valse Brillante', Op. 34 No. 2
Waltz No. 7 in C sharp minor, Op. 64 No. 2
Berceuse in D flat major, Op. 57
Polonaise No. 6 in A flat major, Op. 53 'Heroique'
Mazurka No. 7 in F minor, Op. 7 No. 3
Waltz No. 6 in D flat major, Op. 64 No. 1 'Minute Waltz'

Описание: Frédéric Chopin Year 2010 coincides with the 60th anniversary of Daniel Barenboim's stage début, and as a pianist he has decided to devote this year to the great Romantic master of the keyboard.
Chopin was born on 1 March 1810 in a small village near Warsaw, and on the eve of the 200th anniversary of this date Barenboim gave this wildly acclaimed Warsaw recital as part of an extensive European tour.
The program comprised some of the composer's best-known works, including the great B flat minor Sonata with its famous Funeral March, which sounded to many "as the composer may well have imagined it".
While Chopin used to advise his piano scholars to take singing lessons, Barenboim, as an experienced conductor of operas is most familiar with the human voice as well. With his brilliant virtuosity, he lead the audience through a most colorful program, once again proving his talent for this composer.
Celebrating Frédéric Chopin's 200th birthday. Live from the Warsaw Philharmonic Concert Hall.Качество видео: BDRip
Формат/Контейнер: MKV
Видео кодек: H.264
Аудио кодек: DTS
Видео поток: 1280x720p/AVC High@L 4.1/16:9/5 312 Kbps/29.970 fps/4.33 GiB/
Аудио поток: DTS 5.1 (48 kHz / 1,510 kbps / 24-bit) Lossy 6 channels Front: L C R, Side: L R, LFE
Доп. информация: Сохранены оригинальные чаптеры как на Blu-ray
Скриншоты













MediaInfo
General
Unique ID : 192330548524090423433186726674265130244 (0x90B18429C410EDE3B5A90347362DC504)
Complete name : Chopin Warsaw Recital - Daniel Barenboim 2010 Blu-ray 720p AVC DTS 5.1 ELR.mkv
Format : Matroska
File size : 4.33 GiB
Duration : 1h 30mn
Overall bit rate : 6 823 Kbps
Movie name : Chopin Warsaw Recital - Daniel Barenboim 2010 Blu-ray 720p AVC DTS 5 1 ELR
Encoded date : UTC 2011-02-08 00:52:41
Writing application : mkvmerge v4.4.0 ('Die Wiederkehr') built on Oct 31 2010 21:52:48
Writing library : libebml v1.0.0 + libmatroska v1.0.0
Video
ID : 1
Format : AVC
Format/Info : Advanced Video Codec
Format profile : High@L4.1
Format settings, CABAC : Yes
Format settings, ReFrames : 3 frames
Codec ID : V_MPEG4/ISO/AVC
Duration : 1h 30mn
Bit rate mode : Variable
Bit rate : 5 312 Kbps
Maximum bit rate : 25.0 Mbps
Width : 1 280 pixels
Height : 720 pixels
Display aspect ratio : 16:9
Frame rate : 29.970 fps
Color space : YUV
Chroma subsampling : 4:2:0
Bit depth : 8 bits
Scan type : Progressive
Bits/(Pixel*Frame) : 0.192
Stream size : 3.28 GiB (76%)
Writing library : x264 core 112 r1867 22bfd31
Encoding settings : cabac=1 / ref=3 / deblock=1:0:0 / analyse=0x3:0x133 / me=umh / subme=7 / psy=1 / psy_rd=1.00:0.00 / mixed_ref=1 / me_range=16 / chroma_me=1 / trellis=1 / 8x8dct=1 / cqm=0 / deadzone=21,11 / fast_pskip=1 / chroma_qp_offset=-2 / threads=6 / sliced_threads=0 / nr=0 / decimate=1 / interlaced=0 / constrained_intra=0 / bframes=3 / b_pyramid=0 / b_adapt=1 / b_bias=0 / direct=1 / weightb=1 / open_gop=0 / weightp=2 / keyint=300 / keyint_min=30 / scenecut=40 / intra_refresh=0 / rc_lookahead=40 / rc=2pass / mbtree=1 / bitrate=5312 / ratetol=1.0 / qcomp=0.60 / qpmin=0 / qpmax=51 / qpstep=4 / cplxblur=20.0 / qblur=0.5 / vbv_maxrate=25000 / vbv_bufsize=25000 / nal_hrd=vbr / ip_ratio=1.40 / aq=1:1.00
Audio
ID : 2
Format : DTS
Format/Info : Digital Theater Systems
Codec ID : A_DTS
Duration : 1h 30mn
Bit rate mode : Constant
Bit rate : 1 510 Kbps
Channel(s) : 6 channels
Channel positions : Front: L C R, Side: L R, LFE
Sampling rate : 48.0 KHz
Bit depth : 24 bits
Compression mode : Lossy
Stream size : 981 MiB (22%)
Language : German
Menu
00:00:00.000 : en:00:00:00.000
00:00:52.986 : en:00:00:52.986
00:14:38.778 : en:00:14:38.778
00:22:07.026 : en:00:22:07.026
00:28:03.148 : en:00:28:03.148
00:35:04.769 : en:00:35:04.769
00:42:47.131 : en:00:42:47.131
00:45:47.378 : en:00:45:47.378
00:56:00.123 : en:00:56:00.123
00:58:45.922 : en:00:58:45.922
01:04:42.112 : en:01:04:42.112
01:09:05.341 : en:01:09:05.341
01:14:05.174 : en:01:14:05.174
01:22:57.206 : en:01:22:57.206
01:26:41.963 : en:01:26:41.963
01:29:28.897 : en:01:29:28.897
01:30:49.044 : en:01:30:49.044
                                                                                       
                       
                       
                       
                       
                       
                                 磁力下载(论坛代下载服务)
                                                               
                                       
游客,本主题需向作者支付 10金币 才能浏览,金币充值, 免回复、免金币,直接查看内容请开通VIP支付

                                               
  • 4.33 GB
  • 温馨提示

    记得善用社区搜索功能,那里可能会有你想要的资源;论坛站内搜索

    如果你有什么需要的资源可以去资源求档发帖,求助社区的网友,我们会在第一时间给你回复哦;资源求档

    对于本社区网盘链接失效密码错误各种报错请在反馈板块反馈报错发帖,您的支持,是我们发展的最大动力;投诉建议

    回复

    使用道具 举报

    您需要登录后才可以回帖 登录 | 立即注册 微信登录

    本版积分规则

    关注0

    粉丝0

    帖子29493

    发布主题
    阅读排行更多+
    关闭

    站长推荐上一条 /1 下一条

    收藏帖子 返回列表 这是一个自定义按钮
    音乐分享,音乐下载。
    微信公众号
    微信号:maomiyinyue
    意见反馈:admin@maomicd.com

    加入我们的官方QQ群和微信群

    Powered by Discuz! X3.4 Archiver|手机版|小黑屋|猫咪音乐网 ( 苏ICP备20015413号 )|( 苏公网安备 32030502000272号) 繁體

    JS of wanmeiff.com and vcpic.com Please keep this copyright information, respect of, thank you!JS of wanmeiff.com and vcpic.com Please keep this copyright information, respect of, thank you!

    GMT+8, 2021-1-20 10:58