自购原抓音乐圈:只有自购、合购、原抓级高解析(hires、sacd、dsd)正版音乐资源分享!【点我打开
极速无线网卡:千兆无线网卡、服务器网卡、USB接口台式机笔记本网卡 千兆网线 厂家批发价格最低!【点我打开
广告

[古典音乐] Zumsteg,Loewe,Raff,Schumann,Elgar,Parker,Wagner:Franziska Hirzel&Tobias Schabenberger - Lieder der Maria Stuart [2016,古典声乐,蓝光]

[复制链接]
fqw1001 发表于 2020-12-20 20:46:22 | 显示全部楼层 |阅读模式 打印 上一主题 下一主题
Franziska Hirzel & Tobias Schabenberger - Lieder der Maria Stuart
Год выпуска: 2016
Лейбл: Bonitz Music Network 20164
Страна-производитель: Switzerland
Жанр: Classical Vocal
Продолжительность: 01:01:21
Язык: German
Перевод: нет
Исполнители:
Franziska Hirzel - soprano
Tobias Schabenberger - piano
Треклист:
Recording 25-27.02.2016 Hans Huber Saal Basel
Johann Rudolf Zumsteeg
1 Monolog der Maria Stuart
Carl Loewe
2 Monolog-Lied der Königin Elisabeth op. 119
3 Gesang der Königin Maria Stuart auf den Tod Franz' ll
Joachim Raff
Maria Stuart (Liederzyklus)
4 Nr. 1 Klage 1
5 Nr. 2 Klage 2
6 Nr. 3 Klage 3
7 Nr. 4 Klage 4
8 Nr. 5 Maria Stuart's Abschied von Frankreich
9 Nr. 6 Nach der Geburt ihres Sohnes
10 Nr. 7 Vor dem Gang zum Schaffot
11 Nr. 8 Abschied von der Welt
12 Nr. 9 Gebet
Robert Schumann
Lieder op. 135 Nr. 1-5 (nach Gedichten der Königin Maria Stuart)
13 Nr. 1 Abschied von Frankreich
14 Nr. 2 Nach der Geburt ihres Sohnes
15 Nr. 3 An die Königin Elisabeth
16 Nr. 4 Abschied von der Welt
17 Nr. 5 Gebet
Edward Elgar
18 Queen Mary's song Liederzyklus (Auszug)
Horatio Parker
19 Queen Mary's Song (Lute-song)
Richard Wagner
20 Adieux de Marie Stuart
Качество видео: Blu-ray
Формат/Контейнер: BDMV
Видео кодек: MPEG2
Аудио кодек: PCM
Видео : MPEG-2 Video / 24781 kbps / 1080p / 23.976 fps / 16:9
Аудио : LPCM Audio / 2.0 / 96 kHz / 4608 kbps / 24-bit
BDInfo

Disc Label:     Franziska Hirzel & Tobias Schabenberger - Lieder der Maria Stuart.2016
Disc Size:      14,198,437,996 bytes
Protection:     AACS
BDInfo:         0.7.5.5
Notes:
BDINFO HOME:
  Cinema Squid (old)
    http://www.cinemasquid.com/blu-ray/tools/bdinfo
  UniqProject GitHub (new)
   https://github.com/UniqProject/BDInfo
INCLUDES FORUMS REPORT FOR:
  AVS Forum Blu-ray Audio and Video Specifications Thread
    http://www.avsforum.com/avs-vb/showthread.php?t=1155731
********************
PLAYLIST: 00021.MPLS
********************

Код:

                                                                                Total   Video
Title                                                           Codec   Length  Movie Size      Disc Size       Bitrate Bitrate Main Audio Track                          Secondary Audio Track
-----                                                           ------  ------- --------------  --------------  ------- ------- ------------------                        ---------------------
00021.MPLS                                                      MPEG-2  1:01:21 14,197,524,480  14,198,437,996  30.85   24.78   LPCM 2.0 4608Kbps (96kHz/24-bit)

Код:
DISC INFO:
Disc Label:     Franziska Hirzel & Tobias Schabenberger - Lieder der Maria Stuart.2016
Disc Size:      14,198,437,996 bytes
Protection:     AACS
BDInfo:         0.7.5.5
PLAYLIST REPORT:
Name:                   00021.MPLS
Length:                 1:01:21.260 (h:m:s.ms)
Size:                   14,197,524,480 bytes
Total Bitrate:          30.85 Mbps
VIDEO:
Codec                   Bitrate             Description
-----                   -------             -----------
MPEG-2 Video            24781 kbps          1080p / 23.976 fps / 16:9
AUDIO:
Codec                           Language        Bitrate         Description
-----                           --------        -------         -----------
LPCM Audio                      Undetermined    4608 kbps       2.0 / 96 kHz /  4608 kbps / 24-bit
FILES:
Name            Time In         Length          Size            Total Bitrate
----            -------         ------          ----            -------------
00001.M2TS      0:00:00.000     0:05:44.010     1,328,308,224   30,890
00002.M2TS      0:05:44.010     0:04:06.120     953,702,400     30,999
00003.M2TS      0:09:50.131     0:03:29.375     801,878,016     30,639
00004.M2TS      0:13:19.507     0:02:52.964     667,054,080     30,853
00019.M2TS      0:16:12.471     0:01:40.225     387,047,424     30,894
00005.M2TS      0:17:52.696     0:01:55.657     447,412,224     30,947
00006.M2TS      0:19:48.353     0:02:17.220     529,035,264     30,843
00007.M2TS      0:22:05.574     0:02:11.798     507,469,824     30,803
00008.M2TS      0:24:17.372     0:05:23.489     1,243,367,424   30,749
00009.M2TS      0:29:40.862     0:03:48.186     880,496,640     30,869
00010.M2TS      0:33:29.048     0:02:29.566     573,474,816     30,674
00011.M2TS      0:35:58.614     0:02:32.861     588,515,328     30,800
00012.M2TS      0:38:31.475     0:01:35.345     367,060,992     30,798
00013.M2TS      0:40:06.820     0:01:26.044     331,800,576     30,849
00014.M2TS      0:41:32.865     0:01:40.642     387,188,736     30,777
00020.M2TS      0:43:13.507     0:02:36.197     601,171,968     30,790
00015.M2TS      0:45:49.705     0:01:35.595     366,170,112     30,643
00016.M2TS      0:47:25.300     0:03:44.599     868,399,104     30,931
00017.M2TS      0:51:09.899     0:02:29.482     579,035,136     30,989
00018.M2TS      0:53:39.382     0:07:41.878     1,788,936,192   30,985
CHAPTERS:
Number          Time In         Length          Avg Video Rate  Max 1-Sec Rate  Max 1-Sec Time  Max 5-Sec Rate  Max 5-Sec Time  Max 10Sec Rate  Max 10Sec Time  Avg Frame Size  Max Frame Size  Max Frame Time
------          -------         ------          --------------  --------------  --------------  --------------  --------------  --------------  --------------  --------------  --------------  --------------
1               0:00:00.000     0:05:44.010     24,823 kbps     26,733 kbps     00:03:22.076    25,679 kbps     00:00:02.168    25,522 kbps     00:00:02.168    129,401 bytes   490,971 bytes   00:00:01.793
2               0:05:44.010     0:04:06.120     24,928 kbps     27,663 kbps     00:05:57.857    26,136 kbps     00:05:55.772    25,907 kbps     00:05:51.517    129,964 bytes   501,129 bytes   00:07:42.420
3               0:09:50.131     0:03:29.375     24,582 kbps     28,323 kbps     00:10:05.896    27,583 kbps     00:10:04.020    27,234 kbps     00:10:02.393    128,160 bytes   528,643 bytes   00:12:15.818
4               0:13:19.507     0:02:52.964     24,787 kbps     27,825 kbps     00:13:30.684    27,287 kbps     00:13:28.015    26,557 kbps     00:13:25.012    129,230 bytes   559,715 bytes   00:14:33.372
5               0:16:12.471     0:01:40.225     24,828 kbps     26,932 kbps     00:16:15.140    26,256 kbps     00:16:14.640    26,148 kbps     00:16:14.640    129,440 bytes   477,924 bytes   00:16:14.765
6               0:17:52.696     0:01:55.657     24,878 kbps     27,881 kbps     00:17:55.991    26,877 kbps     00:17:55.991    26,585 kbps     00:17:55.991    129,705 bytes   510,872 bytes   00:19:23.704
7               0:19:48.353     0:02:17.220     24,779 kbps     27,556 kbps     00:20:00.157    27,217 kbps     00:19:59.615    26,869 kbps     00:19:56.528    129,186 bytes   531,096 bytes   00:21:05.722
8               0:22:05.574     0:02:11.798     24,545 kbps     27,976 kbps     00:22:13.123    26,491 kbps     00:22:13.582    26,341 kbps     00:22:09.244    127,964 bytes   522,722 bytes   00:24:01.982
9               0:24:17.372     0:05:23.489     24,687 kbps     27,618 kbps     00:24:29.175    27,176 kbps     00:24:25.255    26,701 kbps     00:24:25.255    128,709 bytes   539,597 bytes   00:25:33.239
10              0:29:40.862     0:03:48.186     24,803 kbps     27,743 kbps     00:29:43.531    26,193 kbps     00:29:43.531    26,086 kbps     00:29:43.531    129,311 bytes   515,992 bytes   00:33:18.371
11              0:33:29.048     0:02:29.566     24,616 kbps     27,975 kbps     00:33:37.932    26,783 kbps     00:33:37.056    26,420 kbps     00:33:37.056    128,338 bytes   533,519 bytes   00:35:24.455
12              0:35:58.614     0:02:32.861     24,738 kbps     27,669 kbps     00:36:54.045    26,215 kbps     00:36:05.997    25,729 kbps     00:36:01.283    128,970 bytes   523,535 bytes   00:37:33.000
13              0:38:31.475     0:01:35.345     24,736 kbps     26,353 kbps     00:39:20.774    25,754 kbps     00:38:40.943    25,588 kbps     00:38:35.980    128,962 bytes   524,403 bytes   00:38:33.144
14              0:40:06.820     0:01:26.044     24,784 kbps     26,406 kbps     00:40:41.605    25,515 kbps     00:41:24.648    25,405 kbps     00:40:17.081    129,214 bytes   497,585 bytes   00:40:07.988
15              0:41:32.865     0:01:40.642     24,715 kbps     27,372 kbps     00:42:47.064    25,806 kbps     00:41:35.993    25,479 kbps     00:41:35.367    128,853 bytes   479,198 bytes   00:41:34.033
16              0:43:13.507     0:02:36.197     24,728 kbps     26,879 kbps     00:43:19.388    26,022 kbps     00:43:25.185    25,778 kbps     00:43:24.768    128,919 bytes   504,881 bytes   00:44:11.857
17              0:45:49.705     0:01:35.595     24,588 kbps     26,731 kbps     00:45:51.873    25,862 kbps     00:46:01.883    25,596 kbps     00:45:59.464    128,190 bytes   494,454 bytes   00:46:45.052
18              0:47:25.300     0:03:44.599     24,863 kbps     27,390 kbps     00:47:35.102    26,929 kbps     00:47:33.183    26,499 kbps     00:47:32.974    129,623 bytes   525,417 bytes   00:49:18.205
19              0:51:09.899     0:02:29.482     24,918 kbps     26,815 kbps     00:51:12.569    25,882 kbps     00:51:12.569    25,766 kbps     00:51:12.569    129,909 bytes   490,841 bytes   00:51:12.694
20              0:53:39.382     0:07:41.878     24,913 kbps     27,825 kbps     00:53:42.051    26,287 kbps     00:53:42.051    26,267 kbps     00:53:42.051    129,897 bytes   512,228 bytes   00:59:35.530
STREAM DIAGNOSTICS:
File            PID             Type            Codec           Language                Seconds                 Bitrate                 Bytes           Packets
----            ---             ----            -----           --------                --------------          --------------          -------------   -----
00001.M2TS      4113 (0x1011)   0x02            MPEG-2                                  343.844                 24,834                  1,067,383,025   5,805,808
00001.M2TS      4352 (0x1100)   0x80            LPCM            und (Undetermined)      343.844                 4,617                   198,442,266     1,100,928
00002.M2TS      4113 (0x1011)   0x02            MPEG-2                                  245.996                 24,941                  766,919,770     4,171,462
00002.M2TS      4352 (0x1100)   0x80            LPCM            und (Undetermined)      245.996                 4,616                   141,940,676     787,466
00003.M2TS      4113 (0x1011)   0x02            MPEG-2                                  209.209                 24,602                  643,363,048     3,499,453
00003.M2TS      4352 (0x1100)   0x80            LPCM            und (Undetermined)      209.209                 4,618                   120,761,922     669,970
00004.M2TS      4113 (0x1011)   0x02            MPEG-2                                  172.798                 24,811                  535,916,532     2,914,997
00004.M2TS      4352 (0x1100)   0x80            LPCM            und (Undetermined)      172.798                 4,618                   99,753,308      553,417
00019.M2TS      4113 (0x1011)   0x02            MPEG-2                                  100.100                 24,859                  311,043,771     1,691,858
00019.M2TS      4352 (0x1100)   0x80            LPCM            und (Undetermined)      100.100                 4,619                   57,795,934      320,644
00005.M2TS      4113 (0x1011)   0x02            MPEG-2                                  115.490                 24,914                  359,671,030     1,956,336
00005.M2TS      4352 (0x1100)   0x80            LPCM            und (Undetermined)      115.490                 4,620                   66,701,152      370,048
00006.M2TS      4113 (0x1011)   0x02            MPEG-2                                  137.137                 24,794                  425,022,827     2,311,809
00006.M2TS      4352 (0x1100)   0x80            LPCM            und (Undetermined)      137.137                 4,616                   79,125,424      438,976
00007.M2TS      4113 (0x1011)   0x02            MPEG-2                                  131.632                 24,576                  404,365,897     2,199,477
00007.M2TS      4352 (0x1100)   0x80            LPCM            und (Undetermined)      131.632                 4,809                   79,125,424      438,976
00008.M2TS      4113 (0x1011)   0x02            MPEG-2                                  323.323                 24,700                  998,268,747     5,429,896
00008.M2TS      4352 (0x1100)   0x80            LPCM            und (Undetermined)      323.323                 4,617                   186,583,258     1,035,136
00009.M2TS      4113 (0x1011)   0x02            MPEG-2                                  228.103                 24,812                  707,460,359     3,848,084
00009.M2TS      4352 (0x1100)   0x80            LPCM            und (Undetermined)      228.103                 4,616                   131,614,990     730,181
00010.M2TS      4113 (0x1011)   0x02            MPEG-2                                  149.399                 24,644                  460,219,025     2,503,283
00010.M2TS      4352 (0x1100)   0x80            LPCM            und (Undetermined)      149.399                 4,619                   86,254,672      478,528
00011.M2TS      4113 (0x1011)   0x02            MPEG-2                                  152.778                 24,751                  472,676,302     2,571,013
00011.M2TS      4352 (0x1100)   0x80            LPCM            und (Undetermined)      152.778                 4,616                   88,146,576      489,024
00012.M2TS      4113 (0x1011)   0x02            MPEG-2                                  95.220                  24,769                  294,808,017     1,603,556
00012.M2TS      4352 (0x1100)   0x80            LPCM            und (Undetermined)      95.220                  4,619                   54,980,576      305,024
00013.M2TS      4113 (0x1011)   0x02            MPEG-2                                  85.961                  24,808                  266,567,822     1,449,952
00013.M2TS      4352 (0x1100)   0x80            LPCM            und (Undetermined)      85.961                  4,618                   49,616,336      275,264
00014.M2TS      4113 (0x1011)   0x02            MPEG-2                                  100.475                 24,756                  310,922,053     1,691,194
00014.M2TS      4352 (0x1100)   0x80            LPCM            und (Undetermined)      100.475                 4,621                   58,042,994      322,014
00020.M2TS      4113 (0x1011)   0x02            MPEG-2                                  156.031                 24,754                  482,801,696     2,626,130
00020.M2TS      4352 (0x1100)   0x80            LPCM            und (Undetermined)      156.031                 4,618                   90,073,088      499,712
00015.M2TS      4113 (0x1011)   0x02            MPEG-2                                  95.470                  24,620                  293,812,076     1,598,138
00015.M2TS      4352 (0x1100)   0x80            LPCM            und (Undetermined)      95.470                  4,619                   55,119,008      305,792
00016.M2TS      4113 (0x1011)   0x02            MPEG-2                                  224.474                 24,877                  698,019,402     3,796,699
00016.M2TS      4352 (0x1100)   0x80            LPCM            und (Undetermined)      224.474                 4,617                   129,537,744     718,656
00017.M2TS      4113 (0x1011)   0x02            MPEG-2                                  149.399                 24,931                  465,592,653     2,532,500
00017.M2TS      4352 (0x1100)   0x80            LPCM            und (Undetermined)      149.399                 4,616                   86,208,522      478,272
00018.M2TS      4113 (0x1011)   0x02            MPEG-2                                  461.711                 24,923                  1,438,393,088   7,823,821
00018.M2TS      4352 (0x1100)   0x80            LPCM            und (Undetermined)      461.711                 4,616                   266,421,610     1,478,068


QUICK SUMMARY:
Disc Label: Franziska Hirzel & Tobias Schabenberger - Lieder der Maria Stuart.2016
Disc Size: 14,198,437,996 bytes
Protection: AACS
Playlist: 00021.MPLS
Size: 14,197,524,480 bytes
Length: 1:01:21.260
Total Bitrate: 30.85 Mbps
Video: MPEG-2 Video / 24781 kbps / 1080p / 23.976 fps / 16:9
Audio: Undetermined / LPCM Audio / 2.0 / 96 kHz /  4608 kbps / 24-bit
********************
PLAYLIST: 00018.MPLS
********************

Код:

                                                                                Total   Video
Title                                                           Codec   Length  Movie Size      Disc Size       Bitrate Bitrate Main Audio Track                          Secondary Audio Track
-----                                                           ------  ------- --------------  --------------  ------- ------- ------------------                        ---------------------
00018.MPLS                                                      MPEG-2  0:07:41 1,788,936,192   14,198,437,996  30.99   24.91   LPCM 2.0 4608Kbps (96kHz/24-bit)

Код:
DISC INFO:
Disc Label:     Franziska Hirzel & Tobias Schabenberger - Lieder der Maria Stuart.2016
Disc Size:      14,198,437,996 bytes
Protection:     AACS
BDInfo:         0.7.5.5
PLAYLIST REPORT:
Name:                   00018.MPLS
Length:                 0:07:41.878 (h:m:s.ms)
Size:                   1,788,936,192 bytes
Total Bitrate:          30.99 Mbps
VIDEO:
Codec                   Bitrate             Description
-----                   -------             -----------
MPEG-2 Video            24914 kbps          1080p / 23.976 fps / 16:9
AUDIO:
Codec                           Language        Bitrate         Description
-----                           --------        -------         -----------
LPCM Audio                      Undetermined    4608 kbps       2.0 / 96 kHz /  4608 kbps / 24-bit
FILES:
Name            Time In         Length          Size            Total Bitrate
----            -------         ------          ----            -------------
00018.M2TS      0:00:00.000     0:07:41.878     1,788,936,192   30,985
CHAPTERS:
Number          Time In         Length          Avg Video Rate  Max 1-Sec Rate  Max 1-Sec Time  Max 5-Sec Rate  Max 5-Sec Time  Max 10Sec Rate  Max 10Sec Time  Avg Frame Size  Max Frame Size  Max Frame Time
------          -------         ------          --------------  --------------  --------------  --------------  --------------  --------------  --------------  --------------  --------------  --------------
1               0:00:00.000     0:07:41.878     24,914 kbps     27,825 kbps     00:00:02.669    26,287 kbps     00:00:02.669    26,267 kbps     00:00:02.669    129,889 bytes   512,228 bytes   00:05:56.147
STREAM DIAGNOSTICS:
File            PID             Type            Codec           Language                Seconds                 Bitrate                 Bytes           Packets
----            ---             ----            -----           --------                --------------          --------------          -------------   -----
00018.M2TS      4113 (0x1011)   0x02            MPEG-2                                  461.711                 24,923                  1,438,393,088   7,823,821
00018.M2TS      4352 (0x1100)   0x80            LPCM            und (Undetermined)      461.711                 4,616                   266,421,610     1,478,068


QUICK SUMMARY:
Disc Label: Franziska Hirzel & Tobias Schabenberger - Lieder der Maria Stuart.2016
Disc Size: 14,198,437,996 bytes
Protection: AACS
Playlist: 00018.MPLS
Size: 1,788,936,192 bytes
Length: 0:07:41.878
Total Bitrate: 30.99 Mbps
Video: MPEG-2 Video / 24914 kbps / 1080p / 23.976 fps / 16:9
Audio: Undetermined / LPCM Audio / 2.0 / 96 kHz /  4608 kbps / 24-bit
********************
PLAYLIST: 00001.MPLS
********************

Код:

                                                                                Total   Video
Title                                                           Codec   Length  Movie Size      Disc Size       Bitrate Bitrate Main Audio Track                          Secondary Audio Track
-----                                                           ------  ------- --------------  --------------  ------- ------- ------------------                        ---------------------
00001.MPLS                                                      MPEG-2  0:05:44 1,328,308,224   14,198,437,996  30.89   24.82   LPCM 2.0 4608Kbps (96kHz/24-bit)

Код:
DISC INFO:
Disc Label:     Franziska Hirzel & Tobias Schabenberger - Lieder der Maria Stuart.2016
Disc Size:      14,198,437,996 bytes
Protection:     AACS
BDInfo:         0.7.5.5
PLAYLIST REPORT:
Name:                   00001.MPLS
Length:                 0:05:44.010 (h:m:s.ms)
Size:                   1,328,308,224 bytes
Total Bitrate:          30.89 Mbps
VIDEO:
Codec                   Bitrate             Description
-----                   -------             -----------
MPEG-2 Video            24822 kbps          1080p / 23.976 fps / 16:9
AUDIO:
Codec                           Language        Bitrate         Description
-----                           --------        -------         -----------
LPCM Audio                      Undetermined    4608 kbps       2.0 / 96 kHz /  4608 kbps / 24-bit
FILES:
Name            Time In         Length          Size            Total Bitrate
----            -------         ------          ----            -------------
00001.M2TS      0:00:00.000     0:05:44.010     1,328,308,224   30,890
CHAPTERS:
Number          Time In         Length          Avg Video Rate  Max 1-Sec Rate  Max 1-Sec Time  Max 5-Sec Rate  Max 5-Sec Time  Max 10Sec Rate  Max 10Sec Time  Avg Frame Size  Max Frame Size  Max Frame Time
------          -------         ------          --------------  --------------  --------------  --------------  --------------  --------------  --------------  --------------  --------------  --------------
1               0:00:00.000     0:05:44.010     24,822 kbps     26,733 kbps     00:03:22.076    25,679 kbps     00:00:02.168    25,522 kbps     00:00:02.168    129,411 bytes   490,971 bytes   00:00:01.793
STREAM DIAGNOSTICS:
File            PID             Type            Codec           Language                Seconds                 Bitrate                 Bytes           Packets
----            ---             ----            -----           --------                --------------          --------------          -------------   -----
00001.M2TS      4113 (0x1011)   0x02            MPEG-2                                  343.844                 24,834                  1,067,383,025   5,805,808
00001.M2TS      4352 (0x1100)   0x80            LPCM            und (Undetermined)      343.844                 4,617                   198,442,266     1,100,928


QUICK SUMMARY:
Disc Label: Franziska Hirzel & Tobias Schabenberger - Lieder der Maria Stuart.2016
Disc Size: 14,198,437,996 bytes
Protection: AACS
Playlist: 00001.MPLS
Size: 1,328,308,224 bytes
Length: 0:05:44.010
Total Bitrate: 30.89 Mbps
Video: MPEG-2 Video / 24822 kbps / 1080p / 23.976 fps / 16:9
Audio: Undetermined / LPCM Audio / 2.0 / 96 kHz /  4608 kbps / 24-bit
********************
PLAYLIST: 00008.MPLS
********************

Код:

                                                                                Total   Video
Title                                                           Codec   Length  Movie Size      Disc Size       Bitrate Bitrate Main Audio Track                          Secondary Audio Track
-----                                                           ------  ------- --------------  --------------  ------- ------- ------------------                        ---------------------
00008.MPLS                                                      MPEG-2  0:05:23 1,243,367,424   14,198,437,996  30.75   24.69   LPCM 2.0 4608Kbps (96kHz/24-bit)

Код:
DISC INFO:
Disc Label:     Franziska Hirzel & Tobias Schabenberger - Lieder der Maria Stuart.2016
Disc Size:      14,198,437,996 bytes
Protection:     AACS
BDInfo:         0.7.5.5
PLAYLIST REPORT:
Name:                   00008.MPLS
Length:                 0:05:23.489 (h:m:s.ms)
Size:                   1,243,367,424 bytes
Total Bitrate:          30.75 Mbps
VIDEO:
Codec                   Bitrate             Description
-----                   -------             -----------
MPEG-2 Video            24687 kbps          1080p / 23.976 fps / 16:9
AUDIO:
Codec                           Language        Bitrate         Description
-----                           --------        -------         -----------
LPCM Audio                      Undetermined    4608 kbps       2.0 / 96 kHz /  4608 kbps / 24-bit
FILES:
Name            Time In         Length          Size            Total Bitrate
----            -------         ------          ----            -------------
00008.M2TS      0:00:00.000     0:05:23.489     1,243,367,424   30,749
CHAPTERS:
Number          Time In         Length          Avg Video Rate  Max 1-Sec Rate  Max 1-Sec Time  Max 5-Sec Rate  Max 5-Sec Time  Max 10Sec Rate  Max 10Sec Time  Avg Frame Size  Max Frame Size  Max Frame Time
------          -------         ------          --------------  --------------  --------------  --------------  --------------  --------------  --------------  --------------  --------------  --------------
1               0:00:00.000     0:05:23.489     24,687 kbps     27,618 kbps     00:00:11.803    27,176 kbps     00:00:07.882    26,701 kbps     00:00:07.882    128,709 bytes   539,597 bytes   00:01:15.867
STREAM DIAGNOSTICS:
File            PID             Type            Codec           Language                Seconds                 Bitrate                 Bytes           Packets
----            ---             ----            -----           --------                --------------          --------------          -------------   -----
00008.M2TS      4113 (0x1011)   0x02            MPEG-2                                  323.323                 24,700                  998,268,747     5,429,896
00008.M2TS      4352 (0x1100)   0x80            LPCM            und (Undetermined)      323.323                 4,617                   186,583,258     1,035,136


QUICK SUMMARY:
Disc Label: Franziska Hirzel & Tobias Schabenberger - Lieder der Maria Stuart.2016
Disc Size: 14,198,437,996 bytes
Protection: AACS
Playlist: 00008.MPLS
Size: 1,243,367,424 bytes
Length: 0:05:23.489
Total Bitrate: 30.75 Mbps
Video: MPEG-2 Video / 24687 kbps / 1080p / 23.976 fps / 16:9
Audio: Undetermined / LPCM Audio / 2.0 / 96 kHz /  4608 kbps / 24-bit
********************
PLAYLIST: 00002.MPLS
********************

Код:

                                                                                Total   Video
Title                                                           Codec   Length  Movie Size      Disc Size       Bitrate Bitrate Main Audio Track                          Secondary Audio Track
-----                                                           ------  ------- --------------  --------------  ------- ------- ------------------                        ---------------------
00002.MPLS                                                      MPEG-2  0:04:06 953,702,400     14,198,437,996  31.00   24.93   LPCM 2.0 4608Kbps (96kHz/24-bit)

Код:
DISC INFO:
Disc Label:     Franziska Hirzel & Tobias Schabenberger - Lieder der Maria Stuart.2016
Disc Size:      14,198,437,996 bytes
Protection:     AACS
BDInfo:         0.7.5.5
PLAYLIST REPORT:
Name:                   00002.MPLS
Length:                 0:04:06.120 (h:m:s.ms)
Size:                   953,702,400 bytes
Total Bitrate:          31.00 Mbps
VIDEO:
Codec                   Bitrate             Description
-----                   -------             -----------
MPEG-2 Video            24928 kbps          1080p / 23.976 fps / 16:9
AUDIO:
Codec                           Language        Bitrate         Description
-----                           --------        -------         -----------
LPCM Audio                      Undetermined    4608 kbps       2.0 / 96 kHz /  4608 kbps / 24-bit
FILES:
Name            Time In         Length          Size            Total Bitrate
----            -------         ------          ----            -------------
00002.M2TS      0:00:00.000     0:04:06.120     953,702,400     30,999
CHAPTERS:
Number          Time In         Length          Avg Video Rate  Max 1-Sec Rate  Max 1-Sec Time  Max 5-Sec Rate  Max 5-Sec Time  Max 10Sec Rate  Max 10Sec Time  Avg Frame Size  Max Frame Size  Max Frame Time
------          -------         ------          --------------  --------------  --------------  --------------  --------------  --------------  --------------  --------------  --------------  --------------
1               0:00:00.000     0:04:06.120     24,928 kbps     27,663 kbps     00:00:13.847    26,136 kbps     00:00:11.761    25,907 kbps     00:00:07.507    129,964 bytes   501,129 bytes   00:01:58.409
STREAM DIAGNOSTICS:
File            PID             Type            Codec           Language                Seconds                 Bitrate                 Bytes           Packets
----            ---             ----            -----           --------                --------------          --------------          -------------   -----
00002.M2TS      4113 (0x1011)   0x02            MPEG-2                                  245.996                 24,941                  766,919,770     4,171,462
00002.M2TS      4352 (0x1100)   0x80            LPCM            und (Undetermined)      245.996                 4,616                   141,940,676     787,466


QUICK SUMMARY:
Disc Label: Franziska Hirzel & Tobias Schabenberger - Lieder der Maria Stuart.2016
Disc Size: 14,198,437,996 bytes
Protection: AACS
Playlist: 00002.MPLS
Size: 953,702,400 bytes
Length: 0:04:06.120
Total Bitrate: 31.00 Mbps
Video: MPEG-2 Video / 24928 kbps / 1080p / 23.976 fps / 16:9
Audio: Undetermined / LPCM Audio / 2.0 / 96 kHz /  4608 kbps / 24-bit
********************
PLAYLIST: 00009.MPLS
********************

Код:

                                                                                Total   Video
Title                                                           Codec   Length  Movie Size      Disc Size       Bitrate Bitrate Main Audio Track                          Secondary Audio Track
-----                                                           ------  ------- --------------  --------------  ------- ------- ------------------                        ---------------------
00009.MPLS                                                      MPEG-2  0:03:48 880,496,640     14,198,437,996  30.87   24.80   LPCM 2.0 4608Kbps (96kHz/24-bit)

Код:
DISC INFO:
Disc Label:     Franziska Hirzel & Tobias Schabenberger - Lieder der Maria Stuart.2016
Disc Size:      14,198,437,996 bytes
Protection:     AACS
BDInfo:         0.7.5.5
PLAYLIST REPORT:
Name:                   00009.MPLS
Length:                 0:03:48.186 (h:m:s.ms)
Size:                   880,496,640 bytes
Total Bitrate:          30.87 Mbps
VIDEO:
Codec                   Bitrate             Description
-----                   -------             -----------
MPEG-2 Video            24803 kbps          1080p / 23.976 fps / 16:9
AUDIO:
Codec                           Language        Bitrate         Description
-----                           --------        -------         -----------
LPCM Audio                      Undetermined    4608 kbps       2.0 / 96 kHz /  4608 kbps / 24-bit
FILES:
Name            Time In         Length          Size            Total Bitrate
----            -------         ------          ----            -------------
00009.M2TS      0:00:00.000     0:03:48.186     880,496,640     30,869
CHAPTERS:
Number          Time In         Length          Avg Video Rate  Max 1-Sec Rate  Max 1-Sec Time  Max 5-Sec Rate  Max 5-Sec Time  Max 10Sec Rate  Max 10Sec Time  Avg Frame Size  Max Frame Size  Max Frame Time
------          -------         ------          --------------  --------------  --------------  --------------  --------------  --------------  --------------  --------------  --------------  --------------
1               0:00:00.000     0:03:48.186     24,803 kbps     27,743 kbps     00:00:02.669    26,193 kbps     00:00:02.669    26,086 kbps     00:00:02.669    129,311 bytes   515,992 bytes   00:03:37.508
STREAM DIAGNOSTICS:
File            PID             Type            Codec           Language                Seconds                 Bitrate                 Bytes           Packets
----            ---             ----            -----           --------                --------------          --------------          -------------   -----
00009.M2TS      4113 (0x1011)   0x02            MPEG-2                                  228.103                 24,812                  707,460,359     3,848,084
00009.M2TS      4352 (0x1100)   0x80            LPCM            und (Undetermined)      228.103                 4,616                   131,614,990     730,181


QUICK SUMMARY:
Disc Label: Franziska Hirzel & Tobias Schabenberger - Lieder der Maria Stuart.2016
Disc Size: 14,198,437,996 bytes
Protection: AACS
Playlist: 00009.MPLS
Size: 880,496,640 bytes
Length: 0:03:48.186
Total Bitrate: 30.87 Mbps
Video: MPEG-2 Video / 24803 kbps / 1080p / 23.976 fps / 16:9
Audio: Undetermined / LPCM Audio / 2.0 / 96 kHz /  4608 kbps / 24-bit
********************
PLAYLIST: 00016.MPLS
********************

Код:

                                                                                Total   Video
Title                                                           Codec   Length  Movie Size      Disc Size       Bitrate Bitrate Main Audio Track                          Secondary Audio Track
-----                                                           ------  ------- --------------  --------------  ------- ------- ------------------                        ---------------------
00016.MPLS                                                      MPEG-2  0:03:44 868,399,104     14,198,437,996  30.93   24.86   LPCM 2.0 4608Kbps (96kHz/24-bit)

Код:
DISC INFO:
Disc Label:     Franziska Hirzel & Tobias Schabenberger - Lieder der Maria Stuart.2016
Disc Size:      14,198,437,996 bytes
Protection:     AACS
BDInfo:         0.7.5.5
PLAYLIST REPORT:
Name:                   00016.MPLS
Length:                 0:03:44.599 (h:m:s.ms)
Size:                   868,399,104 bytes
Total Bitrate:          30.93 Mbps
VIDEO:
Codec                   Bitrate             Description
-----                   -------             -----------
MPEG-2 Video            24863 kbps          1080p / 23.976 fps / 16:9
AUDIO:
Codec                           Language        Bitrate         Description
-----                           --------        -------         -----------
LPCM Audio                      Undetermined    4608 kbps       2.0 / 96 kHz /  4608 kbps / 24-bit
FILES:
Name            Time In         Length          Size            Total Bitrate
----            -------         ------          ----            -------------
00016.M2TS      0:00:00.000     0:03:44.599     868,399,104     30,931
CHAPTERS:
Number          Time In         Length          Avg Video Rate  Max 1-Sec Rate  Max 1-Sec Time  Max 5-Sec Rate  Max 5-Sec Time  Max 10Sec Rate  Max 10Sec Time  Avg Frame Size  Max Frame Size  Max Frame Time
------          -------         ------          --------------  --------------  --------------  --------------  --------------  --------------  --------------  --------------  --------------  --------------
1               0:00:00.000     0:03:44.599     24,863 kbps     27,390 kbps     00:00:09.801    26,929 kbps     00:00:07.882    26,499 kbps     00:00:07.674    129,623 bytes   525,417 bytes   00:01:52.904
STREAM DIAGNOSTICS:
File            PID             Type            Codec           Language                Seconds                 Bitrate                 Bytes           Packets
----            ---             ----            -----           --------                --------------          --------------          -------------   -----
00016.M2TS      4113 (0x1011)   0x02            MPEG-2                                  224.474                 24,877                  698,019,402     3,796,699
00016.M2TS      4352 (0x1100)   0x80            LPCM            und (Undetermined)      224.474                 4,617                   129,537,744     718,656


QUICK SUMMARY:
Disc Label: Franziska Hirzel & Tobias Schabenberger - Lieder der Maria Stuart.2016
Disc Size: 14,198,437,996 bytes
Protection: AACS
Playlist: 00016.MPLS
Size: 868,399,104 bytes
Length: 0:03:44.599
Total Bitrate: 30.93 Mbps
Video: MPEG-2 Video / 24863 kbps / 1080p / 23.976 fps / 16:9
Audio: Undetermined / LPCM Audio / 2.0 / 96 kHz /  4608 kbps / 24-bit
********************
PLAYLIST: 00003.MPLS
********************

Код:

                                                                                Total   Video
Title                                                           Codec   Length  Movie Size      Disc Size       Bitrate Bitrate Main Audio Track                          Secondary Audio Track
-----                                                           ------  ------- --------------  --------------  ------- ------- ------------------                        ---------------------
00003.MPLS                                                      MPEG-2  0:03:29 801,878,016     14,198,437,996  30.64   24.58   LPCM 2.0 4608Kbps (96kHz/24-bit)

Код:
DISC INFO:
Disc Label:     Franziska Hirzel & Tobias Schabenberger - Lieder der Maria Stuart.2016
Disc Size:      14,198,437,996 bytes
Protection:     AACS
BDInfo:         0.7.5.5
PLAYLIST REPORT:
Name:                   00003.MPLS
Length:                 0:03:29.375 (h:m:s.ms)
Size:                   801,878,016 bytes
Total Bitrate:          30.64 Mbps
VIDEO:
Codec                   Bitrate             Description
-----                   -------             -----------
MPEG-2 Video            24582 kbps          1080p / 23.976 fps / 16:9
AUDIO:
Codec                           Language        Bitrate         Description
-----                           --------        -------         -----------
LPCM Audio                      Undetermined    4608 kbps       2.0 / 96 kHz /  4608 kbps / 24-bit
FILES:
Name            Time In         Length          Size            Total Bitrate
----            -------         ------          ----            -------------
00003.M2TS      0:00:00.000     0:03:29.375     801,878,016     30,639
CHAPTERS:
Number          Time In         Length          Avg Video Rate  Max 1-Sec Rate  Max 1-Sec Time  Max 5-Sec Rate  Max 5-Sec Time  Max 10Sec Rate  Max 10Sec Time  Avg Frame Size  Max Frame Size  Max Frame Time
------          -------         ------          --------------  --------------  --------------  --------------  --------------  --------------  --------------  --------------  --------------  --------------
1               0:00:00.000     0:03:29.375     24,582 kbps     28,323 kbps     00:00:15.765    27,583 kbps     00:00:13.888    27,234 kbps     00:00:12.262    128,160 bytes   528,643 bytes   00:02:25.687
STREAM DIAGNOSTICS:
File            PID             Type            Codec           Language                Seconds                 Bitrate                 Bytes           Packets
----            ---             ----            -----           --------                --------------          --------------          -------------   -----
00003.M2TS      4113 (0x1011)   0x02            MPEG-2                                  209.209                 24,602                  643,363,048     3,499,453
00003.M2TS      4352 (0x1100)   0x80            LPCM            und (Undetermined)      209.209                 4,618                   120,761,922     669,970


QUICK SUMMARY:
Disc Label: Franziska Hirzel & Tobias Schabenberger - Lieder der Maria Stuart.2016
Disc Size: 14,198,437,996 bytes
Protection: AACS
Playlist: 00003.MPLS
Size: 801,878,016 bytes
Length: 0:03:29.375
Total Bitrate: 30.64 Mbps
Video: MPEG-2 Video / 24582 kbps / 1080p / 23.976 fps / 16:9
Audio: Undetermined / LPCM Audio / 2.0 / 96 kHz /  4608 kbps / 24-bit
********************
PLAYLIST: 00004.MPLS
********************

Код:

                                                                                Total   Video
Title                                                           Codec   Length  Movie Size      Disc Size       Bitrate Bitrate Main Audio Track                          Secondary Audio Track
-----                                                           ------  ------- --------------  --------------  ------- ------- ------------------                        ---------------------
00004.MPLS                                                      MPEG-2  0:02:52 667,054,080     14,198,437,996  30.85   24.79   LPCM 2.0 4608Kbps (96kHz/24-bit)

Код:
DISC INFO:
Disc Label:     Franziska Hirzel & Tobias Schabenberger - Lieder der Maria Stuart.2016
Disc Size:      14,198,437,996 bytes
Protection:     AACS
BDInfo:         0.7.5.5
PLAYLIST REPORT:
Name:                   00004.MPLS
Length:                 0:02:52.964 (h:m:s.ms)
Size:                   667,054,080 bytes
Total Bitrate:          30.85 Mbps
VIDEO:
Codec                   Bitrate             Description
-----                   -------             -----------
MPEG-2 Video            24787 kbps          1080p / 23.976 fps / 16:9
AUDIO:
Codec                           Language        Bitrate         Description
-----                           --------        -------         -----------
LPCM Audio                      Undetermined    4608 kbps       2.0 / 96 kHz /  4608 kbps / 24-bit
FILES:
Name            Time In         Length          Size            Total Bitrate
----            -------         ------          ----            -------------
00004.M2TS      0:00:00.000     0:02:52.964     667,054,080     30,853
CHAPTERS:
Number          Time In         Length          Avg Video Rate  Max 1-Sec Rate  Max 1-Sec Time  Max 5-Sec Rate  Max 5-Sec Time  Max 10Sec Rate  Max 10Sec Time  Avg Frame Size  Max Frame Size  Max Frame Time
------          -------         ------          --------------  --------------  --------------  --------------  --------------  --------------  --------------  --------------  --------------  --------------
1               0:00:00.000     0:02:52.964     24,787 kbps     27,825 kbps     00:00:11.177    27,287 kbps     00:00:08.508    26,557 kbps     00:00:05.505    129,230 bytes   559,715 bytes   00:01:13.865
STREAM DIAGNOSTICS:
File            PID             Type            Codec           Language                Seconds                 Bitrate                 Bytes           Packets
----            ---             ----            -----           --------                --------------          --------------          -------------   -----
00004.M2TS      4113 (0x1011)   0x02            MPEG-2                                  172.798                 24,811                  535,916,532     2,914,997
00004.M2TS      4352 (0x1100)   0x80            LPCM            und (Undetermined)      172.798                 4,618                   99,753,308      553,417


QUICK SUMMARY:
Disc Label: Franziska Hirzel & Tobias Schabenberger - Lieder der Maria Stuart.2016
Disc Size: 14,198,437,996 bytes
Protection: AACS
Playlist: 00004.MPLS
Size: 667,054,080 bytes
Length: 0:02:52.964
Total Bitrate: 30.85 Mbps
Video: MPEG-2 Video / 24787 kbps / 1080p / 23.976 fps / 16:9
Audio: Undetermined / LPCM Audio / 2.0 / 96 kHz /  4608 kbps / 24-bit
********************
PLAYLIST: 00020.MPLS
********************

Код:

                                                                                Total   Video
Title                                                           Codec   Length  Movie Size      Disc Size       Bitrate Bitrate Main Audio Track                          Secondary Audio Track
-----                                                           ------  ------- --------------  --------------  ------- ------- ------------------                        ---------------------
00020.MPLS                                                      MPEG-2  0:02:36 601,171,968     14,198,437,996  30.79   24.73   LPCM 2.0 4608Kbps (96kHz/24-bit)

Код:
DISC INFO:
Disc Label:     Franziska Hirzel & Tobias Schabenberger - Lieder der Maria Stuart.2016
Disc Size:      14,198,437,996 bytes
Protection:     AACS
BDInfo:         0.7.5.5
PLAYLIST REPORT:
Name:                   00020.MPLS
Length:                 0:02:36.197 (h:m:s.ms)
Size:                   601,171,968 bytes
Total Bitrate:          30.79 Mbps
VIDEO:
Codec                   Bitrate             Description
-----                   -------             -----------
MPEG-2 Video            24728 kbps          1080p / 23.976 fps / 16:9
AUDIO:
Codec                           Language        Bitrate         Description
-----                           --------        -------         -----------
LPCM Audio                      Undetermined    4608 kbps       2.0 / 96 kHz /  4608 kbps / 24-bit
FILES:
Name            Time In         Length          Size            Total Bitrate
----            -------         ------          ----            -------------
00020.M2TS      0:00:00.000     0:02:36.197     601,171,968     30,790
CHAPTERS:
Number          Time In         Length          Avg Video Rate  Max 1-Sec Rate  Max 1-Sec Time  Max 5-Sec Rate  Max 5-Sec Time  Max 10Sec Rate  Max 10Sec Time  Avg Frame Size  Max Frame Size  Max Frame Time
------          -------         ------          --------------  --------------  --------------  --------------  --------------  --------------  --------------  --------------  --------------  --------------
1               0:00:00.000     0:02:36.197     24,728 kbps     26,879 kbps     00:00:05.880    26,022 kbps     00:00:11.678    25,778 kbps     00:00:11.261    128,919 bytes   504,881 bytes   00:00:58.349
STREAM DIAGNOSTICS:
File            PID             Type            Codec           Language                Seconds                 Bitrate                 Bytes           Packets
----            ---             ----            -----           --------                --------------          --------------          -------------   -----
00020.M2TS      4113 (0x1011)   0x02            MPEG-2                                  156.031                 24,754                  482,801,696     2,626,130
00020.M2TS      4352 (0x1100)   0x80            LPCM            und (Undetermined)      156.031                 4,618                   90,073,088      499,712


QUICK SUMMARY:
Disc Label: Franziska Hirzel & Tobias Schabenberger - Lieder der Maria Stuart.2016
Disc Size: 14,198,437,996 bytes
Protection: AACS
Playlist: 00020.MPLS
Size: 601,171,968 bytes
Length: 0:02:36.197
Total Bitrate: 30.79 Mbps
Video: MPEG-2 Video / 24728 kbps / 1080p / 23.976 fps / 16:9
Audio: Undetermined / LPCM Audio / 2.0 / 96 kHz /  4608 kbps / 24-bit
********************
PLAYLIST: 00011.MPLS
********************

Код:

                                                                                Total   Video
Title                                                           Codec   Length  Movie Size      Disc Size       Bitrate Bitrate Main Audio Track                          Secondary Audio Track
-----                                                           ------  ------- --------------  --------------  ------- ------- ------------------                        ---------------------
00011.MPLS                                                      MPEG-2  0:02:32 588,515,328     14,198,437,996  30.80   24.74   LPCM 2.0 4608Kbps (96kHz/24-bit)

Код:
DISC INFO:
Disc Label:     Franziska Hirzel & Tobias Schabenberger - Lieder der Maria Stuart.2016
Disc Size:      14,198,437,996 bytes
Protection:     AACS
BDInfo:         0.7.5.5
PLAYLIST REPORT:
Name:                   00011.MPLS
Length:                 0:02:32.861 (h:m:s.ms)
Size:                   588,515,328 bytes
Total Bitrate:          30.80 Mbps
VIDEO:
Codec                   Bitrate             Description
-----                   -------             -----------
MPEG-2 Video            24738 kbps          1080p / 23.976 fps / 16:9
AUDIO:
Codec                           Language        Bitrate         Description
-----                           --------        -------         -----------
LPCM Audio                      Undetermined    4608 kbps       2.0 / 96 kHz /  4608 kbps / 24-bit
FILES:
Name            Time In         Length          Size            Total Bitrate
----            -------         ------          ----            -------------
00011.M2TS      0:00:00.000     0:02:32.861     588,515,328     30,800
CHAPTERS:
Number          Time In         Length          Avg Video Rate  Max 1-Sec Rate  Max 1-Sec Time  Max 5-Sec Rate  Max 5-Sec Time  Max 10Sec Rate  Max 10Sec Time  Avg Frame Size  Max Frame Size  Max Frame Time
------          -------         ------          --------------  --------------  --------------  --------------  --------------  --------------  --------------  --------------  --------------  --------------
1               0:00:00.000     0:02:32.861     24,738 kbps     27,669 kbps     00:00:55.430    26,215 kbps     00:00:07.382    25,729 kbps     00:00:02.669    128,970 bytes   523,535 bytes   00:01:34.385
STREAM DIAGNOSTICS:
File            PID             Type            Codec           Language                Seconds                 Bitrate                 Bytes           Packets
----            ---             ----            -----           --------                --------------          --------------          -------------   -----
00011.M2TS      4113 (0x1011)   0x02            MPEG-2                                  152.778                 24,751                  472,676,302     2,571,013
00011.M2TS      4352 (0x1100)   0x80            LPCM            und (Undetermined)      152.778                 4,616                   88,146,576      489,024


QUICK SUMMARY:
Disc Label: Franziska Hirzel & Tobias Schabenberger - Lieder der Maria Stuart.2016
Disc Size: 14,198,437,996 bytes
Protection: AACS
Playlist: 00011.MPLS
Size: 588,515,328 bytes
Length: 0:02:32.861
Total Bitrate: 30.80 Mbps
Video: MPEG-2 Video / 24738 kbps / 1080p / 23.976 fps / 16:9
Audio: Undetermined / LPCM Audio / 2.0 / 96 kHz /  4608 kbps / 24-bit
********************
PLAYLIST: 00010.MPLS
********************

Код:

                                                                                Total   Video
Title                                                           Codec   Length  Movie Size      Disc Size       Bitrate Bitrate Main Audio Track                          Secondary Audio Track
-----                                                           ------  ------- --------------  --------------  ------- ------- ------------------                        ---------------------
00010.MPLS                                                      MPEG-2  0:02:29 573,474,816     14,198,437,996  30.67   24.62   LPCM 2.0 4608Kbps (96kHz/24-bit)

Код:
DISC INFO:
Disc Label:     Franziska Hirzel & Tobias Schabenberger - Lieder der Maria Stuart.2016
Disc Size:      14,198,437,996 bytes
Protection:     AACS
BDInfo:         0.7.5.5
PLAYLIST REPORT:
Name:                   00010.MPLS
Length:                 0:02:29.566 (h:m:s.ms)
Size:                   573,474,816 bytes
Total Bitrate:          30.67 Mbps
VIDEO:
Codec                   Bitrate             Description
-----                   -------             -----------
MPEG-2 Video            24616 kbps          1080p / 23.976 fps / 16:9
AUDIO:
Codec                           Language        Bitrate         Description
-----                           --------        -------         -----------
LPCM Audio                      Undetermined    4608 kbps       2.0 / 96 kHz /  4608 kbps / 24-bit
FILES:
Name            Time In         Length          Size            Total Bitrate
----            -------         ------          ----            -------------
00010.M2TS      0:00:00.000     0:02:29.566     573,474,816     30,674
CHAPTERS:
Number          Time In         Length          Avg Video Rate  Max 1-Sec Rate  Max 1-Sec Time  Max 5-Sec Rate  Max 5-Sec Time  Max 10Sec Rate  Max 10Sec Time  Avg Frame Size  Max Frame Size  Max Frame Time
------          -------         ------          --------------  --------------  --------------  --------------  --------------  --------------  --------------  --------------  --------------  --------------
1               0:00:00.000     0:02:29.566     24,616 kbps     27,975 kbps     00:00:08.883    26,783 kbps     00:00:08.008    26,420 kbps     00:00:08.008    128,338 bytes   533,519 bytes   00:01:55.406
STREAM DIAGNOSTICS:
File            PID             Type            Codec           Language                Seconds                 Bitrate                 Bytes           Packets
----            ---             ----            -----           --------                --------------          --------------          -------------   -----
00010.M2TS      4113 (0x1011)   0x02            MPEG-2                                  149.399                 24,644                  460,219,025     2,503,283
00010.M2TS      4352 (0x1100)   0x80            LPCM            und (Undetermined)      149.399                 4,619                   86,254,672      478,528


QUICK SUMMARY:
Disc Label: Franziska Hirzel & Tobias Schabenberger - Lieder der Maria Stuart.2016
Disc Size: 14,198,437,996 bytes
Protection: AACS
Playlist: 00010.MPLS
Size: 573,474,816 bytes
Length: 0:02:29.566
Total Bitrate: 30.67 Mbps
Video: MPEG-2 Video / 24616 kbps / 1080p / 23.976 fps / 16:9
Audio: Undetermined / LPCM Audio / 2.0 / 96 kHz /  4608 kbps / 24-bit
********************
PLAYLIST: 00017.MPLS
********************

Код:

                                                                                Total   Video
Title                                                           Codec   Length  Movie Size      Disc Size       Bitrate Bitrate Main Audio Track                          Secondary Audio Track
-----                                                           ------  ------- --------------  --------------  ------- ------- ------------------                        ---------------------
00017.MPLS                                                      MPEG-2  0:02:29 579,035,136     14,198,437,996  30.99   24.92   LPCM 2.0 4608Kbps (96kHz/24-bit)

Код:
DISC INFO:
Disc Label:     Franziska Hirzel & Tobias Schabenberger - Lieder der Maria Stuart.2016
Disc Size:      14,198,437,996 bytes
Protection:     AACS
BDInfo:         0.7.5.5
PLAYLIST REPORT:
Name:                   00017.MPLS
Length:                 0:02:29.482 (h:m:s.ms)
Size:                   579,035,136 bytes
Total Bitrate:          30.99 Mbps
VIDEO:
Codec                   Bitrate             Description
-----                   -------             -----------
MPEG-2 Video            24918 kbps          1080p / 23.976 fps / 16:9
AUDIO:
Codec                           Language        Bitrate         Description
-----                           --------        -------         -----------
LPCM Audio                      Undetermined    4608 kbps       2.0 / 96 kHz /  4608 kbps / 24-bit
FILES:
Name            Time In         Length          Size            Total Bitrate
----            -------         ------          ----            -------------
00017.M2TS      0:00:00.000     0:02:29.482     579,035,136     30,989
CHAPTERS:
Number          Time In         Length          Avg Video Rate  Max 1-Sec Rate  Max 1-Sec Time  Max 5-Sec Rate  Max 5-Sec Time  Max 10Sec Rate  Max 10Sec Time  Avg Frame Size  Max Frame Size  Max Frame Time
------          -------         ------          --------------  --------------  --------------  --------------  --------------  --------------  --------------  --------------  --------------  --------------
1               0:00:00.000     0:02:29.482     24,918 kbps     26,815 kbps     00:00:02.669    25,882 kbps     00:00:02.669    25,766 kbps     00:00:02.669    129,909 bytes   490,841 bytes   00:00:02.794
STREAM DIAGNOSTICS:
File            PID             Type            Codec           Language                Seconds                 Bitrate                 Bytes           Packets
----            ---             ----            -----           --------                --------------          --------------          -------------   -----
00017.M2TS      4113 (0x1011)   0x02            MPEG-2                                  149.399                 24,931                  465,592,653     2,532,500
00017.M2TS      4352 (0x1100)   0x80            LPCM            und (Undetermined)      149.399                 4,616                   86,208,522      478,272


QUICK SUMMARY:
Disc Label: Franziska Hirzel & Tobias Schabenberger - Lieder der Maria Stuart.2016
Disc Size: 14,198,437,996 bytes
Protection: AACS
Playlist: 00017.MPLS
Size: 579,035,136 bytes
Length: 0:02:29.482
Total Bitrate: 30.99 Mbps
Video: MPEG-2 Video / 24918 kbps / 1080p / 23.976 fps / 16:9
Audio: Undetermined / LPCM Audio / 2.0 / 96 kHz /  4608 kbps / 24-bit
********************
PLAYLIST: 00006.MPLS
********************

Код:

                                                                                Total   Video
Title                                                           Codec   Length  Movie Size      Disc Size       Bitrate Bitrate Main Audio Track                          Secondary Audio Track
-----                                                           ------  ------- --------------  --------------  ------- ------- ------------------                        ---------------------
00006.MPLS                                                      MPEG-2  0:02:17 529,035,264     14,198,437,996  30.84   24.78   LPCM 2.0 4608Kbps (96kHz/24-bit)

Код:
DISC INFO:
Disc Label:     Franziska Hirzel & Tobias Schabenberger - Lieder der Maria Stuart.2016
Disc Size:      14,198,437,996 bytes
Protection:     AACS
BDInfo:         0.7.5.5
PLAYLIST REPORT:
Name:                   00006.MPLS
Length:                 0:02:17.220 (h:m:s.ms)
Size:                   529,035,264 bytes
Total Bitrate:          30.84 Mbps
VIDEO:
Codec                   Bitrate             Description
-----                   -------             -----------
MPEG-2 Video            24779 kbps          1080p / 23.976 fps / 16:9
AUDIO:
Codec                           Language        Bitrate         Description
-----                           --------        -------         -----------
LPCM Audio                      Undetermined    4608 kbps       2.0 / 96 kHz /  4608 kbps / 24-bit
FILES:
Name            Time In         Length          Size            Total Bitrate
----            -------         ------          ----            -------------
00006.M2TS      0:00:00.000     0:02:17.220     529,035,264     30,843
CHAPTERS:
Number          Time In         Length          Avg Video Rate  Max 1-Sec Rate  Max 1-Sec Time  Max 5-Sec Rate  Max 5-Sec Time  Max 10Sec Rate  Max 10Sec Time  Avg Frame Size  Max Frame Size  Max Frame Time
------          -------         ------          --------------  --------------  --------------  --------------  --------------  --------------  --------------  --------------  --------------  --------------
1               0:00:00.000     0:02:17.220     24,779 kbps     27,556 kbps     00:00:11.803    27,217 kbps     00:00:11.261    26,869 kbps     00:00:08.174    129,186 bytes   531,096 bytes   00:01:17.368
STREAM DIAGNOSTICS:
File            PID             Type            Codec           Language                Seconds                 Bitrate                 Bytes           Packets
----            ---             ----            -----           --------                --------------          --------------          -------------   -----
00006.M2TS      4113 (0x1011)   0x02            MPEG-2                                  137.137                 24,794                  425,022,827     2,311,809
00006.M2TS      4352 (0x1100)   0x80            LPCM            und (Undetermined)      137.137                 4,616                   79,125,424      438,976


QUICK SUMMARY:
Disc Label: Franziska Hirzel & Tobias Schabenberger - Lieder der Maria Stuart.2016
Disc Size: 14,198,437,996 bytes
Protection: AACS
Playlist: 00006.MPLS
Size: 529,035,264 bytes
Length: 0:02:17.220
Total Bitrate: 30.84 Mbps
Video: MPEG-2 Video / 24779 kbps / 1080p / 23.976 fps / 16:9
Audio: Undetermined / LPCM Audio / 2.0 / 96 kHz /  4608 kbps / 24-bit
********************
PLAYLIST: 00007.MPLS
********************

Код:

                                                                                Total   Video
Title                                                           Codec   Length  Movie Size      Disc Size       Bitrate Bitrate Main Audio Track                          Secondary Audio Track
-----                                                           ------  ------- --------------  --------------  ------- ------- ------------------                        ---------------------
00007.MPLS                                                      MPEG-2  0:02:11 507,469,824     14,198,437,996  30.80   24.54   LPCM 2.0 4608Kbps (96kHz/24-bit)

Код:
DISC INFO:
Disc Label:     Franziska Hirzel & Tobias Schabenberger - Lieder der Maria Stuart.2016
Disc Size:      14,198,437,996 bytes
Protection:     AACS
BDInfo:         0.7.5.5
PLAYLIST REPORT:
Name:                   00007.MPLS
Length:                 0:02:11.798 (h:m:s.ms)
Size:                   507,469,824 bytes
Total Bitrate:          30.80 Mbps
VIDEO:
Codec                   Bitrate             Description
-----                   -------             -----------
MPEG-2 Video            24545 kbps          1080p / 23.976 fps / 16:9
AUDIO:
Codec                           Language        Bitrate         Description
-----                           --------        -------         -----------
LPCM Audio                      Undetermined    4608 kbps       2.0 / 96 kHz /  4608 kbps / 24-bit
FILES:
Name            Time In         Length          Size            Total Bitrate
----            -------         ------          ----            -------------
00007.M2TS      0:00:00.000     0:02:11.798     507,469,824     30,803
CHAPTERS:
Number          Time In         Length          Avg Video Rate  Max 1-Sec Rate  Max 1-Sec Time  Max 5-Sec Rate  Max 5-Sec Time  Max 10Sec Rate  Max 10Sec Time  Avg Frame Size  Max Frame Size  Max Frame Time
------          -------         ------          --------------  --------------  --------------  --------------  --------------  --------------  --------------  --------------  --------------  --------------
1               0:00:00.000     0:02:11.798     24,545 kbps     27,976 kbps     00:00:07.549    26,491 kbps     00:00:08.008    26,341 kbps     00:00:03.670    127,964 bytes   522,722 bytes   00:01:56.407
STREAM DIAGNOSTICS:
File            PID             Type            Codec           Language                Seconds                 Bitrate                 Bytes           Packets
----            ---             ----            -----           --------                --------------          --------------          -------------   -----
00007.M2TS      4113 (0x1011)   0x02            MPEG-2                                  131.632                 24,576                  404,365,897     2,199,477
00007.M2TS      4352 (0x1100)   0x80            LPCM            und (Undetermined)      131.632                 4,809                   79,125,424      438,976


QUICK SUMMARY:
Disc Label: Franziska Hirzel & Tobias Schabenberger - Lieder der Maria Stuart.2016
Disc Size: 14,198,437,996 bytes
Protection: AACS
Playlist: 00007.MPLS
Size: 507,469,824 bytes
Length: 0:02:11.798
Total Bitrate: 30.80 Mbps
Video: MPEG-2 Video / 24545 kbps / 1080p / 23.976 fps / 16:9
Audio: Undetermined / LPCM Audio / 2.0 / 96 kHz /  4608 kbps / 24-bit
********************
PLAYLIST: 00005.MPLS
********************

Код:

                                                                                Total   Video
Title                                                           Codec   Length  Movie Size      Disc Size       Bitrate Bitrate Main Audio Track                          Secondary Audio Track
-----                                                           ------  ------- --------------  --------------  ------- ------- ------------------                        ---------------------
00005.MPLS                                                      MPEG-2  0:01:55 447,412,224     14,198,437,996  30.95   24.88   LPCM 2.0 4608Kbps (96kHz/24-bit)

Код:
DISC INFO:
Disc Label:     Franziska Hirzel & Tobias Schabenberger - Lieder der Maria Stuart.2016
Disc Size:      14,198,437,996 bytes
Protection:     AACS
BDInfo:         0.7.5.5
PLAYLIST REPORT:
Name:                   00005.MPLS
Length:                 0:01:55.657 (h:m:s.ms)
Size:                   447,412,224 bytes
Total Bitrate:          30.95 Mbps
VIDEO:
Codec                   Bitrate             Description
-----                   -------             -----------
MPEG-2 Video            24878 kbps          1080p / 23.976 fps / 16:9
AUDIO:
Codec                           Language        Bitrate         Description
-----                           --------        -------         -----------
LPCM Audio                      Undetermined    4608 kbps       2.0 / 96 kHz /  4608 kbps / 24-bit
FILES:
Name            Time In         Length          Size            Total Bitrate
----            -------         ------          ----            -------------
00005.M2TS      0:00:00.000     0:01:55.657     447,412,224     30,947
CHAPTERS:
Number          Time In         Length          Avg Video Rate  Max 1-Sec Rate  Max 1-Sec Time  Max 5-Sec Rate  Max 5-Sec Time  Max 10Sec Rate  Max 10Sec Time  Avg Frame Size  Max Frame Size  Max Frame Time
------          -------         ------          --------------  --------------  --------------  --------------  --------------  --------------  --------------  --------------  --------------  --------------
1               0:00:00.000     0:01:55.657     24,878 kbps     27,881 kbps     00:00:03.294    26,877 kbps     00:00:03.294    26,585 kbps     00:00:03.294    129,705 bytes   510,872 bytes   00:01:31.007
STREAM DIAGNOSTICS:
File            PID             Type            Codec           Language                Seconds                 Bitrate                 Bytes           Packets
----            ---             ----            -----           --------                --------------          --------------          -------------   -----
00005.M2TS      4113 (0x1011)   0x02            MPEG-2                                  115.490                 24,914                  359,671,030     1,956,336
00005.M2TS      4352 (0x1100)   0x80            LPCM            und (Undetermined)      115.490                 4,620                   66,701,152      370,048


QUICK SUMMARY:
Disc Label: Franziska Hirzel & Tobias Schabenberger - Lieder der Maria Stuart.2016
Disc Size: 14,198,437,996 bytes
Protection: AACS
Playlist: 00005.MPLS
Size: 447,412,224 bytes
Length: 0:01:55.657
Total Bitrate: 30.95 Mbps
Video: MPEG-2 Video / 24878 kbps / 1080p / 23.976 fps / 16:9
Audio: Undetermined / LPCM Audio / 2.0 / 96 kHz /  4608 kbps / 24-bit
********************
PLAYLIST: 00014.MPLS
********************

Код:

                                                                                Total   Video
Title                                                           Codec   Length  Movie Size      Disc Size       Bitrate Bitrate Main Audio Track                          Secondary Audio Track
-----                                                           ------  ------- --------------  --------------  ------- ------- ------------------                        ---------------------
00014.MPLS                                                      MPEG-2  0:01:40 387,188,736     14,198,437,996  30.78   24.72   LPCM 2.0 4608Kbps (96kHz/24-bit)

Код:
DISC INFO:
Disc Label:     Franziska Hirzel & Tobias Schabenberger - Lieder der Maria Stuart.2016
Disc Size:      14,198,437,996 bytes
Protection:     AACS
BDInfo:         0.7.5.5
PLAYLIST REPORT:
Name:                   00014.MPLS
Length:                 0:01:40.642 (h:m:s.ms)
Size:                   387,188,736 bytes
Total Bitrate:          30.78 Mbps
VIDEO:
Codec                   Bitrate             Description
-----                   -------             -----------
MPEG-2 Video            24715 kbps          1080p / 23.976 fps / 16:9
AUDIO:
Codec                           Language        Bitrate         Description
-----                           --------        -------         -----------
LPCM Audio                      Undetermined    4608 kbps       2.0 / 96 kHz /  4608 kbps / 24-bit
FILES:
Name            Time In         Length          Size            Total Bitrate
----            -------         ------          ----            -------------
00014.M2TS      0:00:00.000     0:01:40.642     387,188,736     30,777
CHAPTERS:
Number          Time In         Length          Avg Video Rate  Max 1-Sec Rate  Max 1-Sec Time  Max 5-Sec Rate  Max 5-Sec Time  Max 10Sec Rate  Max 10Sec Time  Avg Frame Size  Max Frame Size  Max Frame Time
------          -------         ------          --------------  --------------  --------------  --------------  --------------  --------------  --------------  --------------  --------------  --------------
1               0:00:00.000     0:01:40.642     24,715 kbps     27,372 kbps     00:01:14.199    25,806 kbps     00:00:03.128    25,479 kbps     00:00:02.502    128,853 bytes   479,198 bytes   00:00:01.167
STREAM DIAGNOSTICS:
File            PID             Type            Codec           Language                Seconds                 Bitrate                 Bytes           Packets
----            ---             ----            -----           --------                --------------          --------------          -------------   -----
00014.M2TS      4113 (0x1011)   0x02            MPEG-2                                  100.475                 24,756                  310,922,053     1,691,194
00014.M2TS      4352 (0x1100)   0x80            LPCM            und (Undetermined)      100.475                 4,621                   58,042,994      322,014


QUICK SUMMARY:
Disc Label: Franziska Hirzel & Tobias Schabenberger - Lieder der Maria Stuart.2016
Disc Size: 14,198,437,996 bytes
Protection: AACS
Playlist: 00014.MPLS
Size: 387,188,736 bytes
Length: 0:01:40.642
Total Bitrate: 30.78 Mbps
Video: MPEG-2 Video / 24715 kbps / 1080p / 23.976 fps / 16:9
Audio: Undetermined / LPCM Audio / 2.0 / 96 kHz /  4608 kbps / 24-bit
********************
PLAYLIST: 00019.MPLS
********************

Код:

                                                                                Total   Video
Title                                                           Codec   Length  Movie Size      Disc Size       Bitrate Bitrate Main Audio Track                          Secondary Audio Track
-----                                                           ------  ------- --------------  --------------  ------- ------- ------------------                        ---------------------
00019.MPLS                                                      MPEG-2  0:01:40 387,047,424     14,198,437,996  30.89   24.83   LPCM 2.0 4608Kbps (96kHz/24-bit)

Код:
DISC INFO:
Disc Label:     Franziska Hirzel & Tobias Schabenberger - Lieder der Maria Stuart.2016
Disc Size:      14,198,437,996 bytes
Protection:     AACS
BDInfo:         0.7.5.5
PLAYLIST REPORT:
Name:                   00019.MPLS
Length:                 0:01:40.225 (h:m:s.ms)
Size:                   387,047,424 bytes
Total Bitrate:          30.89 Mbps
VIDEO:
Codec                   Bitrate             Description
-----                   -------             -----------
MPEG-2 Video            24828 kbps          1080p / 23.976 fps / 16:9
AUDIO:
Codec                           Language        Bitrate         Description
-----                           --------        -------         -----------
LPCM Audio                      Undetermined    4608 kbps       2.0 / 96 kHz /  4608 kbps / 24-bit
FILES:
Name            Time In         Length          Size            Total Bitrate
----            -------         ------          ----            -------------
00019.M2TS      0:00:00.000     0:01:40.225     387,047,424     30,894
CHAPTERS:
Number          Time In         Length          Avg Video Rate  Max 1-Sec Rate  Max 1-Sec Time  Max 5-Sec Rate  Max 5-Sec Time  Max 10Sec Rate  Max 10Sec Time  Avg Frame Size  Max Frame Size  Max Frame Time
------          -------         ------          --------------  --------------  --------------  --------------  --------------  --------------  --------------  --------------  --------------  --------------
1               0:00:00.000     0:01:40.225     24,828 kbps     26,932 kbps     00:00:02.669    26,256 kbps     00:00:02.168    26,148 kbps     00:00:02.168    129,440 bytes   477,924 bytes   00:00:02.293
STREAM DIAGNOSTICS:
File            PID             Type            Codec           Language                Seconds                 Bitrate                 Bytes           Packets
----            ---             ----            -----           --------                --------------          --------------          -------------   -----
00019.M2TS      4113 (0x1011)   0x02            MPEG-2                                  100.100                 24,859                  311,043,771     1,691,858
00019.M2TS      4352 (0x1100)   0x80            LPCM            und (Undetermined)      100.100                 4,619                   57,795,934      320,644


QUICK SUMMARY:
Disc Label: Franziska Hirzel & Tobias Schabenberger - Lieder der Maria Stuart.2016
Disc Size: 14,198,437,996 bytes
Protection: AACS
Playlist: 00019.MPLS
Size: 387,047,424 bytes
Length: 0:01:40.225
Total Bitrate: 30.89 Mbps
Video: MPEG-2 Video / 24828 kbps / 1080p / 23.976 fps / 16:9
Audio: Undetermined / LPCM Audio / 2.0 / 96 kHz /  4608 kbps / 24-bit
********************
PLAYLIST: 00015.MPLS
********************

Код:

                                                                                Total   Video
Title                                                           Codec   Length  Movie Size      Disc Size       Bitrate Bitrate Main Audio Track                          Secondary Audio Track
-----                                                           ------  ------- --------------  --------------  ------- ------- ------------------                        ---------------------
00015.MPLS                                                      MPEG-2  0:01:35 366,170,112     14,198,437,996  30.64   24.59   LPCM 2.0 4608Kbps (96kHz/24-bit)

Код:
DISC INFO:
Disc Label:     Franziska Hirzel & Tobias Schabenberger - Lieder der Maria Stuart.2016
Disc Size:      14,198,437,996 bytes
Protection:     AACS
BDInfo:         0.7.5.5
PLAYLIST REPORT:
Name:                   00015.MPLS
Length:                 0:01:35.595 (h:m:s.ms)
Size:                   366,170,112 bytes
Total Bitrate:          30.64 Mbps
VIDEO:
Codec                   Bitrate             Description
-----                   -------             -----------
MPEG-2 Video            24588 kbps          1080p / 23.976 fps / 16:9
AUDIO:
Codec                           Language        Bitrate         Description
-----                           --------        -------         -----------
LPCM Audio                      Undetermined    4608 kbps       2.0 / 96 kHz /  4608 kbps / 24-bit
FILES:
Name            Time In         Length          Size            Total Bitrate
----            -------         ------          ----            -------------
00015.M2TS      0:00:00.000     0:01:35.595     366,170,112     30,643
CHAPTERS:
Number          Time In         Length          Avg Video Rate  Max 1-Sec Rate  Max 1-Sec Time  Max 5-Sec Rate  Max 5-Sec Time  Max 10Sec Rate  Max 10Sec Time  Avg Frame Size  Max Frame Size  Max Frame Time
------          -------         ------          --------------  --------------  --------------  --------------  --------------  --------------  --------------  --------------  --------------  --------------
1               0:00:00.000     0:01:35.595     24,588 kbps     26,731 kbps     00:00:02.168    25,862 kbps     00:00:12.178    25,596 kbps     00:00:09.759    128,190 bytes   494,454 bytes   00:00:55.346
STREAM DIAGNOSTICS:
File            PID             Type            Codec           Language                Seconds                 Bitrate                 Bytes           Packets
----            ---             ----            -----           --------                --------------          --------------          -------------   -----
00015.M2TS      4113 (0x1011)   0x02            MPEG-2                                  95.470                  24,620                  293,812,076     1,598,138
00015.M2TS      4352 (0x1100)   0x80            LPCM            und (Undetermined)      95.470                  4,619                   55,119,008      305,792


QUICK SUMMARY:
Disc Label: Franziska Hirzel & Tobias Schabenberger - Lieder der Maria Stuart.2016
Disc Size: 14,198,437,996 bytes
Protection: AACS
Playlist: 00015.MPLS
Size: 366,170,112 bytes
Length: 0:01:35.595
Total Bitrate: 30.64 Mbps
Video: MPEG-2 Video / 24588 kbps / 1080p / 23.976 fps / 16:9
Audio: Undetermined / LPCM Audio / 2.0 / 96 kHz /  4608 kbps / 24-bit
********************
PLAYLIST: 00012.MPLS
********************

Код:

                                                                                Total   Video
Title                                                           Codec   Length  Movie Size      Disc Size       Bitrate Bitrate Main Audio Track                          Secondary Audio Track
-----                                                           ------  ------- --------------  --------------  ------- ------- ------------------                        ---------------------
00012.MPLS                                                      MPEG-2  0:01:35 367,060,992     14,198,437,996  30.80   24.74   LPCM 2.0 4608Kbps (96kHz/24-bit)

Код:
DISC INFO:
Disc Label:     Franziska Hirzel & Tobias Schabenberger - Lieder der Maria Stuart.2016
Disc Size:      14,198,437,996 bytes
Protection:     AACS
BDInfo:         0.7.5.5
PLAYLIST REPORT:
Name:                   00012.MPLS
Length:                 0:01:35.345 (h:m:s.ms)
Size:                   367,060,992 bytes
Total Bitrate:          30.80 Mbps
VIDEO:
Codec                   Bitrate             Description
-----                   -------             -----------
MPEG-2 Video            24736 kbps          1080p / 23.976 fps / 16:9
AUDIO:
Codec                           Language        Bitrate         Description
-----                           --------        -------         -----------
LPCM Audio                      Undetermined    4608 kbps       2.0 / 96 kHz /  4608 kbps / 24-bit
FILES:
Name            Time In         Length          Size            Total Bitrate
----            -------         ------          ----            -------------
00012.M2TS      0:00:00.000     0:01:35.345     367,060,992     30,798
CHAPTERS:
Number          Time In         Length          Avg Video Rate  Max 1-Sec Rate  Max 1-Sec Time  Max 5-Sec Rate  Max 5-Sec Time  Max 10Sec Rate  Max 10Sec Time  Avg Frame Size  Max Frame Size  Max Frame Time
------          -------         ------          --------------  --------------  --------------  --------------  --------------  --------------  --------------  --------------  --------------  --------------
1               0:00:00.000     0:01:35.345     24,736 kbps     26,353 kbps     00:00:49.299    25,754 kbps     00:00:09.467    25,588 kbps     00:00:04.504    128,962 bytes   524,403 bytes   00:00:01.668
STREAM DIAGNOSTICS:
File            PID             Type            Codec           Language                Seconds                 Bitrate                 Bytes           Packets
----            ---             ----            -----           --------                --------------          --------------          -------------   -----
00012.M2TS      4113 (0x1011)   0x02            MPEG-2                                  95.220                  24,769                  294,808,017     1,603,556
00012.M2TS      4352 (0x1100)   0x80            LPCM            und (Undetermined)      95.220                  4,619                   54,980,576      305,024


QUICK SUMMARY:
Disc Label: Franziska Hirzel & Tobias Schabenberger - Lieder der Maria Stuart.2016
Disc Size: 14,198,437,996 bytes
Protection: AACS
Playlist: 00012.MPLS
Size: 367,060,992 bytes
Length: 0:01:35.345
Total Bitrate: 30.80 Mbps
Video: MPEG-2 Video / 24736 kbps / 1080p / 23.976 fps / 16:9
Audio: Undetermined / LPCM Audio / 2.0 / 96 kHz /  4608 kbps / 24-bit
********************
PLAYLIST: 00013.MPLS
********************

Код:

                                                                                Total   Video
Title                                                           Codec   Length  Movie Size      Disc Size       Bitrate Bitrate Main Audio Track                          Secondary Audio Track
-----                                                           ------  ------- --------------  --------------  ------- ------- ------------------                        ---------------------
00013.MPLS                                                      MPEG-2  0:01:26 331,800,576     14,198,437,996  30.85   24.78   LPCM 2.0 4608Kbps (96kHz/24-bit)

Код:
DISC INFO:
Disc Label:     Franziska Hirzel & Tobias Schabenberger - Lieder der Maria Stuart.2016
Disc Size:      14,198,437,996 bytes
Protection:     AACS
BDInfo:         0.7.5.5
PLAYLIST REPORT:
Name:                   00013.MPLS
Length:                 0:01:26.044 (h:m:s.ms)
Size:                   331,800,576 bytes
Total Bitrate:          30.85 Mbps
VIDEO:
Codec                   Bitrate             Description
-----                   -------             -----------
MPEG-2 Video            24784 kbps          1080p / 23.976 fps / 16:9
AUDIO:
Codec                           Language        Bitrate         Description
-----                           --------        -------         -----------
LPCM Audio                      Undetermined    4608 kbps       2.0 / 96 kHz /  4608 kbps / 24-bit
FILES:
Name            Time In         Length          Size            Total Bitrate
----            -------         ------          ----            -------------
00013.M2TS      0:00:00.000     0:01:26.044     331,800,576     30,849
CHAPTERS:
Number          Time In         Length          Avg Video Rate  Max 1-Sec Rate  Max 1-Sec Time  Max 5-Sec Rate  Max 5-Sec Time  Max 10Sec Rate  Max 10Sec Time  Avg Frame Size  Max Frame Size  Max Frame Time
------          -------         ------          --------------  --------------  --------------  --------------  --------------  --------------  --------------  --------------  --------------  --------------
1               0:00:00.000     0:01:26.044     24,784 kbps     26,406 kbps     00:00:34.784    25,515 kbps     00:01:17.827    25,405 kbps     00:00:10.260    129,214 bytes   497,585 bytes   00:00:01.167
STREAM DIAGNOSTICS:
File            PID             Type            Codec           Language                Seconds                 Bitrate                 Bytes           Packets
----            ---             ----            -----           --------                --------------          --------------          -------------   -----
00013.M2TS      4113 (0x1011)   0x02            MPEG-2                                  85.961                  24,808                  266,567,822     1,449,952
00013.M2TS      4352 (0x1100)   0x80            LPCM            und (Undetermined)      85.961                  4,618                   49,616,336      275,264


QUICK SUMMARY:
Disc Label: Franziska Hirzel & Tobias Schabenberger - Lieder der Maria Stuart.2016
Disc Size: 14,198,437,996 bytes
Protection: AACS
Playlist: 00013.MPLS
Size: 331,800,576 bytes
Length: 0:01:26.044
Total Bitrate: 30.85 Mbps
Video: MPEG-2 Video / 24784 kbps / 1080p / 23.976 fps / 16:9
Audio: Undetermined / LPCM Audio / 2.0 / 96 kHz /  4608 kbps / 24-bit

Скриншот меню



Скриншоты






                                                                                       
                       
                       
                       
                       
                       
                                 磁力下载(论坛代下载服务)
                                                               
                                       
游客,本主题需向作者支付 10金币 才能浏览,金币充值, 免回复、免金币,直接查看内容请开通VIP支付

                                               
  • 13.22 GB
  • 温馨提示

    记得善用社区搜索功能,那里可能会有你想要的资源;论坛站内搜索

    如果你有什么需要的资源可以去资源求档发帖,求助社区的网友,我们会在第一时间给你回复哦;资源求档

    对于本社区网盘链接失效密码错误各种报错请在反馈板块反馈报错发帖,您的支持,是我们发展的最大动力;投诉建议

    回复

    使用道具 举报

    您需要登录后才可以回帖 登录 | 立即注册 微信登录

    本版积分规则

    关注0

    粉丝0

    帖子29130

    发布主题
    阅读排行更多+
    关闭

    站长推荐上一条 /1 下一条

    收藏帖子 返回列表 这是一个自定义按钮
    音乐分享,音乐下载。
    微信公众号
    微信号:maomiyinyue
    意见反馈:admin@maomicd.com

    加入我们的官方QQ群和微信群

    Powered by Discuz! X3.4 Archiver|手机版|小黑屋|猫咪音乐网 ( 苏ICP备20015413号 )|( 苏公网安备 32030502000272号) 繁體

    JS of wanmeiff.com and vcpic.com Please keep this copyright information, respect of, thank you!JS of wanmeiff.com and vcpic.com Please keep this copyright information, respect of, thank you!

    GMT+8, 2021-1-21 21:35