自购原抓音乐圈:只有自购、合购、原抓级高解析(hires、sacd、dsd)正版音乐资源分享!【点我打开
极速无线网卡:千兆无线网卡、服务器网卡、USB接口台式机笔记本网卡 千兆网线 厂家批发价格最低!【点我打开
广告

[古典音乐] Wagner,Bülow/ Bulow,Liszt:Franziska Hirzel&Jan Schultsz - 瓦格纳和他的同时兰花[2013,古典声乐,蓝光]

[复制链接]
10086 发表于 2020-12-20 20:46:22 | 显示全部楼层 |阅读模式 打印 上一主题 下一主题
Franziska Hirzel & Jan Schultsz - Wagner and his Contemporaries
Год выпуска: 2013
Лейбл: Bonitz Music Network 20134
Страна-производитель: Switzerland
Жанр: Classical Vocal
Продолжительность: 01:23:12
Язык: German
Перевод: нет
Исполнители:
Franziska Hirzel - soprano
Jan Schultsz - piano
Треклист:
1. Manfred Osten - "Wagner and Goethe" (documentary) [00:32:34]
Hans von Bülow - Lieder op. 1 Nr. 1-3 (nach Heinrich Heine)
2. Nr. 1 Ein schöner Stern
3. Nr. 2 Wie des Mondes Abbild zittert
5. Nr. 3 Ernst ist der Frühling
Richard Wagner - Wesendonck-Lieder
6. Nr. 1 Der Engel
6. Nr. 2 Stehe still!
7. Nr. 3 Im Treibhaus
8. Nr. 4 Schmerzen
9. Nr. 5 Träume
Hans von Bülow - Die Entsagende (Liederzyklus nach Carl Beck) op. 8
10. Nr. 1 Verbleibst ihm dennoch hold gewogen
11. Nr. 2 Ach, Lust und Leid!
12. Nr. 3 Ich glaubte, die Schwalbe träumte schon
13. Nr. 4 Wenn Gott auch mir vergönnte
14. Nr. 5 Gott, hilf!
15. Nr. 6 Wiegst traurig dein Gezweig
Franz Liszt
16. Wandrers Nachtlied II (Über allen Gipfeln ist Ruh) S 306
17. Hohe Liebe (In Liebesarmen ruht ihr trunken) S 307
Richard Wagner - Kompositionen Zu Goethes Faust Wwv 15 (Auszug)
18. Nr. 6 Gretchen am Spinnrade
19. Nr. 7 Melodram Gretchens
Качество видео: Blu-ray
Формат/Контейнер: BDMV
Видео кодек: MPEG2
Аудио кодек: PCM
Видео : MPEG-2 Video / 18902 kbps / 1080p / 24 fps / 16:9
Аудио #1: LPCM Audio / 2.0 / 48 kHz / 1536 kbps / 16-bit (документальный)
Аудио #2: LPCM Audio / 2.0 / 96 kHz / 4608 kbps / 24-bit
BDInfo

Disc Label:     Franziska Hirze & Jan Schultsz - Wagner and his Contemporaries.2014
Disc Size:      15,565,261,756 bytes
Protection:     AACS
Extras:         50Hz Content
BDInfo:         0.7.5.5
Notes:
BDINFO HOME:
  Cinema Squid (old)
    http://www.cinemasquid.com/blu-ray/tools/bdinfo
  UniqProject GitHub (new)
   https://github.com/UniqProject/BDInfo
INCLUDES FORUMS REPORT FOR:
  AVS Forum Blu-ray Audio and Video Specifications Thread
    http://www.avsforum.com/avs-vb/showthread.php?t=1155731
********************
PLAYLIST: 00009.MPLS
********************

Код:

                                                                                Total   Video
Title                                                           Codec   Length  Movie Size      Disc Size       Bitrate Bitrate Main Audio Track                          Secondary Audio Track
-----                                                           ------  ------- --------------  --------------  ------- ------- ------------------                        ---------------------
00009.MPLS                                                      MPEG-2  1:23:11 14,658,318,336  15,565,261,756  23.49   18.90   LPCM 2.0 1536Kbps (48kHz/16-bit)

Код:
DISC INFO:
Disc Label:     Franziska Hirze & Jan Schultsz - Wagner and his Contemporaries.2014
Disc Size:      15,565,261,756 bytes
Protection:     AACS
Extras:         50Hz Content
BDInfo:         0.7.5.5
PLAYLIST REPORT:
Name:                   00009.MPLS
Length:                 1:23:11.618 (h:m:s.ms)
Size:                   14,658,318,336 bytes
Total Bitrate:          23.49 Mbps
VIDEO:
Codec                   Bitrate             Description
-----                   -------             -----------
MPEG-2 Video            18902 kbps          1080p / 24 fps / 16:9
AUDIO:
Codec                           Language        Bitrate         Description
-----                           --------        -------         -----------
LPCM Audio                      Undetermined    1536 kbps       2.0 / 48 kHz /  1536 kbps / 16-bit
FILES:
Name            Time In         Length          Size            Total Bitrate
----            -------         ------          ----            -------------
00006.M2TS      0:00:00.000     0:32:34.538     3,515,799,552   14,390
00001.M2TS      0:32:34.538     0:06:34.679     1,503,897,600   30,483
00005.M2TS      0:39:09.218     0:18:26.399     4,204,658,688   30,402
00002.M2TS      0:57:35.618     0:12:59.399     2,978,850,816   30,576
00004.M2TS      1:10:35.018     0:05:55.559     1,293,275,136   29,098
00003.M2TS      1:16:30.578     0:06:24.199     1,142,396,928   23,788
00008.M2TS      1:22:54.778     0:00:16.839     19,439,616      9,235
CHAPTERS:
Number          Time In         Length          Avg Video Rate  Max 1-Sec Rate  Max 1-Sec Time  Max 5-Sec Rate  Max 5-Sec Time  Max 10Sec Rate  Max 10Sec Time  Avg Frame Size  Max Frame Size  Max Frame Time
------          -------         ------          --------------  --------------  --------------  --------------  --------------  --------------  --------------  --------------  --------------  --------------
1               0:00:00.000     0:32:34.538     11,954 kbps     14,900 kbps     00:02:32.458    13,455 kbps     00:02:30.000    12,989 kbps     00:02:29.958    62,261 bytes    201,585 bytes   00:00:21.000
2               0:32:34.538     0:02:07.799     24,425 kbps     29,235 kbps     00:34:08.258    26,220 kbps     00:34:08.138    25,713 kbps     00:33:38.938    122,126 bytes   287,210 bytes   00:33:53.778
3               0:34:42.338     0:01:22.920     24,675 kbps     27,485 kbps     00:35:02.258    25,863 kbps     00:35:37.498    25,626 kbps     00:35:32.618    123,375 bytes   270,950 bytes   00:35:12.618
4               0:36:05.258     0:00:02.199     12,018 kbps     17,611 kbps     00:36:06.458    0 kbps          00:00:00.000    0 kbps          00:00:00.000    60,090 bytes    144,789 bytes   00:36:07.338
5               0:36:07.458     0:03:01.759     24,477 kbps     28,489 kbps     00:36:44.138    26,297 kbps     00:37:54.538    25,880 kbps     00:37:54.338    122,383 bytes   305,135 bytes   00:38:19.698
6               0:39:09.218     0:03:04.480     24,637 kbps     28,490 kbps     00:39:45.818    26,515 kbps     00:39:37.138    26,288 kbps     00:41:09.098    123,183 bytes   344,293 bytes   00:41:09.138
7               0:42:13.698     0:03:46.000     24,048 kbps     29,249 kbps     00:42:41.138    26,677 kbps     00:42:36.818    26,442 kbps     00:42:33.698    120,239 bytes   344,004 bytes   00:42:37.098
8               0:45:59.698     0:04:57.599     24,076 kbps     27,935 kbps     00:48:11.018    25,864 kbps     00:48:49.738    25,548 kbps     00:48:36.698    120,379 bytes   295,483 bytes   00:48:47.538
9               0:50:57.298     0:02:25.400     25,118 kbps     30,129 kbps     00:52:30.698    27,072 kbps     00:52:28.618    26,624 kbps     00:52:22.618    125,589 bytes   344,092 bytes   00:52:26.418
10              0:53:22.698     0:04:12.919     24,318 kbps     29,062 kbps     00:55:37.418    26,428 kbps     00:55:21.578    25,997 kbps     00:55:16.858    121,591 bytes   311,669 bytes   00:53:51.858
11              0:57:35.618     0:02:32.639     24,735 kbps     29,265 kbps     00:59:49.898    25,903 kbps     00:58:14.258    25,362 kbps     00:58:56.378    123,673 bytes   320,088 bytes   00:59:50.058
12              1:00:08.258     0:01:50.000     24,746 kbps     28,502 kbps     01:00:30.578    25,953 kbps     01:00:35.818    25,731 kbps     01:00:30.658    123,730 bytes   336,171 bytes   01:00:08.418
13              1:01:58.258     0:02:00.960     24,707 kbps     28,633 kbps     01:03:43.778    26,081 kbps     01:02:42.658    25,870 kbps     01:02:41.738    123,536 bytes   314,427 bytes   01:03:11.658
14              1:03:59.218     0:02:47.039     24,093 kbps     28,379 kbps     01:04:46.418    25,958 kbps     01:04:42.898    25,545 kbps     01:05:17.258    120,466 bytes   309,977 bytes   01:05:17.658
15              1:06:46.258     0:01:07.320     24,512 kbps     28,764 kbps     01:06:59.618    26,040 kbps     01:06:55.658    25,685 kbps     01:06:50.618    122,559 bytes   304,403 bytes   01:07:31.338
16              1:07:53.578     0:02:41.439     24,461 kbps     28,013 kbps     01:09:45.578    25,804 kbps     01:08:00.938    25,315 kbps     01:07:55.258    122,305 bytes   300,046 bytes   01:09:19.698
17              1:10:35.018     0:03:51.000     22,490 kbps     28,341 kbps     01:12:35.978    26,225 kbps     01:12:36.178    25,889 kbps     01:12:31.378    112,450 bytes   337,873 bytes   01:12:41.058
18              1:14:26.018     0:02:04.559     24,244 kbps     28,802 kbps     01:16:00.338    26,249 kbps     01:15:56.498    25,946 kbps     01:16:00.458    121,222 bytes   311,069 bytes   01:15:40.698
19              1:16:30.578     0:02:18.000     24,382 kbps     30,366 kbps     01:18:22.778    27,181 kbps     01:16:38.258    26,362 kbps     01:16:36.818    121,910 bytes   335,859 bytes   01:16:40.818
20              1:18:48.578     0:04:06.199     14,446 kbps     17,835 kbps     01:19:25.298    16,247 kbps     01:19:21.338    15,866 kbps     01:19:16.738    72,232 bytes    153,168 bytes   01:21:05.058
21              1:22:54.778     0:00:16.839     8,757 kbps      20,099 kbps     01:23:07.698    13,722 kbps     01:22:57.298    10,518 kbps     01:22:55.258    43,887 bytes    209,726 bytes   01:23:07.898
STREAM DIAGNOSTICS:
File            PID             Type            Codec           Language                Seconds                 Bitrate                 Bytes           Packets
----            ---             ----            -----           --------                --------------          --------------          -------------   -----
00006.M2TS      4113 (0x1011)   0x02            MPEG-2                                  1954.500                11,955                  2,920,641,290   15,900,504
00006.M2TS      4352 (0x1100)   0x80            LPCM            und (Undetermined)      1954.500                1,542                   376,834,992     2,345,446
00001.M2TS      4113 (0x1011)   0x02            MPEG-2                                  394.560                 24,440                  1,205,363,201   6,556,596
00001.M2TS      4352 (0x1100)   0x80            LPCM            und (Undetermined)      394.560                 4,616                   227,651,424     1,262,976
00005.M2TS      4113 (0x1011)   0x02            MPEG-2                                  1106.280                24,357                  3,368,227,352   18,321,707
00005.M2TS      4352 (0x1100)   0x80            LPCM            und (Undetermined)      1106.280                4,615                   638,171,514     3,540,480
00002.M2TS      4113 (0x1011)   0x02            MPEG-2                                  779.280                 24,524                  2,388,927,898   12,994,647
00002.M2TS      4352 (0x1100)   0x80            LPCM            und (Undetermined)      779.280                 4,615                   449,557,920     2,494,080
00004.M2TS      4113 (0x1011)   0x02            MPEG-2                                  355.440                 23,112                  1,026,883,906   5,586,073
00004.M2TS      4352 (0x1100)   0x80            LPCM            und (Undetermined)      355.440                 4,616                   205,087,008     1,137,792
00003.M2TS      4113 (0x1011)   0x02            MPEG-2                                  384.120                 18,019                  865,173,973     4,707,666
00003.M2TS      4352 (0x1100)   0x80            LPCM            und (Undetermined)      384.120                 4,615                   221,606,560     1,229,440
00008.M2TS      4113 (0x1011)   0x02            MPEG-2                                  16.680                  8,862                   18,476,881      100,662


QUICK SUMMARY:
Disc Label: Franziska Hirze & Jan Schultsz - Wagner and his Contemporaries.2014
Disc Size: 15,565,261,756 bytes
Protection: AACS
Playlist: 00009.MPLS
Size: 14,658,318,336 bytes
Length: 1:23:11.618
Total Bitrate: 23.49 Mbps
Video: MPEG-2 Video / 18902 kbps / 1080p / 24 fps / 16:9
Audio: Undetermined / LPCM Audio / 2.0 / 48 kHz /  1536 kbps / 16-bit
********************
PLAYLIST: 00006.MPLS
********************

Код:

                                                                                Total   Video
Title                                                           Codec   Length  Movie Size      Disc Size       Bitrate Bitrate Main Audio Track                          Secondary Audio Track
-----                                                           ------  ------- --------------  --------------  ------- ------- ------------------                        ---------------------
00006.MPLS                                                      MPEG-2  0:32:34 3,515,799,552   15,565,261,756  14.39   11.95   LPCM 2.0 1536Kbps (48kHz/16-bit)

Код:
DISC INFO:
Disc Label:     Franziska Hirze & Jan Schultsz - Wagner and his Contemporaries.2014
Disc Size:      15,565,261,756 bytes
Protection:     AACS
Extras:         50Hz Content
BDInfo:         0.7.5.5
PLAYLIST REPORT:
Name:                   00006.MPLS
Length:                 0:32:34.538 (h:m:s.ms)
Size:                   3,515,799,552 bytes
Total Bitrate:          14.39 Mbps
VIDEO:
Codec                   Bitrate             Description
-----                   -------             -----------
MPEG-2 Video            11954 kbps          1080p / 24 fps / 16:9
AUDIO:
Codec                           Language        Bitrate         Description
-----                           --------        -------         -----------
LPCM Audio                      Undetermined    1536 kbps       2.0 / 48 kHz /  1536 kbps / 16-bit
FILES:
Name            Time In         Length          Size            Total Bitrate
----            -------         ------          ----            -------------
00006.M2TS      0:00:00.000     0:32:34.538     3,515,799,552   14,390
CHAPTERS:
Number          Time In         Length          Avg Video Rate  Max 1-Sec Rate  Max 1-Sec Time  Max 5-Sec Rate  Max 5-Sec Time  Max 10Sec Rate  Max 10Sec Time  Avg Frame Size  Max Frame Size  Max Frame Time
------          -------         ------          --------------  --------------  --------------  --------------  --------------  --------------  --------------  --------------  --------------  --------------
1               0:00:00.000     0:32:34.538     11,954 kbps     14,900 kbps     00:02:32.458    13,455 kbps     00:02:30.000    12,989 kbps     00:02:29.958    62,262 bytes    201,585 bytes   00:00:21.000
STREAM DIAGNOSTICS:
File            PID             Type            Codec           Language                Seconds                 Bitrate                 Bytes           Packets
----            ---             ----            -----           --------                --------------          --------------          -------------   -----
00006.M2TS      4113 (0x1011)   0x02            MPEG-2                                  1954.500                11,955                  2,920,641,290   15,900,504
00006.M2TS      4352 (0x1100)   0x80            LPCM            und (Undetermined)      1954.500                1,542                   376,834,992     2,345,446


QUICK SUMMARY:
Disc Label: Franziska Hirze & Jan Schultsz - Wagner and his Contemporaries.2014
Disc Size: 15,565,261,756 bytes
Protection: AACS
Playlist: 00006.MPLS
Size: 3,515,799,552 bytes
Length: 0:32:34.538
Total Bitrate: 14.39 Mbps
Video: MPEG-2 Video / 11954 kbps / 1080p / 24 fps / 16:9
Audio: Undetermined / LPCM Audio / 2.0 / 48 kHz /  1536 kbps / 16-bit
********************
PLAYLIST: 00005.MPLS
********************

Код:

                                                                                Total   Video
Title                                                           Codec   Length  Movie Size      Disc Size       Bitrate Bitrate Main Audio Track                          Secondary Audio Track
-----                                                           ------  ------- --------------  --------------  ------- ------- ------------------                        ---------------------
00005.MPLS                                                      MPEG-2  0:18:26 4,204,658,688   15,565,261,756  30.40   24.35   LPCM 2.0 4608Kbps (96kHz/24-bit)

Код:
DISC INFO:
Disc Label:     Franziska Hirze & Jan Schultsz - Wagner and his Contemporaries.2014
Disc Size:      15,565,261,756 bytes
Protection:     AACS
Extras:         50Hz Content
BDInfo:         0.7.5.5
PLAYLIST REPORT:
Name:                   00005.MPLS
Length:                 0:18:26.399 (h:m:s.ms)
Size:                   4,204,658,688 bytes
Total Bitrate:          30.40 Mbps
VIDEO:
Codec                   Bitrate             Description
-----                   -------             -----------
MPEG-2 Video            24354 kbps          1080i / 25 fps / 16:9
AUDIO:
Codec                           Language        Bitrate         Description
-----                           --------        -------         -----------
LPCM Audio                      Undetermined    4608 kbps       2.0 / 96 kHz /  4608 kbps / 24-bit
FILES:
Name            Time In         Length          Size            Total Bitrate
----            -------         ------          ----            -------------
00005.M2TS      0:00:00.000     0:18:26.399     4,204,658,688   30,402
CHAPTERS:
Number          Time In         Length          Avg Video Rate  Max 1-Sec Rate  Max 1-Sec Time  Max 5-Sec Rate  Max 5-Sec Time  Max 10Sec Rate  Max 10Sec Time  Avg Frame Size  Max Frame Size  Max Frame Time
------          -------         ------          --------------  --------------  --------------  --------------  --------------  --------------  --------------  --------------  --------------  --------------
1               0:00:00.000     0:03:04.480     24,639 kbps     28,490 kbps     00:00:36.600    26,515 kbps     00:00:27.920    26,288 kbps     00:01:59.880    123,166 bytes   344,293 bytes   00:01:59.920
2               0:03:04.480     0:03:46.000     24,048 kbps     29,249 kbps     00:03:31.919    26,677 kbps     00:03:27.600    26,442 kbps     00:03:24.480    120,239 bytes   344,004 bytes   00:03:27.880
3               0:06:50.480     0:04:57.600     24,076 kbps     27,935 kbps     00:09:01.800    25,864 kbps     00:09:40.520    25,548 kbps     00:09:27.480    120,379 bytes   295,483 bytes   00:09:38.320
4               0:11:48.080     0:02:25.399     25,118 kbps     30,129 kbps     00:13:21.480    27,072 kbps     00:13:19.400    26,624 kbps     00:13:13.400    125,589 bytes   344,092 bytes   00:13:17.200
5               0:14:13.480     0:04:12.919     24,310 kbps     29,062 kbps     00:16:28.200    26,428 kbps     00:16:12.360    25,997 kbps     00:16:07.640    121,571 bytes   311,669 bytes   00:14:42.640
STREAM DIAGNOSTICS:
File            PID             Type            Codec           Language                Seconds                 Bitrate                 Bytes           Packets
----            ---             ----            -----           --------                --------------          --------------          -------------   -----
00005.M2TS      4113 (0x1011)   0x02            MPEG-2                                  1106.280                24,357                  3,368,227,352   18,321,707
00005.M2TS      4352 (0x1100)   0x80            LPCM            und (Undetermined)      1106.280                4,615                   638,171,514     3,540,480


QUICK SUMMARY:
Disc Label: Franziska Hirze & Jan Schultsz - Wagner and his Contemporaries.2014
Disc Size: 15,565,261,756 bytes
Protection: AACS
Playlist: 00005.MPLS
Size: 4,204,658,688 bytes
Length: 0:18:26.399
Total Bitrate: 30.40 Mbps
Video: MPEG-2 Video / 24354 kbps / 1080i / 25 fps / 16:9
Audio: Undetermined / LPCM Audio / 2.0 / 96 kHz /  4608 kbps / 24-bit
********************
PLAYLIST: 00002.MPLS
********************

Код:

                                                                                Total   Video
Title                                                           Codec   Length  Movie Size      Disc Size       Bitrate Bitrate Main Audio Track                          Secondary Audio Track
-----                                                           ------  ------- --------------  --------------  ------- ------- ------------------                        ---------------------
00002.MPLS                                                      MPEG-2  0:12:59 2,978,850,816   15,565,261,756  30.58   24.52   LPCM 2.0 4608Kbps (96kHz/24-bit)

Код:
DISC INFO:
Disc Label:     Franziska Hirze & Jan Schultsz - Wagner and his Contemporaries.2014
Disc Size:      15,565,261,756 bytes
Protection:     AACS
Extras:         50Hz Content
BDInfo:         0.7.5.5
PLAYLIST REPORT:
Name:                   00002.MPLS
Length:                 0:12:59.399 (h:m:s.ms)
Size:                   2,978,850,816 bytes
Total Bitrate:          30.58 Mbps
VIDEO:
Codec                   Bitrate             Description
-----                   -------             -----------
MPEG-2 Video            24521 kbps          1080i / 25 fps / 16:9
AUDIO:
Codec                           Language        Bitrate         Description
-----                           --------        -------         -----------
LPCM Audio                      Undetermined    4608 kbps       2.0 / 96 kHz /  4608 kbps / 24-bit
FILES:
Name            Time In         Length          Size            Total Bitrate
----            -------         ------          ----            -------------
00002.M2TS      0:00:00.000     0:12:59.399     2,978,850,816   30,576
CHAPTERS:
Number          Time In         Length          Avg Video Rate  Max 1-Sec Rate  Max 1-Sec Time  Max 5-Sec Rate  Max 5-Sec Time  Max 10Sec Rate  Max 10Sec Time  Avg Frame Size  Max Frame Size  Max Frame Time
------          -------         ------          --------------  --------------  --------------  --------------  --------------  --------------  --------------  --------------  --------------  --------------
1               0:00:00.000     0:02:32.639     24,748 kbps     29,265 kbps     00:02:14.280    25,903 kbps     00:00:38.640    25,362 kbps     00:01:20.760    123,705 bytes   320,088 bytes   00:02:14.440
2               0:02:32.639     0:01:50.000     24,746 kbps     28,502 kbps     00:02:54.960    25,953 kbps     00:03:00.200    25,731 kbps     00:02:55.040    123,730 bytes   336,171 bytes   00:02:32.800
3               0:04:22.640     0:02:00.960     24,707 kbps     28,633 kbps     00:06:08.159    26,081 kbps     00:05:07.039    25,870 kbps     00:05:06.120    123,536 bytes   314,427 bytes   00:05:36.039
4               0:06:23.600     0:02:47.039     24,093 kbps     28,379 kbps     00:07:10.800    25,958 kbps     00:07:07.279    25,545 kbps     00:07:41.640    120,466 bytes   309,977 bytes   00:07:42.040
5               0:09:10.640     0:01:07.320     24,512 kbps     28,764 kbps     00:09:24.000    26,040 kbps     00:09:20.040    25,685 kbps     00:09:15.000    122,559 bytes   304,403 bytes   00:09:55.720
6               0:10:17.960     0:02:41.439     24,459 kbps     28,013 kbps     00:12:09.960    25,804 kbps     00:10:25.320    25,315 kbps     00:10:19.640    122,325 bytes   300,046 bytes   00:11:44.080
STREAM DIAGNOSTICS:
File            PID             Type            Codec           Language                Seconds                 Bitrate                 Bytes           Packets
----            ---             ----            -----           --------                --------------          --------------          -------------   -----
00002.M2TS      4113 (0x1011)   0x02            MPEG-2                                  779.280                 24,524                  2,388,927,898   12,994,647
00002.M2TS      4352 (0x1100)   0x80            LPCM            und (Undetermined)      779.280                 4,615                   449,557,920     2,494,080


QUICK SUMMARY:
Disc Label: Franziska Hirze & Jan Schultsz - Wagner and his Contemporaries.2014
Disc Size: 15,565,261,756 bytes
Protection: AACS
Playlist: 00002.MPLS
Size: 2,978,850,816 bytes
Length: 0:12:59.399
Total Bitrate: 30.58 Mbps
Video: MPEG-2 Video / 24521 kbps / 1080i / 25 fps / 16:9
Audio: Undetermined / LPCM Audio / 2.0 / 96 kHz /  4608 kbps / 24-bit
********************
PLAYLIST: 00001.MPLS
********************

Код:

                                                                                Total   Video
Title                                                           Codec   Length  Movie Size      Disc Size       Bitrate Bitrate Main Audio Track                          Secondary Audio Track
-----                                                           ------  ------- --------------  --------------  ------- ------- ------------------                        ---------------------
00001.MPLS                                                      MPEG-2  0:06:34 1,503,897,600   15,565,261,756  30.48   24.43   LPCM 2.0 4608Kbps (96kHz/24-bit)

Код:
DISC INFO:
Disc Label:     Franziska Hirze & Jan Schultsz - Wagner and his Contemporaries.2014
Disc Size:      15,565,261,756 bytes
Protection:     AACS
Extras:         50Hz Content
BDInfo:         0.7.5.5
PLAYLIST REPORT:
Name:                   00001.MPLS
Length:                 0:06:34.679 (h:m:s.ms)
Size:                   1,503,897,600 bytes
Total Bitrate:          30.48 Mbps
VIDEO:
Codec                   Bitrate             Description
-----                   -------             -----------
MPEG-2 Video            24432 kbps          1080i / 25 fps / 16:9
AUDIO:
Codec                           Language        Bitrate         Description
-----                           --------        -------         -----------
LPCM Audio                      Undetermined    4608 kbps       2.0 / 96 kHz /  4608 kbps / 24-bit
FILES:
Name            Time In         Length          Size            Total Bitrate
----            -------         ------          ----            -------------
00001.M2TS      0:00:00.000     0:06:34.679     1,503,897,600   30,483
CHAPTERS:
Number          Time In         Length          Avg Video Rate  Max 1-Sec Rate  Max 1-Sec Time  Max 5-Sec Rate  Max 5-Sec Time  Max 10Sec Rate  Max 10Sec Time  Avg Frame Size  Max Frame Size  Max Frame Time
------          -------         ------          --------------  --------------  --------------  --------------  --------------  --------------  --------------  --------------  --------------  --------------
1               0:00:00.000     0:02:07.800     24,428 kbps     29,235 kbps     00:01:33.720    26,220 kbps     00:01:33.600    25,713 kbps     00:01:04.400    122,101 bytes   287,210 bytes   00:01:19.240
2               0:02:07.800     0:01:22.919     24,675 kbps     27,485 kbps     00:02:27.720    25,863 kbps     00:03:02.960    25,626 kbps     00:02:58.080    123,375 bytes   270,950 bytes   00:02:38.080
3               0:03:30.720     0:00:02.199     12,018 kbps     17,611 kbps     00:03:31.919    0 kbps          00:00:00.000    0 kbps          00:00:00.000    60,090 bytes    144,789 bytes   00:03:32.800
4               0:03:32.919     0:03:01.759     24,475 kbps     28,489 kbps     00:04:09.600    26,297 kbps     00:05:20.000    25,880 kbps     00:05:19.800    122,400 bytes   305,135 bytes   00:05:45.159
STREAM DIAGNOSTICS:
File            PID             Type            Codec           Language                Seconds                 Bitrate                 Bytes           Packets
----            ---             ----            -----           --------                --------------          --------------          -------------   -----
00001.M2TS      4113 (0x1011)   0x02            MPEG-2                                  394.560                 24,440                  1,205,363,201   6,556,596
00001.M2TS      4352 (0x1100)   0x80            LPCM            und (Undetermined)      394.560                 4,616                   227,651,424     1,262,976


QUICK SUMMARY:
Disc Label: Franziska Hirze & Jan Schultsz - Wagner and his Contemporaries.2014
Disc Size: 15,565,261,756 bytes
Protection: AACS
Playlist: 00001.MPLS
Size: 1,503,897,600 bytes
Length: 0:06:34.679
Total Bitrate: 30.48 Mbps
Video: MPEG-2 Video / 24432 kbps / 1080i / 25 fps / 16:9
Audio: Undetermined / LPCM Audio / 2.0 / 96 kHz /  4608 kbps / 24-bit
********************
PLAYLIST: 00003.MPLS
********************

Код:

                                                                                Total   Video
Title                                                           Codec   Length  Movie Size      Disc Size       Bitrate Bitrate Main Audio Track                          Secondary Audio Track
-----                                                           ------  ------- --------------  --------------  ------- ------- ------------------                        ---------------------
00003.MPLS                                                      MPEG-2  0:06:24 1,142,396,928   15,565,261,756  23.79   18.02   LPCM 2.0 4608Kbps (96kHz/24-bit)

Код:
DISC INFO:
Disc Label:     Franziska Hirze & Jan Schultsz - Wagner and his Contemporaries.2014
Disc Size:      15,565,261,756 bytes
Protection:     AACS
Extras:         50Hz Content
BDInfo:         0.7.5.5
PLAYLIST REPORT:
Name:                   00003.MPLS
Length:                 0:06:24.199 (h:m:s.ms)
Size:                   1,142,396,928 bytes
Total Bitrate:          23.79 Mbps
VIDEO:
Codec                   Bitrate             Description
-----                   -------             -----------
MPEG-2 Video            18015 kbps          1080i / 25 fps / 16:9
AUDIO:
Codec                           Language        Bitrate         Description
-----                           --------        -------         -----------
LPCM Audio                      Undetermined    4608 kbps       2.0 / 96 kHz /  4608 kbps / 24-bit
FILES:
Name            Time In         Length          Size            Total Bitrate
----            -------         ------          ----            -------------
00003.M2TS      0:00:00.000     0:06:24.199     1,142,396,928   23,788
CHAPTERS:
Number          Time In         Length          Avg Video Rate  Max 1-Sec Rate  Max 1-Sec Time  Max 5-Sec Rate  Max 5-Sec Time  Max 10Sec Rate  Max 10Sec Time  Avg Frame Size  Max Frame Size  Max Frame Time
------          -------         ------          --------------  --------------  --------------  --------------  --------------  --------------  --------------  --------------  --------------  --------------
1               0:00:00.000     0:02:18.000     24,385 kbps     30,366 kbps     00:01:52.200    27,181 kbps     00:00:07.679    26,362 kbps     00:00:06.240    121,887 bytes   335,859 bytes   00:00:10.240
2               0:02:18.000     0:04:06.199     14,445 kbps     17,835 kbps     00:02:54.720    16,247 kbps     00:02:50.760    15,866 kbps     00:02:46.160    72,236 bytes    153,168 bytes   00:04:34.480
STREAM DIAGNOSTICS:
File            PID             Type            Codec           Language                Seconds                 Bitrate                 Bytes           Packets
----            ---             ----            -----           --------                --------------          --------------          -------------   -----
00003.M2TS      4113 (0x1011)   0x02            MPEG-2                                  384.120                 18,019                  865,173,973     4,707,666
00003.M2TS      4352 (0x1100)   0x80            LPCM            und (Undetermined)      384.120                 4,615                   221,606,560     1,229,440


QUICK SUMMARY:
Disc Label: Franziska Hirze & Jan Schultsz - Wagner and his Contemporaries.2014
Disc Size: 15,565,261,756 bytes
Protection: AACS
Playlist: 00003.MPLS
Size: 1,142,396,928 bytes
Length: 0:06:24.199
Total Bitrate: 23.79 Mbps
Video: MPEG-2 Video / 18015 kbps / 1080i / 25 fps / 16:9
Audio: Undetermined / LPCM Audio / 2.0 / 96 kHz /  4608 kbps / 24-bit
********************
PLAYLIST: 00004.MPLS
********************

Код:

                                                                                Total   Video
Title                                                           Codec   Length  Movie Size      Disc Size       Bitrate Bitrate Main Audio Track                          Secondary Audio Track
-----                                                           ------  ------- --------------  --------------  ------- ------- ------------------                        ---------------------
00004.MPLS                                                      MPEG-2  0:05:55 1,293,275,136   15,565,261,756  29.10   23.10   LPCM 2.0 4608Kbps (96kHz/24-bit)

Код:
DISC INFO:
Disc Label:     Franziska Hirze & Jan Schultsz - Wagner and his Contemporaries.2014
Disc Size:      15,565,261,756 bytes
Protection:     AACS
Extras:         50Hz Content
BDInfo:         0.7.5.5
PLAYLIST REPORT:
Name:                   00004.MPLS
Length:                 0:05:55.559 (h:m:s.ms)
Size:                   1,293,275,136 bytes
Total Bitrate:          29.10 Mbps
VIDEO:
Codec                   Bitrate             Description
-----                   -------             -----------
MPEG-2 Video            23105 kbps          1080i / 25 fps / 16:9
AUDIO:
Codec                           Language        Bitrate         Description
-----                           --------        -------         -----------
LPCM Audio                      Undetermined    4608 kbps       2.0 / 96 kHz /  4608 kbps / 24-bit
FILES:
Name            Time In         Length          Size            Total Bitrate
----            -------         ------          ----            -------------
00004.M2TS      0:00:00.000     0:05:55.559     1,293,275,136   29,098
CHAPTERS:
Number          Time In         Length          Avg Video Rate  Max 1-Sec Rate  Max 1-Sec Time  Max 5-Sec Rate  Max 5-Sec Time  Max 10Sec Rate  Max 10Sec Time  Avg Frame Size  Max Frame Size  Max Frame Time
------          -------         ------          --------------  --------------  --------------  --------------  --------------  --------------  --------------  --------------  --------------  --------------
1               0:00:00.000     0:03:51.000     22,491 kbps     28,341 kbps     00:02:00.960    26,225 kbps     00:02:01.160    25,889 kbps     00:01:56.360    112,438 bytes   337,873 bytes   00:02:06.040
2               0:03:51.000     0:02:04.559     24,242 kbps     28,802 kbps     00:05:25.320    26,249 kbps     00:05:21.480    25,946 kbps     00:05:25.440    121,247 bytes   311,069 bytes   00:05:05.679
STREAM DIAGNOSTICS:
File            PID             Type            Codec           Language                Seconds                 Bitrate                 Bytes           Packets
----            ---             ----            -----           --------                --------------          --------------          -------------   -----
00004.M2TS      4113 (0x1011)   0x02            MPEG-2                                  355.440                 23,112                  1,026,883,906   5,586,073
00004.M2TS      4352 (0x1100)   0x80            LPCM            und (Undetermined)      355.440                 4,616                   205,087,008     1,137,792


QUICK SUMMARY:
Disc Label: Franziska Hirze & Jan Schultsz - Wagner and his Contemporaries.2014
Disc Size: 15,565,261,756 bytes
Protection: AACS
Playlist: 00004.MPLS
Size: 1,293,275,136 bytes
Length: 0:05:55.559
Total Bitrate: 29.10 Mbps
Video: MPEG-2 Video / 23105 kbps / 1080i / 25 fps / 16:9
Audio: Undetermined / LPCM Audio / 2.0 / 96 kHz /  4608 kbps / 24-bit

Скриншот меню



Скриншоты











                                                                                       
                       
                       
                       
                       
                       
                                 磁力下载(论坛代下载服务)
                                                               
                                       
游客,本主题需向作者支付 10金币 才能浏览,金币充值, 免回复、免金币,直接查看内容请开通VIP支付

                                               
  • 14.5 GB
  • 温馨提示

    记得善用社区搜索功能,那里可能会有你想要的资源;论坛站内搜索

    如果你有什么需要的资源可以去资源求档发帖,求助社区的网友,我们会在第一时间给你回复哦;资源求档

    对于本社区网盘链接失效密码错误各种报错请在反馈板块反馈报错发帖,您的支持,是我们发展的最大动力;投诉建议

    回复

    使用道具 举报

    您需要登录后才可以回帖 登录 | 立即注册 微信登录

    本版积分规则

    关注0

    粉丝3

    帖子50909

    发布主题
    阅读排行更多+
    关闭

    站长推荐上一条 /1 下一条

    收藏帖子 返回列表 这是一个自定义按钮
    音乐分享,音乐下载。
    微信公众号
    微信号:maomiyinyue
    意见反馈:admin@maomicd.com

    加入我们的官方QQ群和微信群

    Powered by Discuz! X3.4 Archiver|手机版|小黑屋|猫咪音乐网 ( 苏ICP备20015413号 )|( 苏公网安备 32030502000272号) 繁體

    JS of wanmeiff.com and vcpic.com Please keep this copyright information, respect of, thank you!JS of wanmeiff.com and vcpic.com Please keep this copyright information, respect of, thank you!

    GMT+8, 2021-1-17 17:41