请选择 进入手机版 | 继续访问电脑版

自购原抓音乐圈:只有自购、合购、原抓级高解析(hires、sacd、dsd)正版音乐资源分享!【点我打开
广告

[华语] 群星 - 达人·拾年 精选集 2020 【SACD-ISO/百盘】

[复制链接]
admin实名认证 发表于 2020-11-8 17:56:57 | 显示全部楼层 |阅读模式 打印 上一主题 下一主题
Exact Audio Copy V1.3 from 2. September 20019
EAC 抓取日志文件从28. 二月 20020, 11:19
使用驱动器  :PIONEER DVD-RW  DVR-219L   Adapter: 2  ID: 0
读取模式      : 可靠Secure
使用精确流     : 是
清空音频缓存    : 是
使用 C2 指示器 : 否
组合读写偏移校正:            : 6
读取 Lead-In 和 Lead-Out : 否
用静音填充抓取中丢失偏移的采样       : 是
去除首尾静音块               : 否
在CRC 计算中使用了空样本       : 是
已用接口                  : Win NT 及 2000 本地 Win32 接口
所用输出模式:: 内部 WAV 函数
样本格式    : 44.100 Hz; 16 Bit; 立体声
已抓取 CD 的 TOC
     音轨 |    起始    |    长度    |  起始扇区  |  结束扇区  
    --------------------------------------------
      1 |  0:00.00 |  4:15.60 |      0 |  19184
      2 |  4:15.60 |  5:26.68 |  19185 |  43702
      3 |  9:42.53 |  4:26.12 |  43703 |  63664
      4 | 14:08.65 |  4:45.42 |  63665 |  85081
      5 | 18:54.32 |  4:11.48 |  85082 | 103954
      6 |  9:42.53 |  4:26.12 |  43703 |  63664
      7 | 14:08.65 |  4:45.42 |  63665 |  85081
      8 | 18:54.32 |  4:11.48 |  85082 | 103954
      9 |  9:42.53 |  4:26.12 |  43703 |  63664
     10 | 14:08.65 |  4:45.42 |  63665 |  85081
     11 | 18:54.32 |  4:11.48 |  85082 | 103954
     12 | 18:54.32 |  4:11.48 |  85082 | 103954
     13 |  9:42.53 |  4:26.12 |  43703 |  63664
     14 | 14:08.65 |  4:45.42 |  63665 |  85081
     15 | 18:54.32 |  4:11.48 |  85082 | 103954
     16 |  4:15.60 |  5:26.68 |  19185 |  43702
     17 |  9:42.53 |  4:26.12 |  43703 |  63664
     18 | 14:08.65 |  4:45.42 |  63665 |  85081
范围状态及错误
已选择范围
     文件名 F:\
     峰值电平 100.0 %
     抓取速度 2.0 X
     范围质量 99.9 %
     复制 CRC 6851C191
     复制成功
没有错误发生
状态报告结尾
范围状态及错误
已选择范围
     文件名 F:\
     峰值电平 100.0 %
     抓取速度 2.0 X
     范围质量 99.9 %
     复制 CRC 6851C191
     复制成功
没有错误发生
状态报告结尾

《达人·拾年》hybrid SACD音乐与音响发烧的典范 试音发烧天碟
达人.拾年”精选10首不同体裁的录音佳作,囊括大编制交响乐,民族音乐,打击乐,跨界音乐,器乐独奏及发烧人声汇聚成《达人·拾年》精选专辑。从甄选曲目题材,到后期录制及母带重制,每个环节都呈现极高规格,精益求精。多种体裁作品的展现不仅是对“达人”录音技术与艺术理念的体现,同时也体现着“达人”的美学与世界观。结合每首曲目的录音点评及独到见解,让《达人·拾年》不仅“听”的惊艳,同时“看”的精彩。

1、乔治·比才/罗季翁·谢德林:卡门组曲选段
2、酒狂(即兴),选自《阮·即兴曲》
3、打击随想,选自《鼓达人》
4、越人歌,选自《琴歌·终极版》
5、鱼儿戏水,选自《一点思念》
6、皮亚佐拉:奇卓,选自《罗旭超级低音提琴》
7、市集,选自《乐歌》
8、爱的罗曼史,选自《鹊桥》
9、阳光照耀着塔什库尔干,选自《宁峰·中国心》
10、带我飞向月球,选自《沈洋-沃德·马斯顿实况录音集:曾经的歌》
游客,本主题需向作者支付 7金币 才能浏览,金币充值, 免回复、免金币,直接查看内容请开通VIP购买主题

振兴捌零,人人有责。多推广 多宣传 多分享  
回复

使用道具 举报

您需要登录后才可以回帖 登录 | 立即注册 微信登录

本版积分规则

关注29

粉丝132

帖子14432

发布主题
阅读排行更多+
关闭

站长推荐上一条 /1 下一条

活动提示

双11活动通知:

赞助永久VIP会员,赠送希捷/西部机械硬盘或者百度网盘SVIP一年(充值到你网盘帐号)+5000GB HIRES资源活动开启通知。

地址:https://www.maomicd.com/huodong/

我知道了
收藏帖子 返回列表 这是一个自定义按钮
音乐分享,音乐下载。
微信公众号
微信号:maomiyinyue
意见反馈:admin@maomicd.com

加入我们的官方QQ群和微信群

Powered by Discuz! X3.4 Archiver|手机版|小黑屋|猫咪音乐网 ( 苏ICP备20015413号 )|( 苏公网安备 32030502000272号) 繁體

JS of wanmeiff.com and vcpic.com Please keep this copyright information, respect of, thank you!JS of wanmeiff.com and vcpic.com Please keep this copyright information, respect of, thank you!

GMT+8, 2020-11-30 11:54