请选择 进入手机版 | 继续访问电脑版

自购原抓音乐圈:只有自购、合购、原抓级高解析(hires、sacd、dsd)正版音乐资源分享!【点我打开
广告

[电子音乐] Apoptygma Berzerk - Rocket Science (DVD-Video, Ltd) [2009, Futurepop, Synth-Pop,

[复制链接]
全球搬运 发表于 2020-10-30 21:25:19 | 显示全部楼层 |阅读模式 打印 上一主题 下一主题
Apoptygma Berzerk - Rocket Science (Bonus DVD)
Жанр: Futurepop, Synth-pop
Страна:
Norway
Продолжительность: 00:40:07
Год выпуска: 2009 г.
Лейбл: GUN Records
Номер по каталогу: 88697436532/2
Описание: Бонус DVD приложение, к альбому Rocket Science (2009 Limited Deluxe Edition).
Треклист
01. Apollo (Live On Your TV) 3:40
02. Making Of Apollo (Live On Your TV) 7:31
03. Photo Slideshow 1 2:22
04. Photo Slideshow 2 3:10
05. Track By Track 11:32
06. Aquarium 1:40
07. Let APB-B Watch You 0:40
08. Coming Home To FRXTA 12:17
Качество : DVD5
Формат: DVD video
Видео кодек: MPEG2
Аудио кодек: AC3
Видео: PAL 16:9 (720x576) VBR, 25.00 fps
Аудио: English, AC3, 2/0 (L,R) ch, 192 kbps, 48000Hz
Разбивка на главы по трекам: естьСемпл
DVDinfo

Title: Apoptygma Berzerk - Rocket Science (DVD-Video, Limited Edition) - 2009
Size: 1.91 Gb ( 2 000 320,00 KBytes ) - DVD-5
Enabled regions: 1, 2, 3, 4, 5, 6, 7, 8
VTS_01 :
  Play Length: 00:10:09
  Video: PAL 16:9 (720x576) VBR, Auto Letterboxed
  Audio:
      English, AC3, 2/0 (L,R) ch, 192 kbps, Delay 0 mSec
VTS_02 :
  Play Length: 00:05:32
  Video: PAL 16:9 (720x576) VBR, Auto Letterboxed
  Audio:
      English (Dolby AC3, 2 ch)
VTS_03 :
  Play Length: 00:11:32
  Video: PAL 16:9 (720x576) VBR, Auto Letterboxed
  Audio:
      English (Dolby AC3, 2 ch)
VTS_04 :
  Play Length: 00:00:40
  Video: PAL 16:9 (720x576) VBR, Auto Letterboxed
  Audio:
      English (Dolby AC3, 2 ch)
VTS_05 :
  Play Length: 00:01:40
  Video: PAL 16:9 (720x576) VBR, Auto Letterboxed
  Audio:
      English (Dolby AC3, 2 ch)
VTS_06 :
  Play Length: 00:12:17
  Video: PAL 16:9 (720x576) VBR, Auto Letterboxed
  Audio:
      English (Dolby AC3, 2 ch)
* Menus Information *
VIDEO_TS Menu
Video:
      PAL 16:9 (720x576) VBR
      Auto Letterboxed
English Language Unit :
      Title Menu
VTS_01 Menu
Video:
      PAL 16:9 (720x576) VBR
      Auto Letterboxed
Audio:
      Not specified (LinearPCM, 2 ch)
English Language Unit :
      Root Menu
VTS_02 Menu
Video:
      PAL 4:3 (720x576) VBR
English Language Unit :
      Root Menu
VTS_03 Menu
Video:
      PAL 4:3 (720x576) VBR
English Language Unit :
      Root Menu
VTS_04 Menu
Video:
      PAL 4:3 (720x576) VBR
English Language Unit :
      Root Menu
VTS_05 Menu
Video:
      PAL 4:3 (720x576) VBR
English Language Unit :
      Root Menu
VTS_06 Menu
Video:
      PAL 4:3 (720x576) VBR
English Language Unit :
      Root Menu


MediaInfo

Общее
Полное имя                               : G:\Музыка\Apoptygma Berzerk - Rocket Science (CD & DVD, Limited Edition) - 2009\Apoptygma Berzerk - Rocket Science (DVD-Video, Limited Edition) - 2009\VIDEO_TS\VIDEO_TS.BUP
Формат                                   : DVD Video
Профиль формата                          : Menu
Размер файла                             : 18,0 Кбайт
Режим общего битрейта                    : Переменный
Видео
Идентификатор                            : 224 (0xE0)
Формат                                   : MPEG Video
Версия формата                           : Version 2
Вид битрейта                             : Переменный
Ширина                                   : 720 пикселей
Высота                                   : 576 пикселей
Соотношение сторон                       : 16:9
Частота кадров                           : 25,000 кадров/сек
Стандарт вещания                         : PAL
Метод сжатия                             : С потерями
Текст
Формат                                   : RLE
Формат/Информация                        : Run-length encoding
Битовая глубина                          : 2 бит
Общее
Полное имя                               : G:\Музыка\Apoptygma Berzerk - Rocket Science (CD & DVD, Limited Edition) - 2009\Apoptygma Berzerk - Rocket Science (DVD-Video, Limited Edition) - 2009\VIDEO_TS\VIDEO_TS.IFO
Формат                                   : DVD Video
Профиль формата                          : Menu
Размер файла                             : 18,0 Кбайт
Режим общего битрейта                    : Переменный
Видео
Идентификатор                            : 224 (0xE0)
Формат                                   : MPEG Video
Версия формата                           : Version 2
Вид битрейта                             : Переменный
Ширина                                   : 720 пикселей
Высота                                   : 576 пикселей
Соотношение сторон                       : 16:9
Частота кадров                           : 25,000 кадров/сек
Стандарт вещания                         : PAL
Метод сжатия                             : С потерями
Текст
Формат                                   : RLE
Формат/Информация                        : Run-length encoding
Битовая глубина                          : 2 бит
Общее
Полное имя                               : G:\Музыка\Apoptygma Berzerk - Rocket Science (CD & DVD, Limited Edition) - 2009\Apoptygma Berzerk - Rocket Science (DVD-Video, Limited Edition) - 2009\VIDEO_TS\VIDEO_TS.VOB
Формат                                   : MPEG-PS
Размер файла                             : 154 Кбайт
Продолжительность                        : 520 мс.
Общий поток                              : 2426 Кбит/сек
Видео
Идентификатор                            : 224 (0xE0)
Формат                                   : MPEG Video
Версия формата                           : Version 2
Профиль формата                          : Main@Main
Параметр BVOP формата                    : Да
Параметр матрицы формата                 : Выборочная
Продолжительность                        : 520 мс.
Максимальный битрейт                     : 2000 Кбит/сек
Ширина                                   : 720 пикселей
Высота                                   : 576 пикселей
Соотношение сторон                       : 4:3
Частота кадров                           : 25,000 кадров/сек
Стандарт вещания                         : PAL
Цветовое пространство                    : YUV
Субдискретизация насыщенности            : 4:2:0
Битовая глубина                          : 8 бит
Тип развёртки                            : Чересстрочная
Порядок развёртки                        : Верхнее поле первое
Метод сжатия                             : С потерями
TimeCode_FirstFrame                      : 00:00:00:00
TimeCode_Source                          : Group of pictures header
Текст
Идентификатор                            : 189 (0xBD)-32 (0x20)
Формат                                   : RLE
Формат/Информация                        : Run-length encoding
Режим смешивания                         : DVD-Video
Задержка видео                           : -80 мс.
Меню
Общее
Полное имя                               : G:\Музыка\Apoptygma Berzerk - Rocket Science (CD & DVD, Limited Edition) - 2009\Apoptygma Berzerk - Rocket Science (DVD-Video, Limited Edition) - 2009\VIDEO_TS\VTS_01_0.BUP
Формат                                   : DVD Video
Профиль формата                          : Program
Размер файла                             : 32,0 Кбайт
Продолжительность                        : 10 м.
Режим общего битрейта                    : Переменный
Общий поток                              : 430 бит/сек
Видео
Идентификатор                            : 224 (0xE0)
Формат                                   : MPEG Video
Версия формата                           : Version 2
Продолжительность                        : 10 м.
Вид битрейта                             : Переменный
Ширина                                   : 720 пикселей
Высота                                   : 576 пикселей
Соотношение сторон                       : 16:9
Частота кадров                           : 25,000 кадров/сек
Стандарт вещания                         : PAL
Метод сжатия                             : С потерями
Аудио
Идентификатор                            : 128 (0x80)
Формат                                   : AC-3
Формат/Информация                        : Audio Coding 3
Продолжительность                        : 10 м.
Каналы                                   : 2 канала
Частота                                  : 48,0 КГц
Метод сжатия                             : С потерями
Язык                                     : English
Меню
Продолжительность                        : 10 м.
00:00:00.000                             : Chapter 1
00:03:39.720                             : Chapter 2
List (Audio)                             : 0
Общее
Полное имя                               : G:\Музыка\Apoptygma Berzerk - Rocket Science (CD & DVD, Limited Edition) - 2009\Apoptygma Berzerk - Rocket Science (DVD-Video, Limited Edition) - 2009\VIDEO_TS\VTS_01_0.IFO
Формат                                   : DVD Video
Профиль формата                          : Program
Размер файла                             : 32,0 Кбайт
Продолжительность                        : 10 м.
Режим общего битрейта                    : Переменный
Общий поток                              : 430 бит/сек
Видео
Идентификатор                            : 224 (0xE0)
Формат                                   : MPEG Video
Версия формата                           : Version 2
Продолжительность                        : 10 м.
Вид битрейта                             : Переменный
Ширина                                   : 720 пикселей
Высота                                   : 576 пикселей
Соотношение сторон                       : 16:9
Частота кадров                           : 25,000 кадров/сек
Стандарт вещания                         : PAL
Метод сжатия                             : С потерями
Аудио
Идентификатор                            : 128 (0x80)
Формат                                   : AC-3
Формат/Информация                        : Audio Coding 3
Продолжительность                        : 10 м.
Каналы                                   : 2 канала
Частота                                  : 48,0 КГц
Метод сжатия                             : С потерями
Язык                                     : English
Меню
Продолжительность                        : 10 м.
00:00:00.000                             : Chapter 1
00:03:39.720                             : Chapter 2
List (Audio)                             : 0
Общее
Полное имя                               : G:\Музыка\Apoptygma Berzerk - Rocket Science (CD & DVD, Limited Edition) - 2009\Apoptygma Berzerk - Rocket Science (DVD-Video, Limited Edition) - 2009\VIDEO_TS\VTS_01_0.VOB
Формат                                   : MPEG-PS
Размер файла                             : 59,3 Мбайт
Продолжительность                        : 2 с. 0 мс.
Режим общего битрейта                    : Переменный
Общий поток                              : 249 Мбит/сек
Видео
Идентификатор                            : 224 (0xE0)
Формат                                   : MPEG Video
Версия формата                           : Version 2
Профиль формата                          : Main@Main
Параметр BVOP формата                    : Да
Параметр матрицы формата                 : Выборочная
Параметр GOP формата                     : Variable
Продолжительность                        : 2 с. 0 мс.
Вид битрейта                             : Переменный
Битрейт                                  : 242 Мбит/сек
Максимальный битрейт                     : 8000 Кбит/сек
Ширина                                   : 720 пикселей
Высота                                   : 576 пикселей
Соотношение сторон                       : 16:9
Частота кадров                           : 25,000 кадров/сек
Стандарт вещания                         : PAL
Цветовое пространство                    : YUV
Субдискретизация насыщенности            : 4:2:0
Битовая глубина                          : 8 бит
Тип развёртки                            : Чересстрочная
Порядок развёртки                        : Верхнее поле первое
Метод сжатия                             : С потерями
Бит/(Пиксели*Кадры)                      : 23.377
TimeCode_FirstFrame                      : 00:00:00:00
TimeCode_Source                          : Group of pictures header
Размер потока                            : 57,8 Мбайт (97%)
Аудио
Идентификатор                            : 189 (0xBD)-160 (0xA0)
Формат                                   : PCM
Параметр Endianness формата              : Big
Параметр Sign формата                    : Signed
Режим смешивания                         : DVD-Video
Продолжительность                        : 2 с. 0 мс.
Вид битрейта                             : Постоянный
Битрейт                                  : 1536 Кбит/сек
Каналы                                   : 2 канала
Частота                                  : 48,0 КГц
Битовая глубина                          : 16 бит
Размер потока                            : 375 Кбайт (1%)
Текст #1
Идентификатор                            : 189 (0xBD)-32 (0x20)
Формат                                   : RLE
Формат/Информация                        : Run-length encoding
Режим смешивания                         : DVD-Video
Текст #2
Идентификатор                            : 189 (0xBD)-33 (0x21)
Формат                                   : RLE
Формат/Информация                        : Run-length encoding
Режим смешивания                         : DVD-Video
Меню
Общее
Полное имя                               : G:\Музыка\Apoptygma Berzerk - Rocket Science (CD & DVD, Limited Edition) - 2009\Apoptygma Berzerk - Rocket Science (DVD-Video, Limited Edition) - 2009\VIDEO_TS\VTS_01_1.VOB
Формат                                   : MPEG-PS
Размер файла                             : 473 Мбайт
Продолжительность                        : 10 м.
Режим общего битрейта                    : Переменный
Общий поток                              : 6506 Кбит/сек
Видео
Идентификатор                            : 224 (0xE0)
Формат                                   : MPEG Video
Версия формата                           : Version 2
Профиль формата                          : Main@Main
Параметр BVOP формата                    : Да
Параметр матрицы формата                 : Выборочная
Параметр GOP формата                     : M=3, N=12
Продолжительность                        : 10 м.
Вид битрейта                             : Переменный
Битрейт                                  : 6184 Кбит/сек
Максимальный битрейт                     : 7700 Кбит/сек
Ширина                                   : 720 пикселей
Высота                                   : 576 пикселей
Соотношение сторон                       : 16:9
Частота кадров                           : 25,000 кадров/сек
Стандарт вещания                         : PAL
Цветовое пространство                    : YUV
Субдискретизация насыщенности            : 4:2:0
Битовая глубина                          : 8 бит
Тип развёртки                            : Чересстрочная
Порядок развёртки                        : Нижнее поле первое
Метод сжатия                             : С потерями
Бит/(Пиксели*Кадры)                      : 0.596
TimeCode_FirstFrame                      : 01:00:01:22
TimeCode_Source                          : Group of pictures header
Размер потока                            : 449 Мбайт (95%)
Основные цвета                           : BT.601 PAL
Характеристики трансфера                 : BT.470 System B, BT.470 System G
Коэффициенты матрицы                     : BT.601
Аудио
Идентификатор                            : 189 (0xBD)-128 (0x80)
Формат                                   : AC-3
Формат/Информация                        : Audio Coding 3
Расширение режима                        : CM (complete main)
Параметр Endianness формата              : Big
Режим смешивания                         : DVD-Video
Продолжительность                        : 10 м.
Вид битрейта                             : Постоянный
Битрейт                                  : 192 Кбит/сек
Каналы                                   : 2 канала
Расположение каналов                     : Front: L R
Частота                                  : 48,0 КГц
Битовая глубина                          : 16 бит
Метод сжатия                             : С потерями
Размер потока                            : 13,9 Мбайт (3%)
Меню
Общее
Полное имя                               : G:\Музыка\Apoptygma Berzerk - Rocket Science (CD & DVD, Limited Edition) - 2009\Apoptygma Berzerk - Rocket Science (DVD-Video, Limited Edition) - 2009\VIDEO_TS\VTS_02_0.BUP
Формат                                   : DVD Video
Профиль формата                          : Program
Размер файла                             : 20,0 Кбайт
Продолжительность                        : 5 м. 32 с.
Режим общего битрейта                    : Переменный
Общий поток                              : 493 бит/сек
Видео
Идентификатор                            : 224 (0xE0)
Формат                                   : MPEG Video
Версия формата                           : Version 2
Продолжительность                        : 5 м. 32 с.
Вид битрейта                             : Переменный
Ширина                                   : 720 пикселей
Высота                                   : 576 пикселей
Соотношение сторон                       : 16:9
Частота кадров                           : 25,000 кадров/сек
Стандарт вещания                         : PAL
Метод сжатия                             : С потерями
Аудио
Идентификатор                            : 128 (0x80)
Формат                                   : AC-3
Формат/Информация                        : Audio Coding 3
Продолжительность                        : 5 м. 32 с.
Каналы                                   : 2 канала
Частота                                  : 48,0 КГц
Метод сжатия                             : С потерями
Язык                                     : English
Меню
Продолжительность                        : 5 м. 32 с.
00:00:00.000                             : Chapter 1
00:02:22.240                             : Chapter 2
List (Audio)                             : 0
Общее
Полное имя                               : G:\Музыка\Apoptygma Berzerk - Rocket Science (CD & DVD, Limited Edition) - 2009\Apoptygma Berzerk - Rocket Science (DVD-Video, Limited Edition) - 2009\VIDEO_TS\VTS_02_0.IFO
Формат                                   : DVD Video
Профиль формата                          : Program
Размер файла                             : 20,0 Кбайт
Продолжительность                        : 5 м. 32 с.
Режим общего битрейта                    : Переменный
Общий поток                              : 493 бит/сек
Видео
Идентификатор                            : 224 (0xE0)
Формат                                   : MPEG Video
Версия формата                           : Version 2
Продолжительность                        : 5 м. 32 с.
Вид битрейта                             : Переменный
Ширина                                   : 720 пикселей
Высота                                   : 576 пикселей
Соотношение сторон                       : 16:9
Частота кадров                           : 25,000 кадров/сек
Стандарт вещания                         : PAL
Метод сжатия                             : С потерями
Аудио
Идентификатор                            : 128 (0x80)
Формат                                   : AC-3
Формат/Информация                        : Audio Coding 3
Продолжительность                        : 5 м. 32 с.
Каналы                                   : 2 канала
Частота                                  : 48,0 КГц
Метод сжатия                             : С потерями
Язык                                     : English
Меню
Продолжительность                        : 5 м. 32 с.
00:00:00.000                             : Chapter 1
00:02:22.240                             : Chapter 2
List (Audio)                             : 0
Общее
Полное имя                               : G:\Музыка\Apoptygma Berzerk - Rocket Science (CD & DVD, Limited Edition) - 2009\Apoptygma Berzerk - Rocket Science (DVD-Video, Limited Edition) - 2009\VIDEO_TS\VTS_02_0.VOB
Формат                                   : MPEG-PS
Размер файла                             : 154 Кбайт
Продолжительность                        : 520 мс.
Общий поток                              : 2426 Кбит/сек
Видео
Идентификатор                            : 224 (0xE0)
Формат                                   : MPEG Video
Версия формата                           : Version 2
Профиль формата                          : Main@Main
Параметр BVOP формата                    : Да
Параметр матрицы формата                 : Выборочная
Продолжительность                        : 520 мс.
Максимальный битрейт                     : 2000 Кбит/сек
Ширина                                   : 720 пикселей
Высота                                   : 576 пикселей
Соотношение сторон                       : 4:3
Частота кадров                           : 25,000 кадров/сек
Стандарт вещания                         : PAL
Цветовое пространство                    : YUV
Субдискретизация насыщенности            : 4:2:0
Битовая глубина                          : 8 бит
Тип развёртки                            : Чересстрочная
Порядок развёртки                        : Верхнее поле первое
Метод сжатия                             : С потерями
TimeCode_FirstFrame                      : 00:00:00:00
TimeCode_Source                          : Group of pictures header
Текст
Идентификатор                            : 189 (0xBD)-32 (0x20)
Формат                                   : RLE
Формат/Информация                        : Run-length encoding
Режим смешивания                         : DVD-Video
Задержка видео                           : -80 мс.
Меню
Общее
Полное имя                               : G:\Музыка\Apoptygma Berzerk - Rocket Science (CD & DVD, Limited Edition) - 2009\Apoptygma Berzerk - Rocket Science (DVD-Video, Limited Edition) - 2009\VIDEO_TS\VTS_02_1.VOB
Формат                                   : MPEG-PS
Размер файла                             : 209 Мбайт
Продолжительность                        : 5 м. 32 с.
Режим общего битрейта                    : Переменный
Общий поток                              : 5276 Кбит/сек
Видео
Идентификатор                            : 224 (0xE0)
Формат                                   : MPEG Video
Версия формата                           : Version 2
Профиль формата                          : Main@Main
Параметр BVOP формата                    : Да
Параметр матрицы формата                 : Выборочная
Параметр GOP формата                     : M=3, N=12
Продолжительность                        : 5 м. 32 с.
Вид битрейта                             : Переменный
Битрейт                                  : 4979 Кбит/сек
Максимальный битрейт                     : 7500 Кбит/сек
Ширина                                   : 720 пикселей
Высота                                   : 576 пикселей
Соотношение сторон                       : 16:9
Частота кадров                           : 25,000 кадров/сек
Стандарт вещания                         : PAL
Цветовое пространство                    : YUV
Субдискретизация насыщенности            : 4:2:0
Битовая глубина                          : 8 бит
Тип развёртки                            : Прогрессивная
Метод сжатия                             : С потерями
Бит/(Пиксели*Кадры)                      : 0.480
TimeCode_FirstFrame                      : 00:00:00:00
TimeCode_Source                          : Group of pictures header
Размер потока                            : 197 Мбайт (94%)
Основные цвета                           : BT.601 PAL
Характеристики трансфера                 : BT.470 System B, BT.470 System G
Коэффициенты матрицы                     : BT.601
Аудио
Идентификатор                            : 189 (0xBD)-128 (0x80)
Формат                                   : AC-3
Формат/Информация                        : Audio Coding 3
Расширение режима                        : CM (complete main)
Параметр Endianness формата              : Big
Режим смешивания                         : DVD-Video
Продолжительность                        : 5 м. 32 с.
Вид битрейта                             : Постоянный
Битрейт                                  : 192 Кбит/сек
Каналы                                   : 2 канала
Расположение каналов                     : Front: L R
Частота                                  : 48,0 КГц
Битовая глубина                          : 16 бит
Метод сжатия                             : С потерями
Размер потока                            : 7,60 Мбайт (4%)
Меню
Общее
Полное имя                               : G:\Музыка\Apoptygma Berzerk - Rocket Science (CD & DVD, Limited Edition) - 2009\Apoptygma Berzerk - Rocket Science (DVD-Video, Limited Edition) - 2009\VIDEO_TS\VTS_03_0.BUP
Формат                                   : DVD Video
Профиль формата                          : Program
Размер файла                             : 24,0 Кбайт
Продолжительность                        : 11 м.
Режим общего битрейта                    : Переменный
Общий поток                              : 284 бит/сек
Видео
Идентификатор                            : 224 (0xE0)
Формат                                   : MPEG Video
Версия формата                           : Version 2
Продолжительность                        : 11 м.
Вид битрейта                             : Переменный
Ширина                                   : 720 пикселей
Высота                                   : 576 пикселей
Соотношение сторон                       : 16:9
Частота кадров                           : 25,000 кадров/сек
Стандарт вещания                         : PAL
Метод сжатия                             : С потерями
Аудио
Идентификатор                            : 128 (0x80)
Формат                                   : AC-3
Формат/Информация                        : Audio Coding 3
Продолжительность                        : 11 м.
Каналы                                   : 2 канала
Частота                                  : 48,0 КГц
Метод сжатия                             : С потерями
Язык                                     : English
Меню
Продолжительность                        : 11 м.
00:00:00.000                             : Chapter 1
00:00:49.920                             : Chapter 2
00:02:35.040                             : Chapter 3
00:04:00.480                             : Chapter 4
00:05:43.200                             : Chapter 5
00:06:37.920                             : Chapter 6
00:07:14.400                             : Chapter 7
00:07:50.400                             : Chapter 8
00:08:10.080                             : Chapter 9
00:08:35.520                             : Chapter 10
00:09:07.200                             : Chapter 11
00:09:44.640                             : Chapter 12
00:10:20.160                             : Chapter 13
00:10:43.200                             : Chapter 14
List (Audio)                             : 0
Общее
Полное имя                               : G:\Музыка\Apoptygma Berzerk - Rocket Science (CD & DVD, Limited Edition) - 2009\Apoptygma Berzerk - Rocket Science (DVD-Video, Limited Edition) - 2009\VIDEO_TS\VTS_03_0.IFO
Формат                                   : DVD Video
Профиль формата                          : Program
Размер файла                             : 24,0 Кбайт
Продолжительность                        : 11 м.
Режим общего битрейта                    : Переменный
Общий поток                              : 284 бит/сек
Видео
Идентификатор                            : 224 (0xE0)
Формат                                   : MPEG Video
Версия формата                           : Version 2
Продолжительность                        : 11 м.
Вид битрейта                             : Переменный
Ширина                                   : 720 пикселей
Высота                                   : 576 пикселей
Соотношение сторон                       : 16:9
Частота кадров                           : 25,000 кадров/сек
Стандарт вещания                         : PAL
Метод сжатия                             : С потерями
Аудио
Идентификатор                            : 128 (0x80)
Формат                                   : AC-3
Формат/Информация                        : Audio Coding 3
Продолжительность                        : 11 м.
Каналы                                   : 2 канала
Частота                                  : 48,0 КГц
Метод сжатия                             : С потерями
Язык                                     : English
Меню
Продолжительность                        : 11 м.
00:00:00.000                             : Chapter 1
00:00:49.920                             : Chapter 2
00:02:35.040                             : Chapter 3
00:04:00.480                             : Chapter 4
00:05:43.200                             : Chapter 5
00:06:37.920                             : Chapter 6
00:07:14.400                             : Chapter 7
00:07:50.400                             : Chapter 8
00:08:10.080                             : Chapter 9
00:08:35.520                             : Chapter 10
00:09:07.200                             : Chapter 11
00:09:44.640                             : Chapter 12
00:10:20.160                             : Chapter 13
00:10:43.200                             : Chapter 14
List (Audio)                             : 0
Общее
Полное имя                               : G:\Музыка\Apoptygma Berzerk - Rocket Science (CD & DVD, Limited Edition) - 2009\Apoptygma Berzerk - Rocket Science (DVD-Video, Limited Edition) - 2009\VIDEO_TS\VTS_03_0.VOB
Формат                                   : MPEG-PS
Размер файла                             : 154 Кбайт
Продолжительность                        : 520 мс.
Общий поток                              : 2426 Кбит/сек
Видео
Идентификатор                            : 224 (0xE0)
Формат                                   : MPEG Video
Версия формата                           : Version 2
Профиль формата                          : Main@Main
Параметр BVOP формата                    : Да
Параметр матрицы формата                 : Выборочная
Продолжительность                        : 520 мс.
Максимальный битрейт                     : 2000 Кбит/сек
Ширина                                   : 720 пикселей
Высота                                   : 576 пикселей
Соотношение сторон                       : 4:3
Частота кадров                           : 25,000 кадров/сек
Стандарт вещания                         : PAL
Цветовое пространство                    : YUV
Субдискретизация насыщенности            : 4:2:0
Битовая глубина                          : 8 бит
Тип развёртки                            : Чересстрочная
Порядок развёртки                        : Верхнее поле первое
Метод сжатия                             : С потерями
TimeCode_FirstFrame                      : 00:00:00:00
TimeCode_Source                          : Group of pictures header
Текст
Идентификатор                            : 189 (0xBD)-32 (0x20)
Формат                                   : RLE
Формат/Информация                        : Run-length encoding
Режим смешивания                         : DVD-Video
Задержка видео                           : -80 мс.
Меню
Общее
Полное имя                               : G:\Музыка\Apoptygma Berzerk - Rocket Science (CD & DVD, Limited Edition) - 2009\Apoptygma Berzerk - Rocket Science (DVD-Video, Limited Edition) - 2009\VIDEO_TS\VTS_03_1.VOB
Формат                                   : MPEG-PS
Размер файла                             : 535 Мбайт
Продолжительность                        : 11 м.
Режим общего битрейта                    : Переменный
Общий поток                              : 6487 Кбит/сек
Видео
Идентификатор                            : 224 (0xE0)
Формат                                   : MPEG Video
Версия формата                           : Version 2
Профиль формата                          : Main@Main
Параметр BVOP формата                    : Да
Параметр матрицы формата                 : Выборочная
Параметр GOP формата                     : M=3, N=12
Продолжительность                        : 11 м.
Вид битрейта                             : Переменный
Битрейт                                  : 6166 Кбит/сек
Максимальный битрейт                     : 7700 Кбит/сек
Ширина                                   : 720 пикселей
Высота                                   : 576 пикселей
Соотношение сторон                       : 16:9
Частота кадров                           : 25,000 кадров/сек
Стандарт вещания                         : PAL
Цветовое пространство                    : YUV
Субдискретизация насыщенности            : 4:2:0
Битовая глубина                          : 8 бит
Тип развёртки                            : Чересстрочная
Порядок развёртки                        : Нижнее поле первое
Метод сжатия                             : С потерями
Бит/(Пиксели*Кадры)                      : 0.595
TimeCode_FirstFrame                      : 01:11:58:05
TimeCode_Source                          : Group of pictures header
Размер потока                            : 509 Мбайт (95%)
Основные цвета                           : BT.601 PAL
Характеристики трансфера                 : BT.470 System B, BT.470 System G
Коэффициенты матрицы                     : BT.601
Аудио
Идентификатор                            : 189 (0xBD)-128 (0x80)
Формат                                   : AC-3
Формат/Информация                        : Audio Coding 3
Расширение режима                        : CM (complete main)
Параметр Endianness формата              : Big
Режим смешивания                         : DVD-Video
Продолжительность                        : 11 м.
Вид битрейта                             : Постоянный
Битрейт                                  : 192 Кбит/сек
Каналы                                   : 2 канала
Расположение каналов                     : Front: L R
Частота                                  : 48,0 КГц
Битовая глубина                          : 16 бит
Метод сжатия                             : С потерями
Размер потока                            : 15,8 Мбайт (3%)
Меню
Общее
Полное имя                               : G:\Музыка\Apoptygma Berzerk - Rocket Science (CD & DVD, Limited Edition) - 2009\Apoptygma Berzerk - Rocket Science (DVD-Video, Limited Edition) - 2009\VIDEO_TS\VTS_04_0.BUP
Формат                                   : DVD Video
Профиль формата                          : Program
Размер файла                             : 18,0 Кбайт
Продолжительность                        : 40 с.
Режим общего битрейта                    : Переменный
Общий поток                              : 3686 бит/сек
Видео
Идентификатор                            : 224 (0xE0)
Формат                                   : MPEG Video
Версия формата                           : Version 2
Продолжительность                        : 40 с.
Вид битрейта                             : Переменный
Ширина                                   : 720 пикселей
Высота                                   : 576 пикселей
Соотношение сторон                       : 16:9
Частота кадров                           : 25,000 кадров/сек
Стандарт вещания                         : PAL
Метод сжатия                             : С потерями
Аудио
Идентификатор                            : 128 (0x80)
Формат                                   : AC-3
Формат/Информация                        : Audio Coding 3
Продолжительность                        : 40 с.
Каналы                                   : 2 канала
Частота                                  : 48,0 КГц
Метод сжатия                             : С потерями
Язык                                     : English
Меню
Продолжительность                        : 40 с.
00:00:00.000                             : Chapter 1
List (Audio)                             : 0
Общее
Полное имя                               : G:\Музыка\Apoptygma Berzerk - Rocket Science (CD & DVD, Limited Edition) - 2009\Apoptygma Berzerk - Rocket Science (DVD-Video, Limited Edition) - 2009\VIDEO_TS\VTS_04_0.IFO
Формат                                   : DVD Video
Профиль формата                          : Program
Размер файла                             : 18,0 Кбайт
Продолжительность                        : 40 с.
Режим общего битрейта                    : Переменный
Общий поток                              : 3686 бит/сек
Видео
Идентификатор                            : 224 (0xE0)
Формат                                   : MPEG Video
Версия формата                           : Version 2
Продолжительность                        : 40 с.
Вид битрейта                             : Переменный
Ширина                                   : 720 пикселей
Высота                                   : 576 пикселей
Соотношение сторон                       : 16:9
Частота кадров                           : 25,000 кадров/сек
Стандарт вещания                         : PAL
Метод сжатия                             : С потерями
Аудио
Идентификатор                            : 128 (0x80)
Формат                                   : AC-3
Формат/Информация                        : Audio Coding 3
Продолжительность                        : 40 с.
Каналы                                   : 2 канала
Частота                                  : 48,0 КГц
Метод сжатия                             : С потерями
Язык                                     : English
Меню
Продолжительность                        : 40 с.
00:00:00.000                             : Chapter 1
List (Audio)                             : 0
Общее
Полное имя                               : G:\Музыка\Apoptygma Berzerk - Rocket Science (CD & DVD, Limited Edition) - 2009\Apoptygma Berzerk - Rocket Science (DVD-Video, Limited Edition) - 2009\VIDEO_TS\VTS_04_0.VOB
Формат                                   : MPEG-PS
Размер файла                             : 154 Кбайт
Продолжительность                        : 520 мс.
Общий поток                              : 2426 Кбит/сек
Видео
Идентификатор                            : 224 (0xE0)
Формат                                   : MPEG Video
Версия формата                           : Version 2
Профиль формата                          : Main@Main
Параметр BVOP формата                    : Да
Параметр матрицы формата                 : Выборочная
Продолжительность                        : 520 мс.
Максимальный битрейт                     : 2000 Кбит/сек
Ширина                                   : 720 пикселей
Высота                                   : 576 пикселей
Соотношение сторон                       : 4:3
Частота кадров                           : 25,000 кадров/сек
Стандарт вещания                         : PAL
Цветовое пространство                    : YUV
Субдискретизация насыщенности            : 4:2:0
Битовая глубина                          : 8 бит
Тип развёртки                            : Чересстрочная
Порядок развёртки                        : Верхнее поле первое
Метод сжатия                             : С потерями
TimeCode_FirstFrame                      : 00:00:00:00
TimeCode_Source                          : Group of pictures header
Текст
Идентификатор                            : 189 (0xBD)-32 (0x20)
Формат                                   : RLE
Формат/Информация                        : Run-length encoding
Режим смешивания                         : DVD-Video
Задержка видео                           : -80 мс.
Меню
Общее
Полное имя                               : G:\Музыка\Apoptygma Berzerk - Rocket Science (CD & DVD, Limited Edition) - 2009\Apoptygma Berzerk - Rocket Science (DVD-Video, Limited Edition) - 2009\VIDEO_TS\VTS_04_1.VOB
Формат                                   : MPEG-PS
Размер файла                             : 31,0 Мбайт
Продолжительность                        : 40 с.
Режим общего битрейта                    : Переменный
Общий поток                              : 6498 Кбит/сек
Видео
Идентификатор                            : 224 (0xE0)
Формат                                   : MPEG Video
Версия формата                           : Version 2
Профиль формата                          : Main@Main
Параметр BVOP формата                    : Да
Параметр матрицы формата                 : Выборочная
Параметр GOP формата                     : M=3, N=12
Продолжительность                        : 40 с.
Вид битрейта                             : Переменный
Битрейт                                  : 6177 Кбит/сек
Максимальный битрейт                     : 7500 Кбит/сек
Ширина                                   : 720 пикселей
Высота                                   : 576 пикселей
Соотношение сторон                       : 16:9
Частота кадров                           : 25,000 кадров/сек
Стандарт вещания                         : PAL
Цветовое пространство                    : YUV
Субдискретизация насыщенности            : 4:2:0
Битовая глубина                          : 8 бит
Тип развёртки                            : Прогрессивная
Метод сжатия                             : С потерями
Бит/(Пиксели*Кадры)                      : 0.596
TimeCode_FirstFrame                      : 00:00:00:00
TimeCode_Source                          : Group of pictures header
Размер потока                            : 29,5 Мбайт (95%)
Основные цвета                           : BT.601 PAL
Характеристики трансфера                 : BT.470 System B, BT.470 System G
Коэффициенты матрицы                     : BT.601
Аудио
Идентификатор                            : 189 (0xBD)-128 (0x80)
Формат                                   : AC-3
Формат/Информация                        : Audio Coding 3
Расширение режима                        : CM (complete main)
Параметр Endianness формата              : Big
Режим смешивания                         : DVD-Video
Продолжительность                        : 40 с.
Вид битрейта                             : Постоянный
Битрейт                                  : 192 Кбит/сек
Каналы                                   : 2 канала
Расположение каналов                     : Front: L R
Частота                                  : 48,0 КГц
Битовая глубина                          : 16 бит
Метод сжатия                             : С потерями
Размер потока                            : 938 Кбайт (3%)
Меню
Общее
Полное имя                               : G:\Музыка\Apoptygma Berzerk - Rocket Science (CD & DVD, Limited Edition) - 2009\Apoptygma Berzerk - Rocket Science (DVD-Video, Limited Edition) - 2009\VIDEO_TS\VTS_05_0.BUP
Формат                                   : DVD Video
Профиль формата                          : Program
Размер файла                             : 18,0 Кбайт
Продолжительность                        : 1 м. 40 с.
Режим общего битрейта                    : Переменный
Общий поток                              : 1475 бит/сек
Видео
Идентификатор                            : 224 (0xE0)
Формат                                   : MPEG Video
Версия формата                           : Version 2
Продолжительность                        : 1 м. 40 с.
Вид битрейта                             : Переменный
Ширина                                   : 720 пикселей
Высота                                   : 576 пикселей
Соотношение сторон                       : 16:9
Частота кадров                           : 25,000 кадров/сек
Стандарт вещания                         : PAL
Метод сжатия                             : С потерями
Аудио
Идентификатор                            : 128 (0x80)
Формат                                   : AC-3
Формат/Информация                        : Audio Coding 3
Продолжительность                        : 1 м. 40 с.
Каналы                                   : 2 канала
Частота                                  : 48,0 КГц
Метод сжатия                             : С потерями
Язык                                     : English
Меню
Продолжительность                        : 1 м. 40 с.
00:00:00.000                             : Chapter 1
List (Audio)                             : 0
Общее
Полное имя                               : G:\Музыка\Apoptygma Berzerk - Rocket Science (CD & DVD, Limited Edition) - 2009\Apoptygma Berzerk - Rocket Science (DVD-Video, Limited Edition) - 2009\VIDEO_TS\VTS_05_0.IFO
Формат                                   : DVD Video
Профиль формата                          : Program
Размер файла                             : 18,0 Кбайт
Продолжительность                        : 1 м. 40 с.
Режим общего битрейта                    : Переменный
Общий поток                              : 1475 бит/сек
Видео
Идентификатор                            : 224 (0xE0)
Формат                                   : MPEG Video
Версия формата                           : Version 2
Продолжительность                        : 1 м. 40 с.
Вид битрейта                             : Переменный
Ширина                                   : 720 пикселей
Высота                                   : 576 пикселей
Соотношение сторон                       : 16:9
Частота кадров                           : 25,000 кадров/сек
Стандарт вещания                         : PAL
Метод сжатия                             : С потерями
Аудио
Идентификатор                            : 128 (0x80)
Формат                                   : AC-3
Формат/Информация                        : Audio Coding 3
Продолжительность                        : 1 м. 40 с.
Каналы                                   : 2 канала
Частота                                  : 48,0 КГц
Метод сжатия                             : С потерями
Язык                                     : English
Меню
Продолжительность                        : 1 м. 40 с.
00:00:00.000                             : Chapter 1
List (Audio)                             : 0
Общее
Полное имя                               : G:\Музыка\Apoptygma Berzerk - Rocket Science (CD & DVD, Limited Edition) - 2009\Apoptygma Berzerk - Rocket Science (DVD-Video, Limited Edition) - 2009\VIDEO_TS\VTS_05_0.VOB
Формат                                   : MPEG-PS
Размер файла                             : 154 Кбайт
Продолжительность                        : 520 мс.
Общий поток                              : 2426 Кбит/сек
Видео
Идентификатор                            : 224 (0xE0)
Формат                                   : MPEG Video
Версия формата                           : Version 2
Профиль формата                          : Main@Main
Параметр BVOP формата                    : Да
Параметр матрицы формата                 : Выборочная
Продолжительность                        : 520 мс.
Максимальный битрейт                     : 2000 Кбит/сек
Ширина                                   : 720 пикселей
Высота                                   : 576 пикселей
Соотношение сторон                       : 4:3
Частота кадров                           : 25,000 кадров/сек
Стандарт вещания                         : PAL
Цветовое пространство                    : YUV
Субдискретизация насыщенности            : 4:2:0
Битовая глубина                          : 8 бит
Тип развёртки                            : Чересстрочная
Порядок развёртки                        : Верхнее поле первое
Метод сжатия                             : С потерями
TimeCode_FirstFrame                      : 00:00:00:00
TimeCode_Source                          : Group of pictures header
Текст
Идентификатор                            : 189 (0xBD)-32 (0x20)
Формат                                   : RLE
Формат/Информация                        : Run-length encoding
Режим смешивания                         : DVD-Video
Задержка видео                           : -80 мс.
Меню
Общее
Полное имя                               : G:\Музыка\Apoptygma Berzerk - Rocket Science (CD & DVD, Limited Edition) - 2009\Apoptygma Berzerk - Rocket Science (DVD-Video, Limited Edition) - 2009\VIDEO_TS\VTS_05_1.VOB
Формат                                   : MPEG-PS
Размер файла                             : 72,3 Мбайт
Продолжительность                        : 1 м. 40 с.
Режим общего битрейта                    : Переменный
Общий поток                              : 6067 Кбит/сек
Видео
Идентификатор                            : 224 (0xE0)
Формат                                   : MPEG Video
Версия формата                           : Version 2
Профиль формата                          : Main@Main
Параметр BVOP формата                    : Да
Параметр матрицы формата                 : Выборочная
Параметр GOP формата                     : M=3, N=12
Продолжительность                        : 1 м. 40 с.
Вид битрейта                             : Переменный
Битрейт                                  : 5754 Кбит/сек
Максимальный битрейт                     : 7500 Кбит/сек
Ширина                                   : 720 пикселей
Высота                                   : 576 пикселей
Соотношение сторон                       : 16:9
Частота кадров                           : 25,000 кадров/сек
Стандарт вещания                         : PAL
Цветовое пространство                    : YUV
Субдискретизация насыщенности            : 4:2:0
Битовая глубина                          : 8 бит
Тип развёртки                            : Прогрессивная
Метод сжатия                             : С потерями
Бит/(Пиксели*Кадры)                      : 0.555
TimeCode_FirstFrame                      : 00:00:00:00
TimeCode_Source                          : Group of pictures header
Размер потока                            : 68,6 Мбайт (95%)
Основные цвета                           : BT.601 PAL
Характеристики трансфера                 : BT.470 System B, BT.470 System G
Коэффициенты матрицы                     : BT.601
Аудио
Идентификатор                            : 189 (0xBD)-128 (0x80)
Формат                                   : AC-3
Формат/Информация                        : Audio Coding 3
Расширение режима                        : CM (complete main)
Параметр Endianness формата              : Big
Режим смешивания                         : DVD-Video
Продолжительность                        : 1 м. 40 с.
Вид битрейта                             : Постоянный
Битрейт                                  : 192 Кбит/сек
Каналы                                   : 2 канала
Расположение каналов                     : Front: L R
Частота                                  : 48,0 КГц
Битовая глубина                          : 16 бит
Метод сжатия                             : С потерями
Размер потока                            : 2,29 Мбайт (3%)
Меню
Общее
Полное имя                               : G:\Музыка\Apoptygma Berzerk - Rocket Science (CD & DVD, Limited Edition) - 2009\Apoptygma Berzerk - Rocket Science (DVD-Video, Limited Edition) - 2009\VIDEO_TS\VTS_06_0.BUP
Формат                                   : DVD Video
Профиль формата                          : Program
Размер файла                             : 26,0 Кбайт
Продолжительность                        : 12 м.
Режим общего битрейта                    : Переменный
Общий поток                              : 289 бит/сек
Видео
Идентификатор                            : 224 (0xE0)
Формат                                   : MPEG Video
Версия формата                           : Version 2
Продолжительность                        : 12 м.
Вид битрейта                             : Переменный
Ширина                                   : 720 пикселей
Высота                                   : 576 пикселей
Соотношение сторон                       : 16:9
Частота кадров                           : 25,000 кадров/сек
Стандарт вещания                         : PAL
Метод сжатия                             : С потерями
Аудио
Идентификатор                            : 128 (0x80)
Формат                                   : AC-3
Формат/Информация                        : Audio Coding 3
Продолжительность                        : 12 м.
Каналы                                   : 2 канала
Частота                                  : 48,0 КГц
Метод сжатия                             : С потерями
Язык                                     : English
Меню
Продолжительность                        : 12 м.
00:00:00.000                             : Chapter 1
List (Audio)                             : 0
Общее
Полное имя                               : G:\Музыка\Apoptygma Berzerk - Rocket Science (CD & DVD, Limited Edition) - 2009\Apoptygma Berzerk - Rocket Science (DVD-Video, Limited Edition) - 2009\VIDEO_TS\VTS_06_0.IFO
Формат                                   : DVD Video
Профиль формата                          : Program
Размер файла                             : 26,0 Кбайт
Продолжительность                        : 12 м.
Режим общего битрейта                    : Переменный
Общий поток                              : 289 бит/сек
Видео
Идентификатор                            : 224 (0xE0)
Формат                                   : MPEG Video
Версия формата                           : Version 2
Продолжительность                        : 12 м.
Вид битрейта                             : Переменный
Ширина                                   : 720 пикселей
Высота                                   : 576 пикселей
Соотношение сторон                       : 16:9
Частота кадров                           : 25,000 кадров/сек
Стандарт вещания                         : PAL
Метод сжатия                             : С потерями
Аудио
Идентификатор                            : 128 (0x80)
Формат                                   : AC-3
Формат/Информация                        : Audio Coding 3
Продолжительность                        : 12 м.
Каналы                                   : 2 канала
Частота                                  : 48,0 КГц
Метод сжатия                             : С потерями
Язык                                     : English
Меню
Продолжительность                        : 12 м.
00:00:00.000                             : Chapter 1
List (Audio)                             : 0
Общее
Полное имя                               : G:\Музыка\Apoptygma Berzerk - Rocket Science (CD & DVD, Limited Edition) - 2009\Apoptygma Berzerk - Rocket Science (DVD-Video, Limited Edition) - 2009\VIDEO_TS\VTS_06_0.VOB
Формат                                   : MPEG-PS
Размер файла                             : 154 Кбайт
Продолжительность                        : 520 мс.
Общий поток                              : 2426 Кбит/сек
Видео
Идентификатор                            : 224 (0xE0)
Формат                                   : MPEG Video
Версия формата                           : Version 2
Профиль формата                          : Main@Main
Параметр BVOP формата                    : Да
Параметр матрицы формата                 : Выборочная
Продолжительность                        : 520 мс.
Максимальный битрейт                     : 2000 Кбит/сек
Ширина                                   : 720 пикселей
Высота                                   : 576 пикселей
Соотношение сторон                       : 4:3
Частота кадров                           : 25,000 кадров/сек
Стандарт вещания                         : PAL
Цветовое пространство                    : YUV
Субдискретизация насыщенности            : 4:2:0
Битовая глубина                          : 8 бит
Тип развёртки                            : Чересстрочная
Порядок развёртки                        : Верхнее поле первое
Метод сжатия                             : С потерями
TimeCode_FirstFrame                      : 00:00:00:00
TimeCode_Source                          : Group of pictures header
Текст
Идентификатор                            : 189 (0xBD)-32 (0x20)
Формат                                   : RLE
Формат/Информация                        : Run-length encoding
Режим смешивания                         : DVD-Video
Задержка видео                           : -80 мс.
Меню
Общее
Полное имя                               : G:\Музыка\Apoptygma Berzerk - Rocket Science (CD & DVD, Limited Edition) - 2009\Apoptygma Berzerk - Rocket Science (DVD-Video, Limited Edition) - 2009\VIDEO_TS\VTS_06_1.VOB
Формат                                   : MPEG-PS
Размер файла                             : 573 Мбайт
Продолжительность                        : 12 м.
Режим общего битрейта                    : Переменный
Общий поток                              : 6514 Кбит/сек
Видео
Идентификатор                            : 224 (0xE0)
Формат                                   : MPEG Video
Версия формата                           : Version 2
Профиль формата                          : Main@Main
Параметр BVOP формата                    : Да
Параметр матрицы формата                 : Выборочная
Параметр GOP формата                     : M=3, N=12
Продолжительность                        : 12 м.
Вид битрейта                             : Переменный
Битрейт                                  : 6192 Кбит/сек
Максимальный битрейт                     : 7700 Кбит/сек
Ширина                                   : 720 пикселей
Высота                                   : 576 пикселей
Соотношение сторон                       : 16:9
Частота кадров                           : 25,000 кадров/сек
Стандарт вещания                         : PAL
Цветовое пространство                    : YUV
Субдискретизация насыщенности            : 4:2:0
Битовая глубина                          : 8 бит
Тип развёртки                            : Чересстрочная
Порядок развёртки                        : Нижнее поле первое
Метод сжатия                             : С потерями
Бит/(Пиксели*Кадры)                      : 0.597
TimeCode_FirstFrame                      : 01:00:00:00
TimeCode_Source                          : Group of pictures header
Размер потока                            : 544 Мбайт (95%)
Основные цвета                           : BT.601 PAL
Характеристики трансфера                 : BT.470 System B, BT.470 System G
Коэффициенты матрицы                     : BT.601
Аудио
Идентификатор                            : 189 (0xBD)-128 (0x80)
Формат                                   : AC-3
Формат/Информация                        : Audio Coding 3
Расширение режима                        : CM (complete main)
Параметр Endianness формата              : Big
Режим смешивания                         : DVD-Video
Продолжительность                        : 12 м.
Вид битрейта                             : Постоянный
Битрейт                                  : 192 Кбит/сек
Каналы                                   : 2 канала
Расположение каналов                     : Front: L R
Частота                                  : 48,0 КГц
Битовая глубина                          : 16 бит
Метод сжатия                             : С потерями
Размер потока                            : 16,9 Мбайт (3%)
Меню


Скриншоты меню




Скриншоты










Скриншоты с учетом Анаморфирования











Apoptygma Berzerk - Rocket Science (CD Audio, Ltd) - 2009

                                                                                                                                                               
                       
                       
                       
                       
                       
                                磁力下载:
                                                               
                                       
游客,本主题需向作者支付 7金币 才能浏览,金币充值, 免回复、免金币,直接查看内容请开通VIP购买主题

                                               
  • 1.91 GB
                                                                                           
  • 温馨提示

    记得善用社区搜索功能,那里可能会有你想要的资源;论坛站内搜索

    如果你有什么需要的资源可以去资源求档发帖,求助社区的网友,我们会在第一时间给你回复哦;资源求档

    对于本社区网盘链接失效密码错误各种报错请在反馈板块反馈报错发帖,您的支持,是我们发展的最大动力;投诉建议

    回复

    使用道具 举报

    您需要登录后才可以回帖 登录 | 立即注册 微信登录

    本版积分规则

    关注0

    粉丝8

    帖子38024

    发布主题
    阅读排行更多+
    关闭

    站长推荐上一条 /1 下一条

    活动提示

    双11活动通知:

    赞助永久VIP会员,赠送希捷/西部机械硬盘或者百度网盘SVIP一年(充值到你网盘帐号)+5000GB HIRES资源活动开启通知。

    地址:https://www.maomicd.com/huodong/

    我知道了
    收藏帖子 返回列表 这是一个自定义按钮
    音乐分享,音乐下载。
    微信公众号
    微信号:maomiyinyue
    意见反馈:admin@maomicd.com

    加入我们的官方QQ群和微信群

    Powered by Discuz! X3.4 Archiver|手机版|小黑屋|猫咪音乐网 ( 苏ICP备20015413号 )|( 苏公网安备 32030502000272号) 繁體

    JS of wanmeiff.com and vcpic.com Please keep this copyright information, respect of, thank you!JS of wanmeiff.com and vcpic.com Please keep this copyright information, respect of, thank you!

    GMT+8, 2020-12-4 16:04