请选择 进入手机版 | 继续访问电脑版

自购原抓音乐圈:只有自购、合购、原抓级高解析(hires、sacd、dsd)正版音乐资源分享!【点我打开
广告

[电子音乐] Spandau Ballet - The Reformation Tour - Live At The Q2 [2009, Synthpop, New Wave

[复制链接]
沙田实名认证 发表于 2020-10-30 21:25:04 | 显示全部楼层 |阅读模式 打印 上一主题 下一主题
Spandau Ballet - The Reformation Tour - Live At The Q2
Страна: England
Жанр: Synthpop, New Wave
Продолжительность: 01:59:30min + 00:27:37min
Год выпуска: 2009 г.
Лейбл: Eagle Vision/EVO Sound
Описание:
Tony Hadley - vocals
Gary Kemp - guitar vocals
Martin Kemp - bass
Steve Norman - saxophone keyboards guitar vocals
John Keeble - drums
David Tench - keyboards, backing vocals
Dawn Joseph - backing vocals
Треклист:
1. To Cut A Long Story Short
2. The Freeze
3. Highly Strung
4. Only When You Leave
5. I'll Fly For You
6. How Many Lies
7. Virgin
8. She Loved Like Diamond
9. Once More
10. Round And Round
11. Man In Chains
12. With The Pride
13. Through The Barricades
14. Instinction
15. Communication
16. Lifeline
17. Chant No. 1/Paint Me Down
18. True
19. Fight For Ourselves
20. Gold
Spandau Return
Разбивка на главы по трекам: есть
Качество : DVD9
Формат: DVD video
Видео кодек: MPEG2
Аудио кодек: AC3
Видео: NTSC, 720x480pixels, (16:9), 29.970 fps, 6 148 Kbps, 0.594Bits
Аудио: AC-3, 192 Kbps, 2 channels
Аудио2: AC-3, 384 Kbps, 6 channels
Аудио3: DTS, 755 Kbps, 6 channels
DVDinfo

Complete name         : O:\Spandau Ballet - The Reformation Tour 2009\VIDEO_TS\VTS_01_1.VOB
Format                           : MPEG-PS
File size                        : 1 024 MiB
Duration                         : 18mn 45s
Overall bit rate                 : 7 630 Kbps
Video
ID                               : 224 (0xE0)
Format                           : MPEG Video
Format version                   : Version 2
Format profile                   : Main@Main
Format settings, BVOP            : Yes
Format settings, Matrix          : Custom
Duration                         : 18mn 45s
Bit rate mode                    : Variable
Bit rate                         : 6 148 Kbps
Maximum bit rate                 : 9 800 Kbps
Width                            : 720 pixels
Height                           : 480 pixels
Display aspect ratio             : 16:9
Frame rate                       : 29.970 fps
Standard                         : NTSC
Color space                      : YUV
Chroma subsampling               : 4:2:0
Bit depth                        : 8 bits
Scan type                        : Interlaced
Scan order                       : Top Field First
Compression mode                 : Lossy
Bits/(Pixel*Frame)               : 0.594
Stream size                      : 825 MiB (81%)
Audio #1
ID                               : 189 (0xBD)-128 (0x80)
Format                           : AC-3
Format/Info                      : Audio Coding 3
Mode extension                   : CM (complete main)
Muxing mode                      : DVD-Video
Duration                         : 18mn 45s
Bit rate mode                    : Constant
Bit rate                         : 192 Kbps
Channel(s)                       : 2 channels
Channel positions                : Front: L R
Sampling rate                    : 48.0 KHz
Bit depth                        : 16 bits
Compression mode                 : Lossy
Stream size                      : 25.8 MiB (3%)
Audio #2
ID                               : 189 (0xBD)-129 (0x81)
Format                           : AC-3
Format/Info                      : Audio Coding 3
Mode extension                   : CM (complete main)
Muxing mode                      : DVD-Video
Duration                         : 18mn 45s
Bit rate mode                    : Constant
Bit rate                         : 384 Kbps
Channel(s)                       : 6 channels
Channel positions                : Front: L C R, Side: L R, LFE
Sampling rate                    : 48.0 KHz
Bit depth                        : 16 bits
Compression mode                 : Lossy
Stream size                      : 51.5 MiB (5%)
Audio #3
ID                               : 189 (0xBD)-138 (0x8A)
Format                           : DTS
Format/Info                      : Digital Theater Systems
Muxing mode                      : DVD-Video
Duration                         : 18mn 45s
Bit rate mode                    : Constant
Bit rate                         : 755 Kbps
Channel(s)                       : 6 channels
Channel positions                : Front: L C R, Side: L R, LFE
Sampling rate                    : 48.0 KHz
Bit depth                        : 16 bits
Compression mode                 : Lossy
Stream size                      : 101 MiB (10%)


Скриншоты меню






Скриншоты










                                                                                                                                                               
                       
                       
                       
                       
                       
                                磁力下载:
                                                               
                                       
游客,本主题需向作者支付 7金币 才能浏览,金币充值, 免回复、免金币,直接查看内容请开通VIP购买主题

                                               
  • 7.76 GB
                                                                                           
  • 温馨提示

    记得善用社区搜索功能,那里可能会有你想要的资源;论坛站内搜索

    如果你有什么需要的资源可以去资源求档发帖,求助社区的网友,我们会在第一时间给你回复哦;资源求档

    对于本社区网盘链接失效密码错误各种报错请在反馈板块反馈报错发帖,您的支持,是我们发展的最大动力;投诉建议

    回复

    使用道具 举报

    您需要登录后才可以回帖 登录 | 立即注册 微信登录

    本版积分规则

    关注1

    粉丝17

    帖子33840

    发布主题
    阅读排行更多+
    关闭

    站长推荐上一条 /1 下一条

    活动提示

    双11活动通知:

    赞助永久VIP会员,赠送希捷/西部机械硬盘或者百度网盘SVIP一年(充值到你网盘帐号)+5000GB HIRES资源活动开启通知。

    地址:https://www.maomicd.com/huodong/

    我知道了
    收藏帖子 返回列表 这是一个自定义按钮
    音乐分享,音乐下载。
    微信公众号
    微信号:maomiyinyue
    意见反馈:admin@maomicd.com

    加入我们的官方QQ群和微信群

    Powered by Discuz! X3.4 Archiver|手机版|小黑屋|猫咪音乐网 ( 苏ICP备20015413号 )|( 苏公网安备 32030502000272号) 繁體

    JS of wanmeiff.com and vcpic.com Please keep this copyright information, respect of, thank you!JS of wanmeiff.com and vcpic.com Please keep this copyright information, respect of, thank you!

    GMT+8, 2020-11-26 14:43