请选择 进入手机版 | 继续访问电脑版

自购原抓音乐圈:只有自购、合购、原抓级高解析(hires、sacd、dsd)正版音乐资源分享!【点我打开
广告

[电子音乐] Various - Labels.vision [2002, Electronic, Hip Hop, Non-Music, DVD5]

[复制链接]
沙田实名认证 发表于 2020-10-30 21:25:01 | 显示全部楼层 |阅读模式 打印 上一主题 下一主题
Various - Labels.vision
Страна: France
Жанр: Electronic, Hip Hop, Non-Music
Продолжительность: около часа
Год выпуска: 2002 г.
Описание: http://www.discogs.com/Various-Labelsvision/release/76379
Треклист: 01 - Cassius - I'm A Woman (New & Exclusive) (3:56)
02 - AIR - How Does It Make You Feel? (3:37)
03 - Black Rebel Motorcycle Club - Love Burns (3:42)
04 - Buscemi - Ramiro's Theme (4:24)
05 - Clinic - Walking With Thee (2:51)
06 - Coparck - Into Routine (3:10)
07 - Gemma Hayes - Documentary (11:00)
08 - Gonzales - Documentary (10:07)
09 - Kings Of Convenience - Failure (3:30)
10 - Playgroup - Number One (3:20)
11 - Röyksopp - Eple (3:30)
12 - Röyksopp - Poor Leno (3:57) [требует принудительного растягивания до 1016x576]
13 - Simian - The Wisp (3:42)
14 - Sofa Surfers - Can I Get A Witness (3:27)
15 - Sondre Lerche - Sleep On Needles (4:24)
16 - Stereo Total - Tanzen In 4 Ech (2:20)
17 - Maxwell Implosion, The - L'Homme En Peluche (3:32)
18 - Notwist, The - Pick Up The Phone (3:36)
19 - Puppetmastaz, The - Documentary (4:12)
20 - We In Music - Grandlife (3:00)
Разбивка на главы по трекам: есть
Качество : DVD5
Формат: DVD video
Видео кодек: MPEG2
Аудио кодек: AC3
Видео: MPEG2, 720x576, 4:3, 5300 Kbps, 25 fps
Аудио: AC3, 384 Kbps, 48 kHz, Stereo
DVDinfo

General
Complete name : /Volumes/torrents/DOWNLOAD/Labels.vision (2002) DVD/VIDEO_TS/VIDEO_TS.BUP
Format : DVD Video
Format profile : Menu
File size : 12.0 KiB
Overall bit rate mode : Variable
Video
ID : 224 (0xE0)
Format : MPEG Video
Format version : Version 2
Bit rate mode : Variable
Width : 720 pixels
Height : 576 pixels
Display aspect ratio : 4:3
Frame rate : 25.000 fps
Standard : PAL
Compression mode : Lossy
Text
Format : RLE
Format/Info : Run-length encoding
Bit depth : 2 bits
General
Complete name : /Volumes/torrents/DOWNLOAD/Labels.vision (2002) DVD/VIDEO_TS/VIDEO_TS.IFO
Format : DVD Video
Format profile : Menu
File size : 12.0 KiB
Overall bit rate mode : Variable
Video
ID : 224 (0xE0)
Format : MPEG Video
Format version : Version 2
Bit rate mode : Variable
Width : 720 pixels
Height : 576 pixels
Display aspect ratio : 4:3
Frame rate : 25.000 fps
Standard : PAL
Compression mode : Lossy
Text
Format : RLE
Format/Info : Run-length encoding
Bit depth : 2 bits
General
Complete name : /Volumes/torrents/DOWNLOAD/Labels.vision (2002) DVD/VIDEO_TS/VIDEO_TS.VOB
Format : MPEG-PS
File size : 10.0 KiB
Duration : 40ms
Overall bit rate : 2 048 Kbps
Video
ID : 224 (0xE0)
Format : MPEG Video
Format version : Version 2
Format profile : Main@Main
Format settings, BVOP : No
Format settings, Matrix : Custom
Duration : 40ms
Maximum bit rate : 9 000 Kbps
Width : 720 pixels
Height : 576 pixels
Display aspect ratio : 4:3
Frame rate : 25.000 fps
Standard : PAL
Color space : YUV
Chroma subsampling : 4:2:0
Bit depth : 8 bits
Scan type : Progressive
Scan order : Top Field First
Compression mode : Lossy
Time code of first frame : 00:00:00:00
Time code source : Group of pictures header
Color primaries : BT.601 NTSC
Transfer characteristics : BT.601
Matrix coefficients : BT.601
Menu
General
Complete name : /Volumes/torrents/DOWNLOAD/Labels.vision (2002) DVD/VIDEO_TS/VTS_01_0.BUP
Format : DVD Video
Format profile : Program
File size : 50.0 KiB
Duration : 11mn 0s
Overall bit rate mode : Variable
Overall bit rate : 620 bps
Video
ID : 224 (0xE0)
Format : MPEG Video
Format version : Version 2
Duration : 11mn 0s
Bit rate mode : Variable
Width : 720 pixels
Height : 576 pixels
Display aspect ratio : 4:3
Frame rate : 25.000 fps
Standard : PAL
Compression mode : Lossy
Audio
ID : 128 (0x80)
Format : AC-3
Format/Info : Audio Coding 3
Duration : 11mn 0s
Channel(s) : 2 channels
Sampling rate : 48.0 KHz
Compression mode : Lossy
Menu #1
Duration : 3mn 38s
00:00:00.000 : Chapter 1
00:00:00.400 : Chapter 2
List (Audio) : 0
Menu #2
Duration : 3mn 50s
00:00:00.000 : Chapter 1
00:00:00.400 : Chapter 2
List (Audio) : 0
Menu #3
Duration : 4mn 26s
00:00:00.000 : Chapter 1
00:00:00.400 : Chapter 2
List (Audio) : 0
Menu #4
Duration : 3mn 52s
00:00:00.000 : Chapter 1
00:00:00.400 : Chapter 2
List (Audio) : 0
Menu #5
Duration : 2mn 59s
00:00:00.000 : Chapter 1
00:00:00.400 : Chapter 2
List (Audio) : 0
Menu #6
Duration : 3mn 7s
00:00:00.000 : Chapter 1
00:00:00.400 : Chapter 2
List (Audio) : 0
Menu #7
Duration : 11mn 0s
00:00:00.000 : Chapter 1
00:00:00.400 : Chapter 2
List (Audio) : 0
Menu #8
Duration : 400ms
00:00:00.000 : Chapter 1
List (Audio) : 0
General
Complete name : /Volumes/torrents/DOWNLOAD/Labels.vision (2002) DVD/VIDEO_TS/VTS_01_0.IFO
Format : DVD Video
Format profile : Program
File size : 50.0 KiB
Duration : 11mn 0s
Overall bit rate mode : Variable
Overall bit rate : 620 bps
Video
ID : 224 (0xE0)
Format : MPEG Video
Format version : Version 2
Duration : 11mn 0s
Bit rate mode : Variable
Width : 720 pixels
Height : 576 pixels
Display aspect ratio : 4:3
Frame rate : 25.000 fps
Standard : PAL
Compression mode : Lossy
Audio
ID : 128 (0x80)
Format : AC-3
Format/Info : Audio Coding 3
Duration : 11mn 0s
Channel(s) : 2 channels
Sampling rate : 48.0 KHz
Compression mode : Lossy
Menu #1
Duration : 3mn 38s
00:00:00.000 : Chapter 1
00:00:00.400 : Chapter 2
List (Audio) : 0
Menu #2
Duration : 3mn 50s
00:00:00.000 : Chapter 1
00:00:00.400 : Chapter 2
List (Audio) : 0
Menu #3
Duration : 4mn 26s
00:00:00.000 : Chapter 1
00:00:00.400 : Chapter 2
List (Audio) : 0
Menu #4
Duration : 3mn 52s
00:00:00.000 : Chapter 1
00:00:00.400 : Chapter 2
List (Audio) : 0
Menu #5
Duration : 2mn 59s
00:00:00.000 : Chapter 1
00:00:00.400 : Chapter 2
List (Audio) : 0
Menu #6
Duration : 3mn 7s
00:00:00.000 : Chapter 1
00:00:00.400 : Chapter 2
List (Audio) : 0
Menu #7
Duration : 11mn 0s
00:00:00.000 : Chapter 1
00:00:00.400 : Chapter 2
List (Audio) : 0
Menu #8
Duration : 400ms
00:00:00.000 : Chapter 1
List (Audio) : 0
General
Complete name : /Volumes/torrents/DOWNLOAD/Labels.vision (2002) DVD/VIDEO_TS/VTS_01_0.VOB
Format : MPEG-PS
File size : 52.2 MiB
Duration : 81ms
Overall bit rate : 5 409 Mbps
Video
ID : 224 (0xE0)
Format : MPEG Video
Format version : Version 2
Format profile : Main@Main
Format settings, BVOP : No
Format settings, Matrix : Custom
Format settings, GOP : Variable
Duration : 81ms
Maximum bit rate : 9 000 Kbps
Width : 720 pixels
Height : 576 pixels
Display aspect ratio : 4:3
Frame rate : 25.000 fps
Standard : PAL
Color space : YUV
Chroma subsampling : 4:2:0
Bit depth : 8 bits
Scan type : Progressive
Scan order : Top Field First
Compression mode : Lossy
Color primaries : BT.601 NTSC
Transfer characteristics : BT.601
Matrix coefficients : BT.601
Audio
ID : 189 (0xBD)-160 (0xA0)
Format : PCM
Format settings, Endianness : Big
Format settings, Sign : Signed
Muxing mode : DVD-Video
Duration : 81ms
Bit rate mode : Constant
Bit rate : 1 536 Kbps
Channel(s) : 2 channels
Sampling rate : 48.0 KHz
Bit depth : 16 bits
Delay relative to video : 31ms
Stream size : 15.2 KiB (0%)
Text
ID : 189 (0xBD)-32 (0x20)
Format : RLE
Format/Info : Run-length encoding
Muxing mode : DVD-Video
Delay relative to video : 31ms
Menu
General
Complete name : /Volumes/torrents/DOWNLOAD/Labels.vision (2002) DVD/VIDEO_TS/VTS_01_1.VOB
Format : MPEG-PS
File size : 1 024 MiB
Duration : 3mn 6s
Overall bit rate mode : Variable
Overall bit rate : 46.1 Mbps
Video
ID : 224 (0xE0)
Format : MPEG Video
Format version : Version 2
Format profile : Main@Main
Format settings, BVOP : Yes
Format settings, Matrix : Custom
Format settings, GOP : M=3, N=12
Duration : 3mn 6s
Bit rate mode : Variable
Bit rate : 44.8 Mbps
Width : 720 pixels
Height : 576 pixels
Display aspect ratio : 4:3
Frame rate : 25.000 fps
Standard : PAL
Color space : YUV
Chroma subsampling : 4:2:0
Bit depth : 8 bits
Compression mode : Lossy
Bits/(Pixel*Frame) : 4.322
Time code of first frame : 00:00:00:00
Time code source : Group of pictures header
Stream size : 995 MiB (97%)
Color primaries : BT.601 NTSC
Transfer characteristics : BT.601
Matrix coefficients : BT.601
Audio
ID : 189 (0xBD)-128 (0x80)
Format : AC-3
Format/Info : Audio Coding 3
Mode extension : CM (complete main)
Format settings, Endianness : Big
Muxing mode : DVD-Video
Duration : 3mn 6s
Bit rate mode : Constant
Bit rate : 384 Kbps
Channel(s) : 2 channels
Channel positions : Front: L R
Sampling rate : 48.0 KHz
Bit depth : 16 bits
Compression mode : Lossy
Delay relative to video : 2ms
Stream size : 8.52 MiB (1%)
Menu
General
Complete name : /Volumes/torrents/DOWNLOAD/Labels.vision (2002) DVD/VIDEO_TS/VTS_01_2.VOB
Format : MPEG-PS
File size : 1 024 MiB
Duration : 7mn 46s
Overall bit rate mode : Variable
Overall bit rate : 18.4 Mbps
Video
ID : 224 (0xE0)
Format : MPEG Video
Format version : Version 2
Format profile : Main@Main
Format settings, BVOP : Yes
Format settings, Matrix : Custom
Format settings, GOP : M=3, N=12
Duration : 7mn 46s
Bit rate mode : Variable
Bit rate : 17.7 Mbps
Maximum bit rate : 5 300 Kbps
Width : 720 pixels
Height : 576 pixels
Display aspect ratio : 4:3
Frame rate : 25.000 fps
Standard : PAL
Color space : YUV
Chroma subsampling : 4:2:0
Bit depth : 8 bits
Scan type : Interlaced
Scan order : Top Field First
Compression mode : Lossy
Bits/(Pixel*Frame) : 1.705
Time code of first frame : 10:03:06:11
Time code source : Group of pictures header
Stream size : 982 MiB (96%)
Audio
ID : 189 (0xBD)-128 (0x80)
Format : AC-3
Format/Info : Audio Coding 3
Mode extension : CM (complete main)
Format settings, Endianness : Big
Muxing mode : DVD-Video
Duration : 7mn 46s
Bit rate mode : Constant
Bit rate : 384 Kbps
Channel(s) : 2 channels
Channel positions : Front: L R
Sampling rate : 48.0 KHz
Bit depth : 16 bits
Compression mode : Lossy
Stream size : 21.3 MiB (2%)
Menu
General
Complete name : /Volumes/torrents/DOWNLOAD/Labels.vision (2002) DVD/VIDEO_TS/VTS_01_3.VOB
Format : MPEG-PS
File size : 1 024 MiB
Duration : 2mn 5s
Overall bit rate mode : Variable
Overall bit rate : 68.2 Mbps
Video
ID : 224 (0xE0)
Format : MPEG Video
Format version : Version 2
Format profile : Main@Main
Format settings, BVOP : Yes
Format settings, Matrix : Custom
Format settings, GOP : M=3, N=12
Duration : 2mn 5s
Bit rate mode : Variable
Bit rate : 66.5 Mbps
Maximum bit rate : 5 300 Kbps
Width : 720 pixels
Height : 576 pixels
Display aspect ratio : 4:3
Frame rate : 25.000 fps
Standard : PAL
Color space : YUV
Chroma subsampling : 4:2:0
Bit depth : 8 bits
Scan type : Interlaced
Scan order : Top Field First
Compression mode : Lossy
Bits/(Pixel*Frame) : 6.413
Time code of first frame : 10:10:52:17
Time code source : Group of pictures header
Stream size : 997 MiB (97%)
Audio
ID : 189 (0xBD)-128 (0x80)
Format : AC-3
Format/Info : Audio Coding 3
Mode extension : CM (complete main)
Format settings, Endianness : Big
Muxing mode : DVD-Video
Duration : 2mn 5s
Bit rate mode : Constant
Bit rate : 384 Kbps
Channel(s) : 2 channels
Channel positions : Front: L R
Sampling rate : 48.0 KHz
Bit depth : 16 bits
Compression mode : Lossy
Stream size : 5.76 MiB (1%)
Menu
General
Complete name : /Volumes/torrents/DOWNLOAD/Labels.vision (2002) DVD/VIDEO_TS/VTS_01_4.VOB
Format : MPEG-PS
File size : 486 MiB
Duration : 32s 237ms
Overall bit rate mode : Variable
Overall bit rate : 126 Mbps
Video
ID : 224 (0xE0)
Format : MPEG Video
Format version : Version 2
Format profile : Main@Main
Format settings, BVOP : Yes
Format settings, Matrix : Custom
Format settings, GOP : M=3, N=12
Duration : 32s 240ms
Bit rate mode : Variable
Bit rate : 123 Mbps
Maximum bit rate : 5 300 Kbps
Width : 720 pixels
Height : 576 pixels
Display aspect ratio : 4:3
Frame rate : 25.000 fps
Standard : PAL
Color space : YUV
Chroma subsampling : 4:2:0
Bit depth : 8 bits
Scan type : Interlaced
Scan order : Top Field First
Compression mode : Lossy
Bits/(Pixel*Frame) : 11.910
Time code of first frame : 10:31:28:23
Time code source : Group of pictures header
Stream size : 475 MiB (98%)
Audio
ID : 189 (0xBD)-128 (0x80)
Format : AC-3
Format/Info : Audio Coding 3
Mode extension : CM (complete main)
Format settings, Endianness : Big
Muxing mode : DVD-Video
Duration : 32s 237ms
Bit rate mode : Constant
Bit rate : 384 Kbps
Channel(s) : 2 channels
Channel positions : Front: L R
Sampling rate : 48.0 KHz
Bit depth : 16 bits
Compression mode : Lossy
Stream size : 1.48 MiB (0%)
Menu


Скриншоты меню



Скриншоты



















                                                                                                                                                               
                       
                       
                       
                       
                       
                                磁力下载:
                                                               
                                       
游客,本主题需向作者支付 7金币 才能浏览,金币充值, 免回复、免金币,直接查看内容请开通VIP购买主题

                                               
  • 3.53 GB
                                                                                           
  • 温馨提示

    记得善用社区搜索功能,那里可能会有你想要的资源;论坛站内搜索

    如果你有什么需要的资源可以去资源求档发帖,求助社区的网友,我们会在第一时间给你回复哦;资源求档

    对于本社区网盘链接失效密码错误各种报错请在反馈板块反馈报错发帖,您的支持,是我们发展的最大动力;投诉建议

    回复

    使用道具 举报

    您需要登录后才可以回帖 登录 | 立即注册 微信登录

    本版积分规则

    关注1

    粉丝17

    帖子33840

    发布主题
    阅读排行更多+
    关闭

    站长推荐上一条 /1 下一条

    活动提示

    双11活动通知:

    赞助永久VIP会员,赠送希捷/西部机械硬盘或者百度网盘SVIP一年(充值到你网盘帐号)+5000GB HIRES资源活动开启通知。

    地址:https://www.maomicd.com/huodong/

    我知道了
    收藏帖子 返回列表 这是一个自定义按钮
    音乐分享,音乐下载。
    微信公众号
    微信号:maomiyinyue
    意见反馈:admin@maomicd.com

    加入我们的官方QQ群和微信群

    Powered by Discuz! X3.4 Archiver|手机版|小黑屋|猫咪音乐网 ( 苏ICP备20015413号 )|( 苏公网安备 32030502000272号) 繁體

    JS of wanmeiff.com and vcpic.com Please keep this copyright information, respect of, thank you!JS of wanmeiff.com and vcpic.com Please keep this copyright information, respect of, thank you!

    GMT+8, 2020-11-30 12:17