请选择 进入手机版 | 继续访问电脑版

自购原抓音乐圈:只有自购、合购、原抓级高解析(hires、sacd、dsd)正版音乐资源分享!【点我打开
广告

[电子音乐] Rechenzentrum - Silence [2007, abstract, idm, minimal, DVD5]

[复制链接]
全球搬运 发表于 2020-10-30 21:24:34 | 显示全部楼层 |阅读模式 打印 上一主题 下一主题
Rechenzentrum - Silence
Страна: Germany
Жанр: abstract, idm, minimal
Продолжительность: 00:55:27
Год выпуска: 2007 г.
Лейбл: weiser music
Треклист: 01 terra incognita
02 eden
03 jeru salem
04 rublevs refugium
05 ignis
06 pantokrator
07 paradox
08 in exercitium
09 free from care
10 10+5
11 expedition existenz
12 on return
13 eye for an eye
Разбивка на главы по трекам: есть
Качество : DVD5
Формат: DVD video
Видео кодек: MPEG2
Аудио кодек: PCM
Видео: NTSC (720x480) VBR
Аудио: PCM, 2ch, 1411,2 kbps, 44,1kHz
DVDinfo

Общее
Полное имя                               : D:\Rechenzentrum\dvd\VIDEO_TS\VIDEO_TS.BUP
Формат                                   : DVD Video
Профиль формата                          : Menu
Размер файла                             : 12,0 Кбайт
Режим общего битрейта                    : Переменный
Видео
Идентификатор                            : 224 (0xE0)
Формат                                   : MPEG Video
Версия формата                           : Version 2
Вид битрейта                             : Переменный
Ширина                                   : 720 пикселей
Высота                                   : 480 пикселей
Соотношение сторон                       : 4:3
Частота кадров                           : 29,970 кадров/сек
Стандарт вещания                         : NTSC
Метод сжатия                             : С потерями
Текст
Формат                                   : RLE
Формат/Информация                        : Run-length encoding
Битовая глубина                          : 2 бит
Общее
Полное имя                               : D:\Rechenzentrum\dvd\VIDEO_TS\VIDEO_TS.IFO
Формат                                   : DVD Video
Профиль формата                          : Menu
Размер файла                             : 12,0 Кбайт
Режим общего битрейта                    : Переменный
Видео
Идентификатор                            : 224 (0xE0)
Формат                                   : MPEG Video
Версия формата                           : Version 2
Вид битрейта                             : Переменный
Ширина                                   : 720 пикселей
Высота                                   : 480 пикселей
Соотношение сторон                       : 4:3
Частота кадров                           : 29,970 кадров/сек
Стандарт вещания                         : NTSC
Метод сжатия                             : С потерями
Текст
Формат                                   : RLE
Формат/Информация                        : Run-length encoding
Битовая глубина                          : 2 бит
Общее
Полное имя                               : D:\Rechenzentrum\dvd\VIDEO_TS\VIDEO_TS.VOB
Формат                                   : MPEG-PS
Размер файла                             : 8,00 Кбайт
Продолжительность                        : 33 мс.
Общий поток                              : 1986 Кбит/сек
Видео
Идентификатор                            : 224 (0xE0)
Формат                                   : MPEG Video
Версия формата                           : Version 2
Профиль формата                          : Main@Main
Параметр BVOP формата                    : Нет
Параметр матрицы формата                 : Выборочная
Продолжительность                        : 33 мс.
Максимальный битрейт                     : 9000 Кбит/сек
Ширина                                   : 720 пикселей
Высота                                   : 480 пикселей
Соотношение сторон                       : 4:3
Частота кадров                           : 29,970 кадров/сек
Стандарт вещания                         : NTSC
Цветовое пространство                    : YUV
Субдискретизация насыщенности            : 4:2:0
Битовая глубина                          : 8 бит
Тип развёртки                            : Прогрессивная
Порядок развёртки                        : Верхнее поле первое
Метод сжатия                             : С потерями
Основные цвета                           : SMPTE 170M
Характеристики трансфера                 : SMPTE 170M
Коэффициенты матрицы                     : SMPTE 170M
Меню
Общее
Полное имя                               : D:\Rechenzentrum\dvd\VIDEO_TS\VTS_01_0.BUP
Формат                                   : DVD Video
Профиль формата                          : Program
Размер файла                             : 48,0 Кбайт
Продолжительность                        : 55 м.
Режим общего битрейта                    : Переменный
Общий поток                              : 118 бит/сек
Видео
Идентификатор                            : 224 (0xE0)
Формат                                   : MPEG Video
Версия формата                           : Version 2
Продолжительность                        : 55 м.
Вид битрейта                             : Переменный
Ширина                                   : 720 пикселей
Высота                                   : 480 пикселей
Соотношение сторон                       : 4:3
Частота кадров                           : 29,970 кадров/сек
Стандарт вещания                         : NTSC
Метод сжатия                             : С потерями
Аудио
Идентификатор                            : 0 (0x0)
Формат                                   : MPEG Audio
Профиль формата                          : Version 1
Продолжительность                        : 55 м.
Каналы                                   : 2 канала
Частота                                  : 48,0 КГц
Метод сжатия                             : С потерями
Язык                                     : German
Меню
Продолжительность                        : 55 м.
00:00:00.000                             : Chapter 1
00:00:10.000                             : Chapter 2
00:05:45.000                             : Chapter 3
00:12:26.000                             : Chapter 4
00:16:22.500                             : Chapter 5
00:20:13.000                             : Chapter 6
00:24:32.000                             : Chapter 7
00:29:01.500                             : Chapter 8
00:31:05.500                             : Chapter 9
00:35:58.000                             : Chapter 10
00:40:40.000                             : Chapter 11
00:44:46.500                             : Chapter 12
00:47:32.000                             : Chapter 13
00:51:44.000                             : Chapter 14
00:55:26.733                             : Chapter 15
List (Audio)                             : 0
Общее
Полное имя                               : D:\Rechenzentrum\dvd\VIDEO_TS\VTS_01_0.IFO
Формат                                   : DVD Video
Профиль формата                          : Program
Размер файла                             : 48,0 Кбайт
Продолжительность                        : 55 м.
Режим общего битрейта                    : Переменный
Общий поток                              : 118 бит/сек
Видео
Идентификатор                            : 224 (0xE0)
Формат                                   : MPEG Video
Версия формата                           : Version 2
Продолжительность                        : 55 м.
Вид битрейта                             : Переменный
Ширина                                   : 720 пикселей
Высота                                   : 480 пикселей
Соотношение сторон                       : 4:3
Частота кадров                           : 29,970 кадров/сек
Стандарт вещания                         : NTSC
Метод сжатия                             : С потерями
Аудио
Идентификатор                            : 0 (0x0)
Формат                                   : MPEG Audio
Профиль формата                          : Version 1
Продолжительность                        : 55 м.
Каналы                                   : 2 канала
Частота                                  : 48,0 КГц
Метод сжатия                             : С потерями
Язык                                     : German
Меню
Продолжительность                        : 55 м.
00:00:00.000                             : Chapter 1
00:00:10.000                             : Chapter 2
00:05:45.000                             : Chapter 3
00:12:26.000                             : Chapter 4
00:16:22.500                             : Chapter 5
00:20:13.000                             : Chapter 6
00:24:32.000                             : Chapter 7
00:29:01.500                             : Chapter 8
00:31:05.500                             : Chapter 9
00:35:58.000                             : Chapter 10
00:40:40.000                             : Chapter 11
00:44:46.500                             : Chapter 12
00:47:32.000                             : Chapter 13
00:51:44.000                             : Chapter 14
00:55:26.733                             : Chapter 15
List (Audio)                             : 0
Общее
Полное имя                               : D:\Rechenzentrum\dvd\VIDEO_TS\VTS_01_0.VOB
Формат                                   : MPEG-PS
Размер файла                             : 216 Кбайт
Продолжительность                        : 125 мс.
Общий поток                              : 14,2 Мбит/сек
Видео
Идентификатор                            : 224 (0xE0)
Формат                                   : MPEG Video
Версия формата                           : Version 2
Профиль формата                          : Main@Main
Параметр BVOP формата                    : Нет
Параметр матрицы формата                 : Выборочная
Параметр GOP формата                     : N=1
Продолжительность                        : 125 мс.
Максимальный битрейт                     : 9000 Кбит/сек
Ширина                                   : 720 пикселей
Высота                                   : 480 пикселей
Соотношение сторон                       : 4:3
Частота кадров                           : 29,970 кадров/сек
Стандарт вещания                         : NTSC
Цветовое пространство                    : YUV
Субдискретизация насыщенности            : 4:2:0
Битовая глубина                          : 8 бит
Тип развёртки                            : Прогрессивная
Порядок развёртки                        : Верхнее поле первое
Метод сжатия                             : С потерями
Основные цвета                           : SMPTE 170M
Характеристики трансфера                 : SMPTE 170M
Коэффициенты матрицы                     : SMPTE 170M
Текст
Идентификатор                            : 189 (0xBD)-32 (0x20)
Формат                                   : RLE
Формат/Информация                        : Run-length encoding
Режим смешивания                         : DVD-Video
Задержка видео                           : 91 мс.
Меню
Общее
Полное имя                               : D:\Rechenzentrum\dvd\VIDEO_TS\VTS_01_1.VOB
Формат                                   : MPEG-PS
Размер файла                             : 1024 Мбайт
Продолжительность                        : 15 м.
Общий поток                              : 9486 Кбит/сек
Видео
Идентификатор                            : 224 (0xE0)
Формат                                   : MPEG Video
Версия формата                           : Version 2
Профиль формата                          : Main@Main
Параметр BVOP формата                    : Да
Параметр матрицы формата                 : Выборочная
Параметр GOP формата                     : M=3, N=15
Продолжительность                        : 15 м.
Битрейт                                  : 9073 Кбит/сек
Максимальный битрейт                     : 8800 Кбит/сек
Ширина                                   : 720 пикселей
Высота                                   : 480 пикселей
Соотношение сторон                       : 4:3
Частота кадров                           : 29,970 кадров/сек
Стандарт вещания                         : NTSC
Цветовое пространство                    : YUV
Субдискретизация насыщенности            : 4:2:0
Битовая глубина                          : 8 бит
Тип развёртки                            : Чересстрочная
Порядок развёртки                        : Верхнее поле первое
Метод сжатия                             : С потерями
Бит/(Пиксели*Кадры)                      : 0.876
Размер потока                            : 979 Мбайт (96%)
Аудио
Идентификатор                            : 192 (0xC0)
Формат                                   : MPEG Audio
Версия формата                           : Version 1
Профиль формата                          : Layer 2
Продолжительность                        : 15 м.
Вид битрейта                             : Постоянный
Битрейт                                  : 224 Кбит/сек
Каналы                                   : 2 канала
Частота                                  : 48,0 КГц
Метод сжатия                             : С потерями
Размер потока                            : 24,2 Мбайт (2%)
Меню
Общее
Полное имя                               : D:\Rechenzentrum\dvd\VIDEO_TS\VTS_01_2.VOB
Формат                                   : MPEG-PS
Размер файла                             : 1024 Мбайт
Продолжительность                        : 15 м.
Общий поток                              : 9174 Кбит/сек
Видео
Идентификатор                            : 224 (0xE0)
Формат                                   : MPEG Video
Версия формата                           : Version 2
Профиль формата                          : Main@Main
Параметр BVOP формата                    : Да
Параметр матрицы формата                 : Выборочная
Параметр GOP формата                     : M=3, N=15
Продолжительность                        : 15 м.
Битрейт                                  : 8800 Кбит/сек
Ширина                                   : 720 пикселей
Высота                                   : 480 пикселей
Соотношение сторон                       : 4:3
Частота кадров                           : 29,970 кадров/сек
Стандарт вещания                         : NTSC
Цветовое пространство                    : YUV
Субдискретизация насыщенности            : 4:2:0
Битовая глубина                          : 8 бит
Тип развёртки                            : Чересстрочная
Порядок развёртки                        : Верхнее поле первое
Метод сжатия                             : С потерями
Бит/(Пиксели*Кадры)                      : 0.850
Размер потока                            : 978 Мбайт (96%)
Аудио
Идентификатор                            : 192 (0xC0)
Формат                                   : MPEG Audio
Версия формата                           : Version 1
Профиль формата                          : Layer 2
Продолжительность                        : 15 м.
Вид битрейта                             : Постоянный
Битрейт                                  : 224 Кбит/сек
Каналы                                   : 2 канала
Частота                                  : 48,0 КГц
Метод сжатия                             : С потерями
Задержка видео                           : -386 мс.
Размер потока                            : 25,0 Мбайт (2%)
Меню
Общее
Полное имя                               : D:\Rechenzentrum\dvd\VIDEO_TS\VTS_01_3.VOB
Формат                                   : MPEG-PS
Размер файла                             : 1024 Мбайт
Продолжительность                        : 15 м.
Общий поток                              : 9176 Кбит/сек
Видео
Идентификатор                            : 224 (0xE0)
Формат                                   : MPEG Video
Версия формата                           : Version 2
Профиль формата                          : Main@Main
Параметр BVOP формата                    : Да
Параметр матрицы формата                 : Выборочная
Параметр GOP формата                     : M=3, N=15
Продолжительность                        : 15 м.
Битрейт                                  : 8800 Кбит/сек
Ширина                                   : 720 пикселей
Высота                                   : 480 пикселей
Соотношение сторон                       : 4:3
Частота кадров                           : 29,970 кадров/сек
Стандарт вещания                         : NTSC
Цветовое пространство                    : YUV
Субдискретизация насыщенности            : 4:2:0
Битовая глубина                          : 8 бит
Тип развёртки                            : Чересстрочная
Порядок развёртки                        : Верхнее поле первое
Метод сжатия                             : С потерями
Бит/(Пиксели*Кадры)                      : 0.850
Размер потока                            : 979 Мбайт (96%)
Аудио
Идентификатор                            : 192 (0xC0)
Формат                                   : MPEG Audio
Версия формата                           : Version 1
Профиль формата                          : Layer 2
Продолжительность                        : 15 м.
Вид битрейта                             : Постоянный
Битрейт                                  : 224 Кбит/сек
Каналы                                   : 2 канала
Частота                                  : 48,0 КГц
Метод сжатия                             : С потерями
Задержка видео                           : -57 мс.
Размер потока                            : 25,0 Мбайт (2%)
Меню
Общее
Полное имя                               : D:\Rechenzentrum\dvd\VIDEO_TS\VTS_01_4.VOB
Формат                                   : MPEG-PS
Размер файла                             : 571 Мбайт
Продолжительность                        : 8 м. 41 с.
Общий поток                              : 9176 Кбит/сек
Видео
Идентификатор                            : 224 (0xE0)
Формат                                   : MPEG Video
Версия формата                           : Version 2
Профиль формата                          : Main@Main
Параметр BVOP формата                    : Да
Параметр матрицы формата                 : Выборочная
Параметр GOP формата                     : M=3, N=15
Продолжительность                        : 8 м. 41 с.
Битрейт                                  : 8800 Кбит/сек
Ширина                                   : 720 пикселей
Высота                                   : 480 пикселей
Соотношение сторон                       : 4:3
Частота кадров                           : 29,970 кадров/сек
Стандарт вещания                         : NTSC
Цветовое пространство                    : YUV
Субдискретизация насыщенности            : 4:2:0
Битовая глубина                          : 8 бит
Тип развёртки                            : Чересстрочная
Порядок развёртки                        : Верхнее поле первое
Метод сжатия                             : С потерями
Бит/(Пиксели*Кадры)                      : 0.850
Размер потока                            : 545 Мбайт (95%)
Аудио
Идентификатор                            : 192 (0xC0)
Формат                                   : MPEG Audio
Версия формата                           : Version 1
Профиль формата                          : Layer 2
Продолжительность                        : 8 м. 41 с.
Вид битрейта                             : Постоянный
Битрейт                                  : 224 Кбит/сек
Каналы                                   : 2 канала
Частота                                  : 48,0 КГц
Метод сжатия                             : С потерями
Задержка видео                           : -468 мс.
Размер потока                            : 13,9 Мбайт (2%)
Меню
Общее
Полное имя                               : D:\Rechenzentrum\dvd\XTRA_AUDIO\01 Terra Incognita.aif
Формат                                   : AIFF
Формат/Информация                        : Apple/SGI
Размер файла                             : 52,6 Мбайт
Продолжительность                        : 5 м. 12 с.
Режим общего битрейта                    : Постоянный
Общий поток                              : 1411 Кбит/сек
Аудио
Формат                                   : PCM
Параметр Endianness формата              : Big
Идентификатор кодека                     : sowt
Продолжительность                        : 5 м. 12 с.
Вид битрейта                             : Постоянный
Битрейт                                  : 1411,2 Кбит/сек
Каналы                                   : 2 канала
Частота                                  : 44,1 КГц
Битовая глубина                          : 16 бит
Размер потока                            : 52,6 Мбайт (100%)
Общее
Полное имя                               : D:\Rechenzentrum\dvd\XTRA_AUDIO\02 Eden.aif
Формат                                   : AIFF
Формат/Информация                        : Apple/SGI
Размер файла                             : 67,6 Мбайт
Продолжительность                        : 6 м. 41 с.
Режим общего битрейта                    : Постоянный
Общий поток                              : 1411 Кбит/сек
Аудио
Формат                                   : PCM
Параметр Endianness формата              : Big
Идентификатор кодека                     : sowt
Продолжительность                        : 6 м. 41 с.
Вид битрейта                             : Постоянный
Битрейт                                  : 1411,2 Кбит/сек
Каналы                                   : 2 канала
Частота                                  : 44,1 КГц
Битовая глубина                          : 16 бит
Размер потока                            : 67,6 Мбайт (100%)
Общее
Полное имя                               : D:\Rechenzentrum\dvd\XTRA_AUDIO\03 Jeru Salem.aif
Формат                                   : AIFF
Формат/Информация                        : Apple/SGI
Размер файла                             : 39,8 Мбайт
Продолжительность                        : 3 м. 56 с.
Режим общего битрейта                    : Постоянный
Общий поток                              : 1411 Кбит/сек
Аудио
Формат                                   : PCM
Параметр Endianness формата              : Big
Идентификатор кодека                     : sowt
Продолжительность                        : 3 м. 56 с.
Вид битрейта                             : Постоянный
Битрейт                                  : 1411,2 Кбит/сек
Каналы                                   : 2 канала
Частота                                  : 44,1 КГц
Битовая глубина                          : 16 бит
Размер потока                            : 39,8 Мбайт (100%)
Общее
Полное имя                               : D:\Rechenzentrum\dvd\XTRA_AUDIO\04 Rublevs Refugium.aif
Формат                                   : AIFF
Формат/Информация                        : Apple/SGI
Размер файла                             : 38,6 Мбайт
Продолжительность                        : 3 м. 49 с.
Режим общего битрейта                    : Постоянный
Общий поток                              : 1411 Кбит/сек
Аудио
Формат                                   : PCM
Параметр Endianness формата              : Big
Идентификатор кодека                     : sowt
Продолжительность                        : 3 м. 49 с.
Вид битрейта                             : Постоянный
Битрейт                                  : 1411,2 Кбит/сек
Каналы                                   : 2 канала
Частота                                  : 44,1 КГц
Битовая глубина                          : 16 бит
Размер потока                            : 38,6 Мбайт (100%)
Общее
Полное имя                               : D:\Rechenzentrum\dvd\XTRA_AUDIO\05 Ignis.aif
Формат                                   : AIFF
Формат/Информация                        : Apple/SGI
Размер файла                             : 43,9 Мбайт
Продолжительность                        : 4 м. 20 с.
Режим общего битрейта                    : Постоянный
Общий поток                              : 1411 Кбит/сек
Аудио
Формат                                   : PCM
Параметр Endianness формата              : Big
Идентификатор кодека                     : sowt
Продолжительность                        : 4 м. 20 с.
Вид битрейта                             : Постоянный
Битрейт                                  : 1411,2 Кбит/сек
Каналы                                   : 2 канала
Частота                                  : 44,1 КГц
Битовая глубина                          : 16 бит
Размер потока                            : 43,9 Мбайт (100%)
Общее
Полное имя                               : D:\Rechenzentrum\dvd\XTRA_AUDIO\06 Pantokrator.aif
Формат                                   : AIFF
Формат/Информация                        : Apple/SGI
Размер файла                             : 45,3 Мбайт
Продолжительность                        : 4 м. 29 с.
Режим общего битрейта                    : Постоянный
Общий поток                              : 1411 Кбит/сек
Аудио
Формат                                   : PCM
Параметр Endianness формата              : Big
Идентификатор кодека                     : sowt
Продолжительность                        : 4 м. 29 с.
Вид битрейта                             : Постоянный
Битрейт                                  : 1411,2 Кбит/сек
Каналы                                   : 2 канала
Частота                                  : 44,1 КГц
Битовая глубина                          : 16 бит
Размер потока                            : 45,3 Мбайт (100%)
Общее
Полное имя                               : D:\Rechenzentrum\dvd\XTRA_AUDIO\07 Paradox.aif
Формат                                   : AIFF
Формат/Информация                        : Apple/SGI
Размер файла                             : 21,0 Мбайт
Продолжительность                        : 2 м. 4 с.
Режим общего битрейта                    : Постоянный
Общий поток                              : 1411 Кбит/сек
Аудио
Формат                                   : PCM
Параметр Endianness формата              : Big
Идентификатор кодека                     : sowt
Продолжительность                        : 2 м. 4 с.
Вид битрейта                             : Постоянный
Битрейт                                  : 1411,2 Кбит/сек
Каналы                                   : 2 канала
Частота                                  : 44,1 КГц
Битовая глубина                          : 16 бит
Размер потока                            : 21,0 Мбайт (100%)
Общее
Полное имя                               : D:\Rechenzentrum\dvd\XTRA_AUDIO\08 In Exercitium.aif
Формат                                   : AIFF
Формат/Информация                        : Apple/SGI
Размер файла                             : 49,2 Мбайт
Продолжительность                        : 4 м. 52 с.
Режим общего битрейта                    : Постоянный
Общий поток                              : 1411 Кбит/сек
Аудио
Формат                                   : PCM
Параметр Endianness формата              : Big
Идентификатор кодека                     : sowt
Продолжительность                        : 4 м. 52 с.
Вид битрейта                             : Постоянный
Битрейт                                  : 1411,2 Кбит/сек
Каналы                                   : 2 канала
Частота                                  : 44,1 КГц
Битовая глубина                          : 16 бит
Размер потока                            : 49,2 Мбайт (100%)
Общее
Полное имя                               : D:\Rechenzentrum\dvd\XTRA_AUDIO\09 Free From Care.aif
Формат                                   : AIFF
Формат/Информация                        : Apple/SGI
Размер файла                             : 47,6 Мбайт
Продолжительность                        : 4 м. 42 с.
Режим общего битрейта                    : Постоянный
Общий поток                              : 1411 Кбит/сек
Аудио
Формат                                   : PCM
Параметр Endianness формата              : Big
Идентификатор кодека                     : sowt
Продолжительность                        : 4 м. 42 с.
Вид битрейта                             : Постоянный
Битрейт                                  : 1411,2 Кбит/сек
Каналы                                   : 2 канала
Частота                                  : 44,1 КГц
Битовая глубина                          : 16 бит
Размер потока                            : 47,6 Мбайт (100%)
Общее
Полное имя                               : D:\Rechenzentrum\dvd\XTRA_AUDIO\10 10 + 5.aif
Формат                                   : AIFF
Формат/Информация                        : Apple/SGI
Размер файла                             : 41,5 Мбайт
Продолжительность                        : 4 м. 6 с.
Режим общего битрейта                    : Постоянный
Общий поток                              : 1411 Кбит/сек
Аудио
Формат                                   : PCM
Параметр Endianness формата              : Big
Идентификатор кодека                     : sowt
Продолжительность                        : 4 м. 6 с.
Вид битрейта                             : Постоянный
Битрейт                                  : 1411,2 Кбит/сек
Каналы                                   : 2 канала
Частота                                  : 44,1 КГц
Битовая глубина                          : 16 бит
Размер потока                            : 41,5 Мбайт (100%)
Общее
Полное имя                               : D:\Rechenzentrum\dvd\XTRA_AUDIO\11 Expedition Existenz.aif
Формат                                   : AIFF
Формат/Информация                        : Apple/SGI
Размер файла                             : 27,8 Мбайт
Продолжительность                        : 2 м. 44 с.
Режим общего битрейта                    : Постоянный
Общий поток                              : 1411 Кбит/сек
Аудио
Формат                                   : PCM
Параметр Endianness формата              : Big
Идентификатор кодека                     : sowt
Продолжительность                        : 2 м. 44 с.
Вид битрейта                             : Постоянный
Битрейт                                  : 1411,2 Кбит/сек
Каналы                                   : 2 канала
Частота                                  : 44,1 КГц
Битовая глубина                          : 16 бит
Размер потока                            : 27,8 Мбайт (100%)
Общее
Полное имя                               : D:\Rechenzentrum\dvd\XTRA_AUDIO\12 On Return.aif
Формат                                   : AIFF
Формат/Информация                        : Apple/SGI
Размер файла                             : 42,7 Мбайт
Продолжительность                        : 4 м. 13 с.
Режим общего битрейта                    : Постоянный
Общий поток                              : 1411 Кбит/сек
Аудио
Формат                                   : PCM
Параметр Endianness формата              : Big
Идентификатор кодека                     : sowt
Продолжительность                        : 4 м. 13 с.
Вид битрейта                             : Постоянный
Битрейт                                  : 1411,2 Кбит/сек
Каналы                                   : 2 канала
Частота                                  : 44,1 КГц
Битовая глубина                          : 16 бит
Размер потока                            : 42,7 Мбайт (100%)
Общее
Полное имя                               : D:\Rechenzentrum\dvd\XTRA_AUDIO\13 Eye For An Eye.aif
Формат                                   : AIFF
Формат/Информация                        : Apple/SGI
Размер файла                             : 37,7 Мбайт
Продолжительность                        : 3 м. 43 с.
Режим общего битрейта                    : Постоянный
Общий поток                              : 1411 Кбит/сек
Аудио
Формат                                   : PCM
Параметр Endianness формата              : Big
Идентификатор кодека                     : sowt
Продолжительность                        : 3 м. 43 с.
Вид битрейта                             : Постоянный
Битрейт                                  : 1411,2 Кбит/сек
Каналы                                   : 2 канала
Частота                                  : 44,1 КГц
Битовая глубина                          : 16 бит
Размер потока                            : 37,7 Мбайт (100%)
Общее
Полное имя                               : D:\Rechenzentrum\dvd\XTRA_AUDIO\14 Vera Icon.aif
Формат                                   : AIFF
Формат/Информация                        : Apple/SGI
Размер файла                             : 37,1 Мбайт
Продолжительность                        : 3 м. 40 с.
Режим общего битрейта                    : Постоянный
Общий поток                              : 1411 Кбит/сек
Аудио
Формат                                   : PCM
Параметр Endianness формата              : Big
Идентификатор кодека                     : sowt
Продолжительность                        : 3 м. 40 с.
Вид битрейта                             : Постоянный
Битрейт                                  : 1411,2 Кбит/сек
Каналы                                   : 2 канала
Частота                                  : 44,1 КГц
Битовая глубина                          : 16 бит
Размер потока                            : 37,1 Мбайт (100%)


Скриншоты меню





Скриншоты








                                                                                                                                                               
                       
                       
                       
                       
                       
                                磁力下载:
                                                               
                                       
游客,本主题需向作者支付 7金币 才能浏览,金币充值, 免回复、免金币,直接查看内容请开通VIP购买主题

                                               
  • 3.56 GB
                                                                                           
  • 温馨提示

    记得善用社区搜索功能,那里可能会有你想要的资源;论坛站内搜索

    如果你有什么需要的资源可以去资源求档发帖,求助社区的网友,我们会在第一时间给你回复哦;资源求档

    对于本社区网盘链接失效密码错误各种报错请在反馈板块反馈报错发帖,您的支持,是我们发展的最大动力;投诉建议

    回复

    使用道具 举报

    您需要登录后才可以回帖 登录 | 立即注册 微信登录

    本版积分规则

    关注0

    粉丝8

    帖子38024

    发布主题
    阅读排行更多+
    关闭

    站长推荐上一条 /1 下一条

    活动提示

    双11活动通知:

    赞助永久VIP会员,赠送希捷/西部机械硬盘或者百度网盘SVIP一年(充值到你网盘帐号)+5000GB HIRES资源活动开启通知。

    地址:https://www.maomicd.com/huodong/

    我知道了
    收藏帖子 返回列表 这是一个自定义按钮
    音乐分享,音乐下载。
    微信公众号
    微信号:maomiyinyue
    意见反馈:admin@maomicd.com

    加入我们的官方QQ群和微信群

    Powered by Discuz! X3.4 Archiver|手机版|小黑屋|猫咪音乐网 ( 苏ICP备20015413号 )|( 苏公网安备 32030502000272号) 繁體

    JS of wanmeiff.com and vcpic.com Please keep this copyright information, respect of, thank you!JS of wanmeiff.com and vcpic.com Please keep this copyright information, respect of, thank you!

    GMT+8, 2020-12-5 16:23