请选择 进入手机版 | 继续访问电脑版

自购原抓音乐圈:只有自购、合购、原抓级高解析(hires、sacd、dsd)正版音乐资源分享!【点我打开
广告

[电子音乐] PrimeClubbing 13 (MAYDAY 2 DVD compilation) [2006, Techno, Progressive House, El

[复制链接]
全球搬运 发表于 2020-10-30 21:24:13 | 显示全部楼层 |阅读模式 打印 上一主题 下一主题
PrimeClubbing 13 (MAYDAY 2DVD compilation)
Страна: Germany
Жанр: Techno, Progressive House, Electro
Продолжительность: 01:34:13 + 01:35:44
Год выпуска: 2006 г.
Лейбл: technodrome.net
Описание: DVD c Live выступлениями диджеев
Tehnodrom.net рад представить вашему вниманию видеокомпиляцию одного из самых влиятельных и старейших фестивалей электронной танцевальной музыки MAYDAY! Его инициатором стал известный немецкий диджеи и продюсер Westbam, задумавший MAYDAY в качестве главного клубного праздника Европы. Безупречная репутация фестиваля подтверждена участием в нем самых ярких звезд мировой электронной музыки. Теперь и вы сможете прикоснуться к атмосфере этого глобального мероприятия, своими глазами увидеть легенд мировой электронной сцены в работе.
Треклист:
Westbam
Lexy and K-Paul
Chris Liebing
Marusha
Nu NRG
DJ Hell
Takkyu Ishino
Mauro Picotto
Denki Groove
Hardy Hard
Members Of MAYDAY
DVD 1
Разбивка на главы по трекам: есть
Качество : DVD5
Формат: DVD video
Видео кодек: MPEG2
Аудио кодек: PCM
Видео: PAL 4:3 (720x576) VBR 25 fps
Аудио: LinearPCM, 2 ch 48 kHz
DVDinfo

Общее
Полное имя                               : VA - PrimeClubbing 13 (MAYDAY 2DVD COMPILATION)\DVD 1\VIDEO_TS\VIDEO_TS.BUP
Формат                                   : DVD Video
Профиль формата                          : Menu
Размер файла                             : 14,0 Кбайт
Режим общего битрейта                    : Переменный
Видео
Идентификатор                            : 224 (0xE0)
Формат                                   : MPEG Video
Версия формата                           : Version 2
Вид битрейта                             : Переменный
Ширина                                   : 720 пикселей
Высота                                   : 576 пикселей
Соотношение сторон                       : 4:3
Частота кадров                           : 25,000 кадров/сек
Стандарт вещания                         : PAL
Метод сжатия                             : С потерями
Аудио
Формат                                   : PCM
Каналы                                   : 2 канала
Частота                                  : 48,0 КГц
Текст
Формат                                   : RLE
Формат/Информация                        : Run-length encoding
Битовая глубина                          : 2 бит
Общее
Полное имя                               : VA - PrimeClubbing 13 (MAYDAY 2DVD COMPILATION)\DVD 1\VIDEO_TS\VIDEO_TS.IFO
Формат                                   : DVD Video
Профиль формата                          : Menu
Размер файла                             : 14,0 Кбайт
Режим общего битрейта                    : Переменный
Видео
Идентификатор                            : 224 (0xE0)
Формат                                   : MPEG Video
Версия формата                           : Version 2
Вид битрейта                             : Переменный
Ширина                                   : 720 пикселей
Высота                                   : 576 пикселей
Соотношение сторон                       : 4:3
Частота кадров                           : 25,000 кадров/сек
Стандарт вещания                         : PAL
Метод сжатия                             : С потерями
Аудио
Формат                                   : PCM
Каналы                                   : 2 канала
Частота                                  : 48,0 КГц
Текст
Формат                                   : RLE
Формат/Информация                        : Run-length encoding
Битовая глубина                          : 2 бит
Общее
Полное имя                               : VA - PrimeClubbing 13 (MAYDAY 2DVD COMPILATION)\DVD 1\VIDEO_TS\VIDEO_TS.VOB
Формат                                   : MPEG-PS
Размер файла                             : 37,8 Мбайт
Продолжительность                        : 40 с. 40 мс.
Общий поток                              : 7921 Кбит/сек
Видео
Идентификатор                            : 224 (0xE0)
Формат                                   : MPEG Video
Версия формата                           : Version 2
Профиль формата                          : Main@Main
Параметр BVOP формата                    : Да
Параметр матрицы формата                 : Выборочная
Параметр GOP формата                     : M=3, N=13
Продолжительность                        : 40 с. 40 мс.
Битрейт                                  : 6232 Кбит/сек
Ширина                                   : 720 пикселей
Высота                                   : 576 пикселей
Соотношение сторон                       : 4:3
Частота кадров                           : 25,000 кадров/сек
Стандарт вещания                         : PAL
Цветовое пространство                    : YUV
Субдискретизация насыщенности            : 4:2:0
Битовая глубина                          : 8 бит
Тип развёртки                            : Прогрессивная
Метод сжатия                             : С потерями
Бит/(Пиксели*Кадры)                      : 0.601
Временной код первого кадра              : 00:00:00:00
Оригинал временного кода                 : Group of pictures header
GOP, открыто/закрыто                     : Закрыто
Размер потока                            : 29,7 Мбайт (79%)
Основные цвета                           : BT.601 NTSC
Характеристики трансфера                 : BT.601
Коэффициенты матрицы                     : BT.601
Аудио
Идентификатор                            : 189 (0xBD)-160 (0xA0)
Формат                                   : PCM
Параметр Endianness формата              : Big
Параметр Sign формата                    : Signed
Режим смешивания                         : DVD-Video
Продолжительность                        : 40 с. 35 мс.
Вид битрейта                             : Постоянный
Битрейт                                  : 1536 Кбит/сек
Каналы                                   : 2 канала
Частота                                  : 48,0 КГц
Битовая глубина                          : 16 бит
Размер потока                            : 7,33 Мбайт (19%)
Текст
Идентификатор                            : 189 (0xBD)-32 (0x20)
Формат                                   : RLE
Формат/Информация                        : Run-length encoding
Режим смешивания                         : DVD-Video
Продолжительность                        : 40 с. 35 мс.
Меню
Продолжительность                        : 40 с. 35 мс.
Общее
Полное имя                               : VA - PrimeClubbing 13 (MAYDAY 2DVD COMPILATION)\DVD 1\VIDEO_TS\VTS_01_0.BUP
Формат                                   : DVD Video
Профиль формата                          : Program
Размер файла                             : 72,0 Кбайт
Продолжительность                        : 1 ч. 34 м.
Режим общего битрейта                    : Переменный
Общий поток                              : 104 бит/сек
Видео
Идентификатор                            : 224 (0xE0)
Формат                                   : MPEG Video
Версия формата                           : Version 2
Продолжительность                        : 1 ч. 34 м.
Вид битрейта                             : Переменный
Ширина                                   : 720 пикселей
Высота                                   : 576 пикселей
Соотношение сторон                       : 4:3
Частота кадров                           : 25,000 кадров/сек
Стандарт вещания                         : PAL
Метод сжатия                             : С потерями
Аудио
Идентификатор                            : 0 (0x0)
Формат                                   : MPEG Audio
Профиль формата                          : Version 1
Продолжительность                        : 1 ч. 34 м.
Каналы                                   : 2 канала
Частота                                  : 48,0 КГц
Метод сжатия                             : С потерями
Меню
Продолжительность                        : 1 ч. 34 м.
00:00:00.000                             : Chapter 1
00:04:56.000                             : Chapter 2
00:14:12.960                             : Chapter 3
00:21:26.000                             : Chapter 4
00:36:00.960                             : Chapter 5
00:42:51.520                             : Chapter 6
00:57:52.280                             : Chapter 7
01:04:55.960                             : Chapter 8
01:09:16.720                             : Chapter 9
01:24:08.560                             : Chapter 10
List (Audio)                             : 0
Общее
Полное имя                               : VA - PrimeClubbing 13 (MAYDAY 2DVD COMPILATION)\DVD 1\VIDEO_TS\VTS_01_0.IFO
Формат                                   : DVD Video
Профиль формата                          : Program
Размер файла                             : 72,0 Кбайт
Продолжительность                        : 1 ч. 34 м.
Режим общего битрейта                    : Переменный
Общий поток                              : 104 бит/сек
Видео
Идентификатор                            : 224 (0xE0)
Формат                                   : MPEG Video
Версия формата                           : Version 2
Продолжительность                        : 1 ч. 34 м.
Вид битрейта                             : Переменный
Ширина                                   : 720 пикселей
Высота                                   : 576 пикселей
Соотношение сторон                       : 4:3
Частота кадров                           : 25,000 кадров/сек
Стандарт вещания                         : PAL
Метод сжатия                             : С потерями
Аудио
Идентификатор                            : 0 (0x0)
Формат                                   : MPEG Audio
Профиль формата                          : Version 1
Продолжительность                        : 1 ч. 34 м.
Каналы                                   : 2 канала
Частота                                  : 48,0 КГц
Метод сжатия                             : С потерями
Меню
Продолжительность                        : 1 ч. 34 м.
00:00:00.000                             : Chapter 1
00:04:56.000                             : Chapter 2
00:14:12.960                             : Chapter 3
00:21:26.000                             : Chapter 4
00:36:00.960                             : Chapter 5
00:42:51.520                             : Chapter 6
00:57:52.280                             : Chapter 7
01:04:55.960                             : Chapter 8
01:09:16.720                             : Chapter 9
01:24:08.560                             : Chapter 10
List (Audio)                             : 0
Общее
Полное имя                               : VA - PrimeClubbing 13 (MAYDAY 2DVD COMPILATION)\DVD 1\VIDEO_TS\VTS_01_0.VOB
Формат                                   : MPEG-PS
Размер файла                             : 75,6 Мбайт
Продолжительность                        : 40 с. 40 мс.
Общий поток                              : 15,8 Мбит/сек
Видео
Идентификатор                            : 224 (0xE0)
Формат                                   : MPEG Video
Версия формата                           : Version 2
Профиль формата                          : Main@Main
Параметр BVOP формата                    : Да
Параметр матрицы формата                 : Выборочная
Параметр GOP формата                     : M=3, N=13
Продолжительность                        : 40 с. 40 мс.
Битрейт                                  : 14,0 Мбит/сек
Максимальный битрейт                     : 6232 Кбит/сек
Ширина                                   : 720 пикселей
Высота                                   : 576 пикселей
Соотношение сторон                       : 4:3
Частота кадров                           : 25,000 кадров/сек
Стандарт вещания                         : PAL
Цветовое пространство                    : YUV
Субдискретизация насыщенности            : 4:2:0
Битовая глубина                          : 8 бит
Тип развёртки                            : Прогрессивная
Метод сжатия                             : С потерями
Бит/(Пиксели*Кадры)                      : 1.349
Временной код первого кадра              : 00:00:00:00
Оригинал временного кода                 : Group of pictures header
GOP, открыто/закрыто                     : Закрыто
Размер потока                            : 66,8 Мбайт (88%)
Основные цвета                           : BT.601 NTSC
Характеристики трансфера                 : BT.601
Коэффициенты матрицы                     : BT.601
Аудио
Идентификатор                            : 189 (0xBD)-160 (0xA0)
Формат                                   : PCM
Параметр Endianness формата              : Big
Параметр Sign формата                    : Signed
Режим смешивания                         : DVD-Video
Продолжительность                        : 40 с. 35 мс.
Вид битрейта                             : Постоянный
Битрейт                                  : 1536 Кбит/сек
Каналы                                   : 2 канала
Частота                                  : 48,0 КГц
Битовая глубина                          : 16 бит
Размер потока                            : 7,33 Мбайт (10%)
Текст
Идентификатор                            : 189 (0xBD)-32 (0x20)
Формат                                   : RLE
Формат/Информация                        : Run-length encoding
Режим смешивания                         : DVD-Video
Продолжительность                        : 40 с. 35 мс.
Меню
Продолжительность                        : 40 с. 35 мс.
Общее
Полное имя                               : VA - PrimeClubbing 13 (MAYDAY 2DVD COMPILATION)\DVD 1\VIDEO_TS\VTS_01_1.VOB
Формат                                   : MPEG-PS
Размер файла                             : 1024 Мбайт
Продолжительность                        : 1 м. 7 с.
Режим общего битрейта                    : Переменный
Общий поток                              : 128 Мбит/сек
Видео
Идентификатор                            : 224 (0xE0)
Формат                                   : MPEG Video
Версия формата                           : Version 2
Профиль формата                          : Main@Main
Параметр BVOP формата                    : Да
Параметр матрицы формата                 : Выборочная
Параметр GOP формата                     : M=2, N=12
Структура изображения                    : Frame
Продолжительность                        : 1 м. 7 с.
Вид битрейта                             : Переменный
Битрейт                                  : 125 Мбит/сек
Максимальный битрейт                     : 6600 Кбит/сек
Ширина                                   : 720 пикселей
Высота                                   : 576 пикселей
Соотношение сторон                       : 4:3
Частота кадров                           : 25,000 кадров/сек
Стандарт вещания                         : PAL
Цветовое пространство                    : YUV
Субдискретизация насыщенности            : 4:2:0
Битовая глубина                          : 8 бит
Тип развёртки                            : Чересстрочная
Порядок развёртки                        : Верхнее поле первое
Метод сжатия                             : С потерями
Бит/(Пиксели*Кадры)                      : 12.039
Временной код первого кадра              : 00:00:00:00
Оригинал временного кода                 : Group of pictures header
GOP, открыто/закрыто                     : Открыто
GOP, открыто/закрыто на первом кадре     : Закрыто
Размер потока                            : 1000 Мбайт (98%)
Основные цвета                           : BT.601 NTSC
Характеристики трансфера                 : BT.601
Коэффициенты матрицы                     : BT.601
Аудио
Идентификатор                            : 192 (0xC0)
Формат                                   : MPEG Audio
Версия формата                           : Version 1
Профиль формата                          : Layer 2
Продолжительность                        : 1 м. 7 с.
Вид битрейта                             : Постоянный
Битрейт                                  : 384 Кбит/сек
Каналы                                   : 2 канала
Частота                                  : 48,0 КГц
Метод сжатия                             : С потерями
Задержка видео                           : 8 мс.
Размер потока                            : 3,07 Мбайт (0%)
Меню
Общее
Полное имя                               : VA - PrimeClubbing 13 (MAYDAY 2DVD COMPILATION)\DVD 1\VIDEO_TS\VTS_01_2.VOB
Формат                                   : MPEG-PS
Размер файла                             : 1024 Мбайт
Продолжительность                        : 38 с. 896 мс.
Режим общего битрейта                    : Переменный
Общий поток                              : 221 Мбит/сек
Видео
Идентификатор                            : 224 (0xE0)
Формат                                   : MPEG Video
Версия формата                           : Version 2
Профиль формата                          : Main@Main
Параметр BVOP формата                    : Да
Параметр матрицы формата                 : Выборочная
Параметр GOP формата                     : M=2, N=12
Структура изображения                    : Frame
Продолжительность                        : 38 с. 832 мс.
Вид битрейта                             : Переменный
Битрейт                                  : 216 Мбит/сек
Максимальный битрейт                     : 6600 Кбит/сек
Ширина                                   : 720 пикселей
Высота                                   : 576 пикселей
Соотношение сторон                       : 4:3
Частота кадров                           : 25,000 кадров/сек
Стандарт вещания                         : PAL
Цветовое пространство                    : YUV
Субдискретизация насыщенности            : 4:2:0
Битовая глубина                          : 8 бит
Тип развёртки                            : Чересстрочная
Порядок развёртки                        : Верхнее поле первое
Метод сжатия                             : С потерями
Бит/(Пиксели*Кадры)                      : 20.836
Временной код первого кадра              : 00:01:07:09
Оригинал временного кода                 : Group of pictures header
GOP, открыто/закрыто                     : Открыто
Размер потока                            : 1000 Мбайт (98%)
Основные цвета                           : BT.601 NTSC
Характеристики трансфера                 : BT.601
Коэффициенты матрицы                     : BT.601
Аудио
Идентификатор                            : 192 (0xC0)
Формат                                   : MPEG Audio
Версия формата                           : Version 1
Профиль формата                          : Layer 2
Продолжительность                        : 38 с. 896 мс.
Вид битрейта                             : Постоянный
Битрейт                                  : 384 Кбит/сек
Каналы                                   : 2 канала
Частота                                  : 48,0 КГц
Метод сжатия                             : С потерями
Задержка видео                           : -320 мс.
Размер потока                            : 1,78 Мбайт (0%)
Меню
Общее
Полное имя                               : VA - PrimeClubbing 13 (MAYDAY 2DVD COMPILATION)\DVD 1\VIDEO_TS\VTS_01_3.VOB
Формат                                   : MPEG-PS
Размер файла                             : 1024 Мбайт
Продолжительность                        : 20 с. 496 мс.
Режим общего битрейта                    : Переменный
Общий поток                              : 419 Мбит/сек
Видео
Идентификатор                            : 224 (0xE0)
Формат                                   : MPEG Video
Версия формата                           : Version 2
Профиль формата                          : Main@Main
Параметр BVOP формата                    : Да
Параметр матрицы формата                 : Выборочная
Параметр GOP формата                     : Variable
Структура изображения                    : Frame
Продолжительность                        : 20 с. 440 мс.
Вид битрейта                             : Переменный
Битрейт                                  : 410 Мбит/сек
Максимальный битрейт                     : 6600 Кбит/сек
Ширина                                   : 720 пикселей
Высота                                   : 576 пикселей
Соотношение сторон                       : 4:3
Частота кадров                           : 25,000 кадров/сек
Стандарт вещания                         : PAL
Цветовое пространство                    : YUV
Субдискретизация насыщенности            : 4:2:0
Битовая глубина                          : 8 бит
Тип развёртки                            : Чересстрочная
Порядок развёртки                        : Верхнее поле первое
Метод сжатия                             : С потерями
Бит/(Пиксели*Кадры)                      : 39.575
Временной код первого кадра              : 00:01:46:07
Оригинал временного кода                 : Group of pictures header
Размер потока                            : 1000 Мбайт (98%)
Основные цвета                           : BT.601 NTSC
Характеристики трансфера                 : BT.601
Коэффициенты матрицы                     : BT.601
Аудио
Идентификатор                            : 192 (0xC0)
Формат                                   : MPEG Audio
Версия формата                           : Version 1
Профиль формата                          : Layer 2
Продолжительность                        : 20 с. 496 мс.
Вид битрейта                             : Постоянный
Битрейт                                  : 384 Кбит/сек
Каналы                                   : 2 канала
Частота                                  : 48,0 КГц
Метод сжатия                             : С потерями
Задержка видео                           : -312 мс.
Размер потока                            : 961 Кбайт (0%)
Меню
Общее
Полное имя                               : VA - PrimeClubbing 13 (MAYDAY 2DVD COMPILATION)\DVD 1\VIDEO_TS\VTS_01_4.VOB
Формат                                   : MPEG-PS
Размер файла                             : 1024 Мбайт
Продолжительность                        : 3 м. 48 с.
Режим общего битрейта                    : Переменный
Общий поток                              : 37,5 Мбит/сек
Видео
Идентификатор                            : 224 (0xE0)
Формат                                   : MPEG Video
Версия формата                           : Version 2
Профиль формата                          : Main@Main
Параметр BVOP формата                    : Да
Параметр матрицы формата                 : Выборочная
Параметр GOP формата                     : Variable
Структура изображения                    : Frame
Продолжительность                        : 3 м. 48 с.
Вид битрейта                             : Переменный
Битрейт                                  : 36,4 Мбит/сек
Максимальный битрейт                     : 6600 Кбит/сек
Ширина                                   : 720 пикселей
Высота                                   : 576 пикселей
Соотношение сторон                       : 4:3
Частота кадров                           : 25,000 кадров/сек
Стандарт вещания                         : PAL
Цветовое пространство                    : YUV
Субдискретизация насыщенности            : 4:2:0
Битовая глубина                          : 8 бит
Тип развёртки                            : Чересстрочная
Порядок развёртки                        : Верхнее поле первое
Метод сжатия                             : С потерями
Бит/(Пиксели*Кадры)                      : 3.511
Временной код первого кадра              : 00:02:06:20
Оригинал временного кода                 : Group of pictures header
GOP, открыто/закрыто                     : Открыто
Размер потока                            : 992 Мбайт (97%)
Основные цвета                           : BT.601 NTSC
Характеристики трансфера                 : BT.601
Коэффициенты матрицы                     : BT.601
Аудио
Идентификатор                            : 192 (0xC0)
Формат                                   : MPEG Audio
Версия формата                           : Version 1
Профиль формата                          : Layer 2
Продолжительность                        : 3 м. 48 с.
Вид битрейта                             : Постоянный
Битрейт                                  : 384 Кбит/сек
Каналы                                   : 2 канала
Частота                                  : 48,0 КГц
Метод сжатия                             : С потерями
Задержка видео                           : -352 мс.
Размер потока                            : 10,5 Мбайт (1%)
Меню
Общее
Полное имя                               : VA - PrimeClubbing 13 (MAYDAY 2DVD COMPILATION)\DVD 1\VIDEO_TS\VTS_01_5.VOB
Формат                                   : MPEG-PS
Размер файла                             : 197 Мбайт
Продолжительность                        : 4 м. 9 с.
Режим общего битрейта                    : Переменный
Общий поток                              : 6634 Кбит/сек
Видео
Идентификатор                            : 224 (0xE0)
Формат                                   : MPEG Video
Версия формата                           : Version 2
Профиль формата                          : Main@Main
Параметр BVOP формата                    : Да
Параметр матрицы формата                 : Выборочная
Параметр GOP формата                     : Variable
Структура изображения                    : Frame
Продолжительность                        : 4 м. 9 с.
Вид битрейта                             : Переменный
Битрейт                                  : 6118 Кбит/сек
Максимальный битрейт                     : 6600 Кбит/сек
Ширина                                   : 720 пикселей
Высота                                   : 576 пикселей
Соотношение сторон                       : 4:3
Частота кадров                           : 25,000 кадров/сек
Стандарт вещания                         : PAL
Цветовое пространство                    : YUV
Субдискретизация насыщенности            : 4:2:0
Битовая глубина                          : 8 бит
Тип развёртки                            : Чересстрочная
Порядок развёртки                        : Верхнее поле первое
Метод сжатия                             : С потерями
Бит/(Пиксели*Кадры)                      : 0.590
Временной код первого кадра              : 00:05:55:14
Оригинал временного кода                 : Group of pictures header
Размер потока                            : 182 Мбайт (92%)
Основные цвета                           : BT.601 NTSC
Характеристики трансфера                 : BT.601
Коэффициенты матрицы                     : BT.601
Аудио
Идентификатор                            : 192 (0xC0)
Формат                                   : MPEG Audio
Версия формата                           : Version 1
Профиль формата                          : Layer 2
Продолжительность                        : 4 м. 9 с.
Вид битрейта                             : Постоянный
Битрейт                                  : 384 Кбит/сек
Каналы                                   : 2 канала
Частота                                  : 48,0 КГц
Метод сжатия                             : С потерями
Задержка видео                           : -248 мс.
Размер потока                            : 11,4 Мбайт (6%)
Меню


Скриншоты меню






Скриншоты








DVD 2
Разбивка на главы по трекам: есть
Качество : DVD5
Формат: DVD video
Видео кодек: MPEG2
Аудио кодек: PCM
Видео: PAL 4:3 (720x576) VBR 25 fps
Аудио: LinearPCM, 2 ch 48 kHz
DVDinfo

Общее
Полное имя                               : VA - PrimeClubbing 13 (MAYDAY 2DVD COMPILATION)\DVD 2\VIDEO_TS\VIDEO_TS.BUP
Формат                                   : DVD Video
Профиль формата                          : Menu
Размер файла                             : 14,0 Кбайт
Режим общего битрейта                    : Переменный
Видео
Идентификатор                            : 224 (0xE0)
Формат                                   : MPEG Video
Версия формата                           : Version 2
Вид битрейта                             : Переменный
Ширина                                   : 720 пикселей
Высота                                   : 576 пикселей
Соотношение сторон                       : 4:3
Частота кадров                           : 25,000 кадров/сек
Стандарт вещания                         : PAL
Метод сжатия                             : С потерями
Аудио
Формат                                   : PCM
Каналы                                   : 2 канала
Частота                                  : 48,0 КГц
Текст
Формат                                   : RLE
Формат/Информация                        : Run-length encoding
Битовая глубина                          : 2 бит
Общее
Полное имя                               : VA - PrimeClubbing 13 (MAYDAY 2DVD COMPILATION)\DVD 2\VIDEO_TS\VIDEO_TS.IFO
Формат                                   : DVD Video
Профиль формата                          : Menu
Размер файла                             : 14,0 Кбайт
Режим общего битрейта                    : Переменный
Видео
Идентификатор                            : 224 (0xE0)
Формат                                   : MPEG Video
Версия формата                           : Version 2
Вид битрейта                             : Переменный
Ширина                                   : 720 пикселей
Высота                                   : 576 пикселей
Соотношение сторон                       : 4:3
Частота кадров                           : 25,000 кадров/сек
Стандарт вещания                         : PAL
Метод сжатия                             : С потерями
Аудио
Формат                                   : PCM
Каналы                                   : 2 канала
Частота                                  : 48,0 КГц
Текст
Формат                                   : RLE
Формат/Информация                        : Run-length encoding
Битовая глубина                          : 2 бит
Общее
Полное имя                               : VA - PrimeClubbing 13 (MAYDAY 2DVD COMPILATION)\DVD 2\VIDEO_TS\VIDEO_TS.VOB
Формат                                   : MPEG-PS
Размер файла                             : 37,8 Мбайт
Продолжительность                        : 40 с. 40 мс.
Общий поток                              : 7921 Кбит/сек
Видео
Идентификатор                            : 224 (0xE0)
Формат                                   : MPEG Video
Версия формата                           : Version 2
Профиль формата                          : Main@Main
Параметр BVOP формата                    : Да
Параметр матрицы формата                 : Выборочная
Параметр GOP формата                     : M=3, N=13
Продолжительность                        : 40 с. 40 мс.
Битрейт                                  : 6232 Кбит/сек
Ширина                                   : 720 пикселей
Высота                                   : 576 пикселей
Соотношение сторон                       : 4:3
Частота кадров                           : 25,000 кадров/сек
Стандарт вещания                         : PAL
Цветовое пространство                    : YUV
Субдискретизация насыщенности            : 4:2:0
Битовая глубина                          : 8 бит
Тип развёртки                            : Прогрессивная
Метод сжатия                             : С потерями
Бит/(Пиксели*Кадры)                      : 0.601
Временной код первого кадра              : 00:00:00:00
Оригинал временного кода                 : Group of pictures header
GOP, открыто/закрыто                     : Закрыто
Размер потока                            : 29,7 Мбайт (79%)
Основные цвета                           : BT.601 NTSC
Характеристики трансфера                 : BT.601
Коэффициенты матрицы                     : BT.601
Аудио
Идентификатор                            : 189 (0xBD)-160 (0xA0)
Формат                                   : PCM
Параметр Endianness формата              : Big
Параметр Sign формата                    : Signed
Режим смешивания                         : DVD-Video
Продолжительность                        : 40 с. 35 мс.
Вид битрейта                             : Постоянный
Битрейт                                  : 1536 Кбит/сек
Каналы                                   : 2 канала
Частота                                  : 48,0 КГц
Битовая глубина                          : 16 бит
Размер потока                            : 7,33 Мбайт (19%)
Текст
Идентификатор                            : 189 (0xBD)-32 (0x20)
Формат                                   : RLE
Формат/Информация                        : Run-length encoding
Режим смешивания                         : DVD-Video
Продолжительность                        : 40 с. 35 мс.
Меню
Продолжительность                        : 40 с. 35 мс.
Общее
Полное имя                               : VA - PrimeClubbing 13 (MAYDAY 2DVD COMPILATION)\DVD 2\VIDEO_TS\VTS_01_0.BUP
Формат                                   : DVD Video
Профиль формата                          : Program
Размер файла                             : 72,0 Кбайт
Продолжительность                        : 1 ч. 35 м.
Режим общего битрейта                    : Переменный
Общий поток                              : 103 бит/сек
Видео
Идентификатор                            : 224 (0xE0)
Формат                                   : MPEG Video
Версия формата                           : Version 2
Продолжительность                        : 1 ч. 35 м.
Вид битрейта                             : Переменный
Ширина                                   : 720 пикселей
Высота                                   : 576 пикселей
Соотношение сторон                       : 4:3
Частота кадров                           : 25,000 кадров/сек
Стандарт вещания                         : PAL
Метод сжатия                             : С потерями
Аудио
Идентификатор                            : 0 (0x0)
Формат                                   : MPEG Audio
Профиль формата                          : Version 1
Продолжительность                        : 1 ч. 35 м.
Каналы                                   : 2 канала
Частота                                  : 48,0 КГц
Метод сжатия                             : С потерями
Меню
Продолжительность                        : 1 ч. 35 м.
00:00:00.000                             : Chapter 1
00:05:25.680                             : Chapter 2
00:20:47.000                             : Chapter 3
00:30:53.360                             : Chapter 4
00:46:18.760                             : Chapter 5
01:01:03.760                             : Chapter 6
01:16:01.440                             : Chapter 7
List (Audio)                             : 0
Общее
Полное имя                               : VA - PrimeClubbing 13 (MAYDAY 2DVD COMPILATION)\DVD 2\VIDEO_TS\VTS_01_0.IFO
Формат                                   : DVD Video
Профиль формата                          : Program
Размер файла                             : 72,0 Кбайт
Продолжительность                        : 1 ч. 35 м.
Режим общего битрейта                    : Переменный
Общий поток                              : 103 бит/сек
Видео
Идентификатор                            : 224 (0xE0)
Формат                                   : MPEG Video
Версия формата                           : Version 2
Продолжительность                        : 1 ч. 35 м.
Вид битрейта                             : Переменный
Ширина                                   : 720 пикселей
Высота                                   : 576 пикселей
Соотношение сторон                       : 4:3
Частота кадров                           : 25,000 кадров/сек
Стандарт вещания                         : PAL
Метод сжатия                             : С потерями
Аудио
Идентификатор                            : 0 (0x0)
Формат                                   : MPEG Audio
Профиль формата                          : Version 1
Продолжительность                        : 1 ч. 35 м.
Каналы                                   : 2 канала
Частота                                  : 48,0 КГц
Метод сжатия                             : С потерями
Меню
Продолжительность                        : 1 ч. 35 м.
00:00:00.000                             : Chapter 1
00:05:25.680                             : Chapter 2
00:20:47.000                             : Chapter 3
00:30:53.360                             : Chapter 4
00:46:18.760                             : Chapter 5
01:01:03.760                             : Chapter 6
01:16:01.440                             : Chapter 7
List (Audio)                             : 0
Общее
Полное имя                               : VA - PrimeClubbing 13 (MAYDAY 2DVD COMPILATION)\DVD 2\VIDEO_TS\VTS_01_0.VOB
Формат                                   : MPEG-PS
Размер файла                             : 75,6 Мбайт
Продолжительность                        : 40 с. 40 мс.
Общий поток                              : 15,8 Мбит/сек
Видео
Идентификатор                            : 224 (0xE0)
Формат                                   : MPEG Video
Версия формата                           : Version 2
Профиль формата                          : Main@Main
Параметр BVOP формата                    : Да
Параметр матрицы формата                 : Выборочная
Параметр GOP формата                     : M=3, N=13
Продолжительность                        : 40 с. 40 мс.
Битрейт                                  : 14,0 Мбит/сек
Максимальный битрейт                     : 6232 Кбит/сек
Ширина                                   : 720 пикселей
Высота                                   : 576 пикселей
Соотношение сторон                       : 4:3
Частота кадров                           : 25,000 кадров/сек
Стандарт вещания                         : PAL
Цветовое пространство                    : YUV
Субдискретизация насыщенности            : 4:2:0
Битовая глубина                          : 8 бит
Тип развёртки                            : Прогрессивная
Метод сжатия                             : С потерями
Бит/(Пиксели*Кадры)                      : 1.350
Временной код первого кадра              : 00:00:00:00
Оригинал временного кода                 : Group of pictures header
GOP, открыто/закрыто                     : Закрыто
Размер потока                            : 66,8 Мбайт (88%)
Основные цвета                           : BT.601 NTSC
Характеристики трансфера                 : BT.601
Коэффициенты матрицы                     : BT.601
Аудио
Идентификатор                            : 189 (0xBD)-160 (0xA0)
Формат                                   : PCM
Параметр Endianness формата              : Big
Параметр Sign формата                    : Signed
Режим смешивания                         : DVD-Video
Продолжительность                        : 40 с. 35 мс.
Вид битрейта                             : Постоянный
Битрейт                                  : 1536 Кбит/сек
Каналы                                   : 2 канала
Частота                                  : 48,0 КГц
Битовая глубина                          : 16 бит
Размер потока                            : 7,33 Мбайт (10%)
Текст
Идентификатор                            : 189 (0xBD)-32 (0x20)
Формат                                   : RLE
Формат/Информация                        : Run-length encoding
Режим смешивания                         : DVD-Video
Продолжительность                        : 40 с. 35 мс.
Меню
Продолжительность                        : 40 с. 35 мс.
Общее
Полное имя                               : VA - PrimeClubbing 13 (MAYDAY 2DVD COMPILATION)\DVD 2\VIDEO_TS\VTS_01_1.VOB
Формат                                   : MPEG-PS
Размер файла                             : 1024 Мбайт
Продолжительность                        : 1 м. 27 с.
Режим общего битрейта                    : Переменный
Общий поток                              : 98,3 Мбит/сек
Видео
Идентификатор                            : 224 (0xE0)
Формат                                   : MPEG Video
Версия формата                           : Version 2
Профиль формата                          : Main@Main
Параметр BVOP формата                    : Да
Параметр матрицы формата                 : Выборочная
Параметр GOP формата                     : M=2, N=12
Структура изображения                    : Frame
Продолжительность                        : 1 м. 27 с.
Вид битрейта                             : Переменный
Битрейт                                  : 96,0 Мбит/сек
Максимальный битрейт                     : 6600 Кбит/сек
Ширина                                   : 720 пикселей
Высота                                   : 576 пикселей
Соотношение сторон                       : 4:3
Частота кадров                           : 25,000 кадров/сек
Стандарт вещания                         : PAL
Цветовое пространство                    : YUV
Субдискретизация насыщенности            : 4:2:0
Битовая глубина                          : 8 бит
Тип развёртки                            : Чересстрочная
Порядок развёртки                        : Верхнее поле первое
Метод сжатия                             : С потерями
Бит/(Пиксели*Кадры)                      : 9.258
Временной код первого кадра              : 00:00:00:00
Оригинал временного кода                 : Group of pictures header
GOP, открыто/закрыто                     : Открыто
GOP, открыто/закрыто на первом кадре     : Закрыто
Размер потока                            : 1000 Мбайт (98%)
Основные цвета                           : BT.601 NTSC
Характеристики трансфера                 : BT.601
Коэффициенты матрицы                     : BT.601
Аудио
Идентификатор                            : 192 (0xC0)
Формат                                   : MPEG Audio
Версия формата                           : Version 1
Профиль формата                          : Layer 2
Продолжительность                        : 1 м. 27 с.
Вид битрейта                             : Постоянный
Битрейт                                  : 384 Кбит/сек
Каналы                                   : 2 канала
Частота                                  : 48,0 КГц
Метод сжатия                             : С потерями
Задержка видео                           : 8 мс.
Размер потока                            : 3,99 Мбайт (0%)
Меню
Общее
Полное имя                               : VA - PrimeClubbing 13 (MAYDAY 2DVD COMPILATION)\DVD 2\VIDEO_TS\VTS_01_2.VOB
Формат                                   : MPEG-PS
Размер файла                             : 1024 Мбайт
Продолжительность                        : 12 м. 3 с.
Режим общего битрейта                    : Переменный
Общий поток                              : 11,9 Мбит/сек
Видео
Идентификатор                            : 224 (0xE0)
Формат                                   : MPEG Video
Версия формата                           : Version 2
Профиль формата                          : Main@Main
Параметр BVOP формата                    : Да
Параметр матрицы формата                 : Выборочная
Параметр GOP формата                     : Variable
Структура изображения                    : Frame
Продолжительность                        : 12 м. 3 с.
Вид битрейта                             : Переменный
Битрейт                                  : 11,3 Мбит/сек
Максимальный битрейт                     : 6600 Кбит/сек
Ширина                                   : 720 пикселей
Высота                                   : 576 пикселей
Соотношение сторон                       : 4:3
Частота кадров                           : 25,000 кадров/сек
Стандарт вещания                         : PAL
Цветовое пространство                    : YUV
Субдискретизация насыщенности            : 4:2:0
Битовая глубина                          : 8 бит
Тип развёртки                            : Чересстрочная
Порядок развёртки                        : Верхнее поле первое
Метод сжатия                             : С потерями
Бит/(Пиксели*Кадры)                      : 1.086
Временной код первого кадра              : 00:01:27:09
Оригинал временного кода                 : Group of pictures header
Размер потока                            : 970 Мбайт (95%)
Основные цвета                           : BT.601 NTSC
Характеристики трансфера                 : BT.601
Коэффициенты матрицы                     : BT.601
Аудио
Идентификатор                            : 192 (0xC0)
Формат                                   : MPEG Audio
Версия формата                           : Version 1
Профиль формата                          : Layer 2
Продолжительность                        : 12 м. 3 с.
Вид битрейта                             : Постоянный
Битрейт                                  : 384 Кбит/сек
Каналы                                   : 2 канала
Частота                                  : 48,0 КГц
Метод сжатия                             : С потерями
Задержка видео                           : -296 мс.
Размер потока                            : 33,1 Мбайт (3%)
Меню
Общее
Полное имя                               : VA - PrimeClubbing 13 (MAYDAY 2DVD COMPILATION)\DVD 2\VIDEO_TS\VTS_01_3.VOB
Формат                                   : MPEG-PS
Размер файла                             : 1024 Мбайт
Режим общего битрейта                    : Переменный
Видео
Идентификатор                            : 224 (0xE0)
Формат                                   : MPEG Video
Версия формата                           : Version 2
Профиль формата                          : Main@Main
Параметр BVOP формата                    : Да
Параметр матрицы формата                 : Выборочная
Параметр GOP формата                     : Variable
Структура изображения                    : Frame
Вид битрейта                             : Переменный
Максимальный битрейт                     : 6600 Кбит/сек
Ширина                                   : 720 пикселей
Высота                                   : 576 пикселей
Соотношение сторон                       : 4:3
Частота кадров                           : 25,000 кадров/сек
Стандарт вещания                         : PAL
Цветовое пространство                    : YUV
Субдискретизация насыщенности            : 4:2:0
Битовая глубина                          : 8 бит
Тип развёртки                            : Чересстрочная
Порядок развёртки                        : Верхнее поле первое
Метод сжатия                             : С потерями
Временной код первого кадра              : 00:13:30:21
Оригинал временного кода                 : Group of pictures header
GOP, открыто/закрыто                     : Открыто
Основные цвета                           : BT.601 NTSC
Характеристики трансфера                 : BT.601
Коэффициенты матрицы                     : BT.601
Аудио
Идентификатор                            : 192 (0xC0)
Формат                                   : MPEG Audio
Версия формата                           : Version 1
Профиль формата                          : Layer 2
Вид битрейта                             : Постоянный
Битрейт                                  : 384 Кбит/сек
Каналы                                   : 2 канала
Частота                                  : 48,0 КГц
Метод сжатия                             : С потерями
Задержка видео                           : -704 мс.
Меню
Общее
Полное имя                               : VA - PrimeClubbing 13 (MAYDAY 2DVD COMPILATION)\DVD 2\VIDEO_TS\VTS_01_4.VOB
Формат                                   : MPEG-PS
Размер файла                             : 1024 Мбайт
Режим общего битрейта                    : Переменный
Видео
Идентификатор                            : 224 (0xE0)
Формат                                   : MPEG Video
Версия формата                           : Version 2
Профиль формата                          : Main@Main
Параметр BVOP формата                    : Да
Параметр матрицы формата                 : Выборочная
Параметр GOP формата                     : M=2, N=12
Структура изображения                    : Frame
Вид битрейта                             : Переменный
Максимальный битрейт                     : 6600 Кбит/сек
Ширина                                   : 720 пикселей
Высота                                   : 576 пикселей
Соотношение сторон                       : 4:3
Частота кадров                           : 25,000 кадров/сек
Стандарт вещания                         : PAL
Цветовое пространство                    : YUV
Субдискретизация насыщенности            : 4:2:0
Битовая глубина                          : 8 бит
Тип развёртки                            : Чересстрочная
Порядок развёртки                        : Верхнее поле первое
Метод сжатия                             : С потерями
Временной код первого кадра              : 00:05:40:19
Оригинал временного кода                 : Group of pictures header
GOP, открыто/закрыто                     : Открыто
Основные цвета                           : BT.601 NTSC
Характеристики трансфера                 : BT.601
Коэффициенты матрицы                     : BT.601
Аудио
Идентификатор                            : 192 (0xC0)
Формат                                   : MPEG Audio
Версия формата                           : Version 1
Профиль формата                          : Layer 2
Вид битрейта                             : Постоянный
Битрейт                                  : 384 Кбит/сек
Каналы                                   : 2 канала
Частота                                  : 48,0 КГц
Метод сжатия                             : С потерями
Задержка видео                           : -256 мс.
Меню
Общее
Полное имя                               : VA - PrimeClubbing 13 (MAYDAY 2DVD COMPILATION)\DVD 2\VIDEO_TS\VTS_01_5.VOB
Формат                                   : MPEG-PS
Размер файла                             : 265 Мбайт
Продолжительность                        : 6 м. 20 с.
Режим общего битрейта                    : Переменный
Общий поток                              : 5849 Кбит/сек
Видео
Идентификатор                            : 224 (0xE0)
Формат                                   : MPEG Video
Версия формата                           : Version 2
Профиль формата                          : Main@Main
Параметр BVOP формата                    : Да
Параметр матрицы формата                 : Выборочная
Параметр GOP формата                     : Variable
Структура изображения                    : Frame
Продолжительность                        : 6 м. 20 с.
Вид битрейта                             : Переменный
Битрейт                                  : 5349 Кбит/сек
Максимальный битрейт                     : 6600 Кбит/сек
Ширина                                   : 720 пикселей
Высота                                   : 576 пикселей
Соотношение сторон                       : 4:3
Частота кадров                           : 25,000 кадров/сек
Стандарт вещания                         : PAL
Цветовое пространство                    : YUV
Субдискретизация насыщенности            : 4:2:0
Битовая глубина                          : 8 бит
Тип развёртки                            : Чересстрочная
Порядок развёртки                        : Верхнее поле первое
Метод сжатия                             : С потерями
Бит/(Пиксели*Кадры)                      : 0.516
Временной код первого кадра              : 00:13:22:00
Оригинал временного кода                 : Group of pictures header
Размер потока                            : 242 Мбайт (91%)
Основные цвета                           : BT.601 NTSC
Характеристики трансфера                 : BT.601
Коэффициенты матрицы                     : BT.601
Аудио
Идентификатор                            : 192 (0xC0)
Формат                                   : MPEG Audio
Версия формата                           : Version 1
Профиль формата                          : Layer 2
Продолжительность                        : 6 м. 20 с.
Вид битрейта                             : Постоянный
Битрейт                                  : 384 Кбит/сек
Каналы                                   : 2 канала
Частота                                  : 48,0 КГц
Метод сжатия                             : С потерями
Задержка видео                           : -528 мс.
Размер потока                            : 17,4 Мбайт (7%)
Меню


Скриншоты меню



Скриншоты








                                                                                                                                                               
                       
                       
                       
                       
                       
                                磁力下载:
                                                               
                                       
游客,本主题需向作者支付 7金币 才能浏览,金币充值, 免回复、免金币,直接查看内容请开通VIP购买主题

                                               
  • 8.68 GB
                                                                                           
  • 温馨提示

    记得善用社区搜索功能,那里可能会有你想要的资源;论坛站内搜索

    如果你有什么需要的资源可以去资源求档发帖,求助社区的网友,我们会在第一时间给你回复哦;资源求档

    对于本社区网盘链接失效密码错误各种报错请在反馈板块反馈报错发帖,您的支持,是我们发展的最大动力;投诉建议

    回复

    使用道具 举报

    您需要登录后才可以回帖 登录 | 立即注册 微信登录

    本版积分规则

    关注0

    粉丝8

    帖子38024

    发布主题
    阅读排行更多+
    关闭

    站长推荐上一条 /1 下一条

    活动提示

    双11活动通知:

    赞助永久VIP会员,赠送希捷/西部机械硬盘或者百度网盘SVIP一年(充值到你网盘帐号)+5000GB HIRES资源活动开启通知。

    地址:https://www.maomicd.com/huodong/

    我知道了
    收藏帖子 返回列表 这是一个自定义按钮
    音乐分享,音乐下载。
    微信公众号
    微信号:maomiyinyue
    意见反馈:admin@maomicd.com

    加入我们的官方QQ群和微信群

    Powered by Discuz! X3.4 Archiver|手机版|小黑屋|猫咪音乐网 ( 苏ICP备20015413号 )|( 苏公网安备 32030502000272号) 繁體

    JS of wanmeiff.com and vcpic.com Please keep this copyright information, respect of, thank you!JS of wanmeiff.com and vcpic.com Please keep this copyright information, respect of, thank you!

    GMT+8, 2020-11-27 04:19