请选择 进入手机版 | 继续访问电脑版

自购原抓音乐圈:只有自购、合购、原抓级高解析(hires、sacd、dsd)正版音乐资源分享!【点我打开
广告

[电子音乐] Speed Tribe [2002, Leftfield, Interview, Techno, Ambient, DVD5] - < Front

[复制链接]
全球采集 发表于 2020-10-30 21:24:13 | 显示全部楼层 |阅读模式 打印 上一主题 下一主题
Speed Tribe
Страна: USA & Canada
Жанр: Leftfield, Interview, Techno, Ambient
Продолжительность: 1:29:46
Год выпуска: 2002
Лейбл: Dance.com
Треклист:
.1 Speed Tribe V1 [25:36]
.2 Speed Tribe V2 [25:03]
.3 Frank Biela [8:49]
.4 David Brabham [15:39]
.5 John Nielsen [5:50]
.6 Johnny Herbert [9:25]
CD: https://rutracker.org/forum/viewtopic.php?t=5698901
Разбивка на главы по трекам: есть
Качество : DVD5
Формат: DVD video
Видео кодек: MPEG2
Аудио кодек: AC3
Доп. информация: https://www.youtube.com/watch?v=H2n9_kbPAx4
https://www.discogs.com/Speed-Tribe-Speed-Tribe/release/3355926
DVDinfo

General
Complete name                            : D:\VIDEO_TS\VIDEO_TS.BUP
Format                                   : DVD Video
Format profile                           : Menu
File size                                : 12.0 KiB
Overall bit rate mode                    : Variable
FileExtension_Invalid                    : ifo
Video
ID                                       : 224 (0xE0)
Format                                   : MPEG Video
Format version                           : Version 1
Bit rate mode                            : Variable
Width                                    : 720 pixels
Height                                   : 480 pixels
Display aspect ratio                     : 4:3
Frame rate                               : 29.970 (29970/1000) FPS
Standard                                 : NTSC
Compression mode                         : Lossy
General
Complete name                            : D:\VIDEO_TS\VIDEO_TS.IFO
Format                                   : DVD Video
Format profile                           : Menu
File size                                : 12.0 KiB
Overall bit rate mode                    : Variable
Video
ID                                       : 224 (0xE0)
Format                                   : MPEG Video
Format version                           : Version 1
Bit rate mode                            : Variable
Width                                    : 720 pixels
Height                                   : 480 pixels
Display aspect ratio                     : 4:3
Frame rate                               : 29.970 (29970/1000) FPS
Standard                                 : NTSC
Compression mode                         : Lossy
General
Complete name                            : D:\VIDEO_TS\VTS_01_0.BUP
Format                                   : DVD Video
Format profile                           : Program
File size                                : 84.0 KiB
Duration                                 : 25 min 36 s
Overall bit rate mode                    : Variable
Overall bit rate                         : 448 b/s
FileExtension_Invalid                    : ifo
Video
ID                                       : 224 (0xE0)
Format                                   : MPEG Video
Format version                           : Version 2
Duration                                 : 25 min 36 s
Bit rate mode                            : Variable
Width                                    : 720 pixels
Height                                   : 480 pixels
Display aspect ratio                     : 16:9
Frame rate                               : 29.970 (29970/1000) FPS
Standard                                 : NTSC
Compression mode                         : Lossy
Audio #1
ID                                       : 128 (0x80)
Format                                   : AC-3
Format/Info                              : Audio Coding 3
Duration                                 : 25 min 36 s
Channel(s)                               : 6 channels
Sampling rate                            : 48.0 kHz
Compression mode                         : Lossy
Language                                 : English
Audio #2
ID                                       : 137 (0x89)
Format                                   : DTS
Format/Info                              : Digital Theater Systems
Duration                                 : 25 min 36 s
Channel(s)                               : 6 channels
Sampling rate                            : 48.0 kHz
Language                                 : English
Audio #3
ID                                       : 130 (0x82)
Format                                   : AC-3
Format/Info                              : Audio Coding 3
Duration                                 : 25 min 36 s
Channel(s)                               : 2 channels
Sampling rate                            : 48.0 kHz
Compression mode                         : Lossy
Language                                 : English
Menu
Duration                                 : 25 min 36 s
00:00:00.000                             : Chapter 1
00:02:53.266                             : Chapter 2
00:08:07.266                             : Chapter 3
00:10:43.398                             : Chapter 4
00:15:12.398                             : Chapter 5
00:18:22.664                             : Chapter 6
00:23:34.330                             : Chapter 7
00:26:16.796                             : Chapter 8
00:32:56.328                             : Chapter 9
00:40:15.928                             : Chapter 10
00:45:19.394                             : Chapter 11
List (Audio)                             : 0 / 1 / 2
General
Complete name                            : D:\VIDEO_TS\VTS_01_0.IFO
Format                                   : DVD Video
Format profile                           : Program
File size                                : 84.0 KiB
Duration                                 : 25 min 36 s
Overall bit rate mode                    : Variable
Overall bit rate                         : 448 b/s
Video
ID                                       : 224 (0xE0)
Format                                   : MPEG Video
Format version                           : Version 2
Duration                                 : 25 min 36 s
Bit rate mode                            : Variable
Width                                    : 720 pixels
Height                                   : 480 pixels
Display aspect ratio                     : 16:9
Frame rate                               : 29.970 (29970/1000) FPS
Standard                                 : NTSC
Compression mode                         : Lossy
Audio #1
ID                                       : 128 (0x80)
Format                                   : AC-3
Format/Info                              : Audio Coding 3
Duration                                 : 25 min 36 s
Channel(s)                               : 6 channels
Sampling rate                            : 48.0 kHz
Compression mode                         : Lossy
Language                                 : English
Audio #2
ID                                       : 137 (0x89)
Format                                   : DTS
Format/Info                              : Digital Theater Systems
Duration                                 : 25 min 36 s
Channel(s)                               : 6 channels
Sampling rate                            : 48.0 kHz
Language                                 : English
Audio #3
ID                                       : 130 (0x82)
Format                                   : AC-3
Format/Info                              : Audio Coding 3
Duration                                 : 25 min 36 s
Channel(s)                               : 2 channels
Sampling rate                            : 48.0 kHz
Compression mode                         : Lossy
Language                                 : English
Menu
Duration                                 : 25 min 36 s
00:00:00.000                             : Chapter 1
00:02:53.266                             : Chapter 2
00:08:07.266                             : Chapter 3
00:10:43.398                             : Chapter 4
00:15:12.398                             : Chapter 5
00:18:22.664                             : Chapter 6
00:23:34.330                             : Chapter 7
00:26:16.796                             : Chapter 8
00:32:56.328                             : Chapter 9
00:40:15.928                             : Chapter 10
00:45:19.394                             : Chapter 11
List (Audio)                             : 0 / 1 / 2
General
Complete name                            : D:\VIDEO_TS\VTS_01_0.VOB
Format                                   : MPEG-PS
File size                                : 211 MiB
Duration                                 : 35 s 235 ms
Overall bit rate mode                    : Variable
Overall bit rate                         : 50.1 Mb/s
Video
ID                                       : 224 (0xE0)
Format                                   : MPEG Video
Format version                           : Version 2
Format profile                           : Main@Main
Format settings                          : CustomMatrix / BVOP
Format settings, BVOP                    : Yes
Format settings, Matrix                  : Custom
Format settings, GOP                     : Variable
Duration                                 : 35 s 235 ms
Bit rate mode                            : Variable
Bit rate                                 : 48.7 Mb/s
Maximum bit rate                         : 9 800 kb/s
Width                                    : 720 pixels
Height                                   : 480 pixels
Display aspect ratio                     : 16:9
Frame rate                               : 29.970 (30000/1001) FPS
Standard                                 : NTSC
Color space                              : YUV
Chroma subsampling                       : 4:2:0
Bit depth                                : 8 bits
Scan type                                : Progressive
Scan order                               : Top Field First
Compression mode                         : Lossy
Bits/(Pixel*Frame)                       : 4.701
Time code of first frame                 : 01:00:00:00
Time code source                         : Group of pictures header
GOP, Open/Closed                         : Closed
Stream size                              : 205 MiB (97%)
Audio
ID                                       : 189 (0xBD)-128 (0x80)
Format                                   : AC-3
Format/Info                              : Audio Coding 3
Commercial name                          : Dolby Digital
Muxing mode                              : DVD-Video
Duration                                 : 35 s 232 ms
Bit rate mode                            : Constant
Bit rate                                 : 448 kb/s
Channel(s)                               : 6 channels
Channel layout                           : L R C LFE Ls Rs
Sampling rate                            : 48.0 kHz
Frame rate                               : 31.250 FPS (1536 SPF)
Bit depth                                : 16 bits
Compression mode                         : Lossy
Stream size                              : 1.88 MiB (1%)
Service kind                             : Complete Main
Menu
General
Complete name                            : D:\VIDEO_TS\VTS_01_1.VOB
Format                                   : MPEG-PS
File size                                : 1 024 MiB
Duration                                 : 10 min 10 s
Overall bit rate mode                    : Variable
Overall bit rate                         : 14.1 Mb/s
Video
ID                                       : 224 (0xE0)
Format                                   : MPEG Video
Format version                           : Version 2
Format profile                           : Main@Main
Format settings                          : CustomMatrix / BVOP
Format settings, BVOP                    : Yes
Format settings, Matrix                  : Custom
Format settings, GOP                     : M=3, N=15
Format settings, picture structure       : Frame
Duration                                 : 10 min 10 s
Bit rate mode                            : Variable
Bit rate                                 : 12.3 Mb/s
Maximum bit rate                         : 6 000 kb/s
Width                                    : 720 pixels
Height                                   : 480 pixels
Display aspect ratio                     : 2.40:1
Frame rate                               : 29.970 (30000/1001) FPS
Standard                                 : NTSC
Color space                              : YUV
Chroma subsampling                       : 4:2:0
Bit depth                                : 8 bits
Scan type                                : Interlaced
Scan order                               : Top Field First
Compression mode                         : Lossy
Bits/(Pixel*Frame)                       : 1.189
Time code of first frame                 : 01:00:00:00
Time code source                         : Group of pictures header
GOP, Open/Closed                         : Closed
Stream size                              : 897 MiB (88%)
Audio #1
ID                                       : 189 (0xBD)-128 (0x80)
Format                                   : AC-3
Format/Info                              : Audio Coding 3
Commercial name                          : Dolby Digital
Muxing mode                              : DVD-Video
Duration                                 : 10 min 10 s
Bit rate mode                            : Constant
Bit rate                                 : 448 kb/s
Channel(s)                               : 6 channels
Channel layout                           : L R C LFE Ls Rs
Sampling rate                            : 48.0 kHz
Frame rate                               : 31.250 FPS (1536 SPF)
Bit depth                                : 16 bits
Compression mode                         : Lossy
Stream size                              : 32.6 MiB (3%)
Service kind                             : Complete Main
Audio #2
ID                                       : 189 (0xBD)-130 (0x82)
Format                                   : AC-3
Format/Info                              : Audio Coding 3
Commercial name                          : Dolby Digital
Muxing mode                              : DVD-Video
Duration                                 : 10 min 10 s
Bit rate mode                            : Constant
Bit rate                                 : 256 kb/s
Channel(s)                               : 2 channels
Channel layout                           : L R
Sampling rate                            : 48.0 kHz
Frame rate                               : 31.250 FPS (1536 SPF)
Bit depth                                : 16 bits
Compression mode                         : Lossy
Stream size                              : 18.6 MiB (2%)
Service kind                             : Complete Main
Audio #3
ID                                       : 189 (0xBD)-137 (0x89)
Format                                   : DTS
Format/Info                              : Digital Theater Systems
Muxing mode                              : DVD-Video
Duration                                 : 10 min 10 s
Bit rate mode                            : Constant
Bit rate                                 : 755 kb/s
Channel(s)                               : 6 channels
Channel layout                           : C L R Ls Rs LFE
Sampling rate                            : 48.0 kHz
Frame rate                               : 93.750 FPS (512 SPF)
Bit depth                                : 16 bits
Compression mode                         : Lossy
Stream size                              : 54.9 MiB (5%)
Menu
General
Complete name                            : D:\VIDEO_TS\VTS_01_2.VOB
Format                                   : MPEG-PS
File size                                : 1 024 MiB
Duration                                 : 10 min 13 s
Overall bit rate mode                    : Variable
Overall bit rate                         : 14.0 Mb/s
Video
ID                                       : 224 (0xE0)
Format                                   : MPEG Video
Format version                           : Version 2
Format profile                           : Main@Main
Format settings                          : CustomMatrix / BVOP
Format settings, BVOP                    : Yes
Format settings, Matrix                  : Custom
Format settings, GOP                     : M=3, N=15
Format settings, picture structure       : Frame
Duration                                 : 10 min 13 s
Bit rate mode                            : Variable
Bit rate                                 : 12.3 Mb/s
Maximum bit rate                         : 6 000 kb/s
Width                                    : 720 pixels
Height                                   : 480 pixels
Display aspect ratio                     : 2.40:1
Frame rate                               : 29.970 (30000/1001) FPS
Standard                                 : NTSC
Color space                              : YUV
Chroma subsampling                       : 4:2:0
Bit depth                                : 8 bits
Scan type                                : Interlaced
Scan order                               : Top Field First
Compression mode                         : Lossy
Bits/(Pixel*Frame)                       : 1.183
Time code of first frame                 : 01:10:10:10
Time code source                         : Group of pictures header
GOP, Open/Closed                         : Closed
Stream size                              : 897 MiB (88%)
Audio #1
ID                                       : 189 (0xBD)-128 (0x80)
Format                                   : AC-3
Format/Info                              : Audio Coding 3
Commercial name                          : Dolby Digital
Muxing mode                              : DVD-Video
Duration                                 : 10 min 13 s
Bit rate mode                            : Constant
Bit rate                                 : 448 kb/s
Channel(s)                               : 6 channels
Channel layout                           : L R C LFE Ls Rs
Sampling rate                            : 48.0 kHz
Frame rate                               : 31.250 FPS (1536 SPF)
Bit depth                                : 16 bits
Compression mode                         : Lossy
Delay relative to video                  : -127 ms
Stream size                              : 32.8 MiB (3%)
Service kind                             : Complete Main
Audio #2
ID                                       : 189 (0xBD)-130 (0x82)
Format                                   : AC-3
Format/Info                              : Audio Coding 3
Commercial name                          : Dolby Digital
Muxing mode                              : DVD-Video
Duration                                 : 10 min 13 s
Bit rate mode                            : Constant
Bit rate                                 : 256 kb/s
Channel(s)                               : 2 channels
Channel layout                           : L R
Sampling rate                            : 48.0 kHz
Frame rate                               : 31.250 FPS (1536 SPF)
Bit depth                                : 16 bits
Compression mode                         : Lossy
Delay relative to video                  : -127 ms
Stream size                              : 18.7 MiB (2%)
Service kind                             : Complete Main
Audio #3
ID                                       : 189 (0xBD)-137 (0x89)
Format                                   : DTS
Format/Info                              : Digital Theater Systems
Muxing mode                              : DVD-Video
Duration                                 : 10 min 13 s
Bit rate mode                            : Constant
Bit rate                                 : 755 kb/s
Channel(s)                               : 6 channels
Channel layout                           : C L R Ls Rs LFE
Sampling rate                            : 48.0 kHz
Frame rate                               : 93.750 FPS (512 SPF)
Bit depth                                : 16 bits
Compression mode                         : Lossy
Delay relative to video                  : -191 ms
Stream size                              : 55.2 MiB (5%)
Menu
General
Complete name                            : D:\VIDEO_TS\VTS_01_3.VOB
Format                                   : MPEG-PS
File size                                : 522 MiB
Duration                                 : 5 min 12 s
Overall bit rate mode                    : Variable
Overall bit rate                         : 14.0 Mb/s
Video
ID                                       : 224 (0xE0)
Format                                   : MPEG Video
Format version                           : Version 2
Format profile                           : Main@Main
Format settings                          : CustomMatrix / BVOP
Format settings, BVOP                    : Yes
Format settings, Matrix                  : Custom
Format settings, GOP                     : M=3, N=15
Format settings, picture structure       : Frame
Duration                                 : 5 min 12 s
Bit rate mode                            : Variable
Bit rate                                 : 12.3 Mb/s
Maximum bit rate                         : 6 000 kb/s
Width                                    : 720 pixels
Height                                   : 480 pixels
Display aspect ratio                     : 2.40:1
Frame rate                               : 29.970 (30000/1001) FPS
Standard                                 : NTSC
Color space                              : YUV
Chroma subsampling                       : 4:2:0
Bit depth                                : 8 bits
Scan type                                : Interlaced
Scan order                               : Top Field First
Compression mode                         : Lossy
Bits/(Pixel*Frame)                       : 1.183
Time code of first frame                 : 01:20:23:14
Time code source                         : Group of pictures header
GOP, Open/Closed                         : Closed
Stream size                              : 457 MiB (88%)
Audio #1
ID                                       : 189 (0xBD)-128 (0x80)
Format                                   : AC-3
Format/Info                              : Audio Coding 3
Commercial name                          : Dolby Digital
Muxing mode                              : DVD-Video
Duration                                 : 5 min 12 s
Bit rate mode                            : Constant
Bit rate                                 : 448 kb/s
Channel(s)                               : 6 channels
Channel layout                           : L R C LFE Ls Rs
Sampling rate                            : 48.0 kHz
Frame rate                               : 31.250 FPS (1536 SPF)
Bit depth                                : 16 bits
Compression mode                         : Lossy
Delay relative to video                  : -146 ms
Stream size                              : 16.7 MiB (3%)
Service kind                             : Complete Main
Audio #2
ID                                       : 189 (0xBD)-130 (0x82)
Format                                   : AC-3
Format/Info                              : Audio Coding 3
Commercial name                          : Dolby Digital
Muxing mode                              : DVD-Video
Duration                                 : 5 min 12 s
Bit rate mode                            : Constant
Bit rate                                 : 256 kb/s
Channel(s)                               : 2 channels
Channel layout                           : L R
Sampling rate                            : 48.0 kHz
Frame rate                               : 31.250 FPS (1536 SPF)
Bit depth                                : 16 bits
Compression mode                         : Lossy
Delay relative to video                  : -82 ms
Stream size                              : 9.55 MiB (2%)
Service kind                             : Complete Main
Audio #3
ID                                       : 189 (0xBD)-137 (0x89)
Format                                   : DTS
Format/Info                              : Digital Theater Systems
Muxing mode                              : DVD-Video
Duration                                 : 5 min 12 s
Bit rate mode                            : Constant
Bit rate                                 : 755 kb/s
Channel(s)                               : 6 channels
Channel layout                           : C L R Ls Rs LFE
Sampling rate                            : 48.0 kHz
Frame rate                               : 93.750 FPS (512 SPF)
Bit depth                                : 16 bits
Compression mode                         : Lossy
Delay relative to video                  : -178 ms
Stream size                              : 28.1 MiB (5%)
Menu
General
Complete name                            : D:\VIDEO_TS\VTS_02_0.BUP
Format                                   : DVD Video
Format profile                           : Program
File size                                : 20.0 KiB
Duration                                 : 9 min 23 s
Overall bit rate mode                    : Variable
Overall bit rate                         : 291 b/s
FileExtension_Invalid                    : ifo
Video
ID                                       : 224 (0xE0)
Format                                   : MPEG Video
Format version                           : Version 2
Duration                                 : 9 min 23 s
Bit rate mode                            : Variable
Width                                    : 720 pixels
Height                                   : 480 pixels
Display aspect ratio                     : 4:3
Frame rate                               : 29.970 (29970/1000) FPS
Standard                                 : NTSC
Compression mode                         : Lossy
Audio
ID                                       : 128 (0x80)
Format                                   : AC-3
Format/Info                              : Audio Coding 3
Duration                                 : 9 min 23 s
Channel(s)                               : 2 channels
Sampling rate                            : 48.0 kHz
Compression mode                         : Lossy
Language                                 : English
Menu
Duration                                 : 9 min 23 s
00:00:00.000                             : Chapter 1
00:00:01.500                             : Chapter 2
List (Audio)                             : 0
General
Complete name                            : D:\VIDEO_TS\VTS_02_0.IFO
Format                                   : DVD Video
Format profile                           : Program
File size                                : 20.0 KiB
Duration                                 : 9 min 23 s
Overall bit rate mode                    : Variable
Overall bit rate                         : 291 b/s
Video
ID                                       : 224 (0xE0)
Format                                   : MPEG Video
Format version                           : Version 2
Duration                                 : 9 min 23 s
Bit rate mode                            : Variable
Width                                    : 720 pixels
Height                                   : 480 pixels
Display aspect ratio                     : 4:3
Frame rate                               : 29.970 (29970/1000) FPS
Standard                                 : NTSC
Compression mode                         : Lossy
Audio
ID                                       : 128 (0x80)
Format                                   : AC-3
Format/Info                              : Audio Coding 3
Duration                                 : 9 min 23 s
Channel(s)                               : 2 channels
Sampling rate                            : 48.0 kHz
Compression mode                         : Lossy
Language                                 : English
Menu
Duration                                 : 9 min 23 s
00:00:00.000                             : Chapter 1
00:00:01.500                             : Chapter 2
List (Audio)                             : 0
General
Complete name                            : D:\VIDEO_TS\VTS_02_1.VOB
Format                                   : MPEG-PS
File size                                : 283 MiB
Duration                                 : 9 min 22 s
Overall bit rate mode                    : Variable
Overall bit rate                         : 4 226 kb/s
Video
ID                                       : 224 (0xE0)
Format                                   : MPEG Video
Format version                           : Version 2
Format profile                           : Main@Main
Format settings                          : CustomMatrix / BVOP
Format settings, BVOP                    : Yes
Format settings, Matrix                  : Custom
Format settings, GOP                     : Variable
Format settings, picture structure       : Frame
Duration                                 : 9 min 22 s
Bit rate mode                            : Variable
Bit rate                                 : 3 886 kb/s
Width                                    : 720 pixels
Height                                   : 480 pixels
Display aspect ratio                     : 4:3
Frame rate                               : 29.970 (30000/1001) FPS
Standard                                 : NTSC
Color space                              : YUV
Chroma subsampling                       : 4:2:0
Bit depth                                : 8 bits
Scan type                                : Interlaced
Scan order                               : Top Field First
Compression mode                         : Lossy
Bits/(Pixel*Frame)                       : 0.375
Stream size                              : 261 MiB (92%)
Audio
ID                                       : 189 (0xBD)-128 (0x80)
Format                                   : AC-3
Format/Info                              : Audio Coding 3
Commercial name                          : Dolby Digital
Muxing mode                              : DVD-Video
Duration                                 : 9 min 22 s
Bit rate mode                            : Constant
Bit rate                                 : 256 kb/s
Channel(s)                               : 2 channels
Channel layout                           : L R
Sampling rate                            : 48.0 kHz
Frame rate                               : 31.250 FPS (1536 SPF)
Bit depth                                : 16 bits
Compression mode                         : Lossy
Stream size                              : 17.2 MiB (6%)
Service kind                             : Complete Main
Menu
General
Complete name                            : D:\VIDEO_TS\VTS_03_0.BUP
Format                                   : DVD Video
Format profile                           : Program
File size                                : 18.0 KiB
Duration                                 : 8 min 41 s
Overall bit rate mode                    : Variable
Overall bit rate                         : 283 b/s
FileExtension_Invalid                    : ifo
Video
ID                                       : 224 (0xE0)
Format                                   : MPEG Video
Format version                           : Version 2
Duration                                 : 8 min 41 s
Bit rate mode                            : Variable
Width                                    : 720 pixels
Height                                   : 480 pixels
Display aspect ratio                     : 16:9
Frame rate                               : 29.970 (29970/1000) FPS
Standard                                 : NTSC
Compression mode                         : Lossy
Audio
ID                                       : 128 (0x80)
Format                                   : AC-3
Format/Info                              : Audio Coding 3
Duration                                 : 8 min 41 s
Channel(s)                               : 2 channels
Sampling rate                            : 48.0 kHz
Compression mode                         : Lossy
Language                                 : English
Menu
Duration                                 : 8 min 41 s
00:00:00.000                             : Chapter 1
00:00:01.500                             : Chapter 2
List (Audio)                             : 0
General
Complete name                            : D:\VIDEO_TS\VTS_03_0.IFO
Format                                   : DVD Video
Format profile                           : Program
File size                                : 18.0 KiB
Duration                                 : 8 min 41 s
Overall bit rate mode                    : Variable
Overall bit rate                         : 283 b/s
Video
ID                                       : 224 (0xE0)
Format                                   : MPEG Video
Format version                           : Version 2
Duration                                 : 8 min 41 s
Bit rate mode                            : Variable
Width                                    : 720 pixels
Height                                   : 480 pixels
Display aspect ratio                     : 16:9
Frame rate                               : 29.970 (29970/1000) FPS
Standard                                 : NTSC
Compression mode                         : Lossy
Audio
ID                                       : 128 (0x80)
Format                                   : AC-3
Format/Info                              : Audio Coding 3
Duration                                 : 8 min 41 s
Channel(s)                               : 2 channels
Sampling rate                            : 48.0 kHz
Compression mode                         : Lossy
Language                                 : English
Menu
Duration                                 : 8 min 41 s
00:00:00.000                             : Chapter 1
00:00:01.500                             : Chapter 2
List (Audio)                             : 0
General
Complete name                            : D:\VIDEO_TS\VTS_03_1.VOB
Format                                   : MPEG-PS
File size                                : 253 MiB
Duration                                 : 8 min 40 s
Overall bit rate mode                    : Variable
Overall bit rate                         : 4 070 kb/s
Video
ID                                       : 224 (0xE0)
Format                                   : MPEG Video
Format version                           : Version 2
Format profile                           : Main@Main
Format settings                          : CustomMatrix / BVOP
Format settings, BVOP                    : Yes
Format settings, Matrix                  : Custom
Format settings, GOP                     : Variable
Format settings, picture structure       : Frame
Duration                                 : 8 min 40 s
Bit rate mode                            : Variable
Bit rate                                 : 3 733 kb/s
Width                                    : 720 pixels
Height                                   : 480 pixels
Display aspect ratio                     : 16:9
Frame rate                               : 29.970 (30000/1001) FPS
Standard                                 : NTSC
Color space                              : YUV
Chroma subsampling                       : 4:2:0
Bit depth                                : 8 bits
Scan type                                : Interlaced
Scan order                               : Top Field First
Compression mode                         : Lossy
Bits/(Pixel*Frame)                       : 0.360
Stream size                              : 232 MiB (92%)
Audio
ID                                       : 189 (0xBD)-128 (0x80)
Format                                   : AC-3
Format/Info                              : Audio Coding 3
Commercial name                          : Dolby Digital
Muxing mode                              : DVD-Video
Duration                                 : 8 min 40 s
Bit rate mode                            : Constant
Bit rate                                 : 256 kb/s
Channel(s)                               : 2 channels
Channel layout                           : L R
Sampling rate                            : 48.0 kHz
Frame rate                               : 31.250 FPS (1536 SPF)
Bit depth                                : 16 bits
Compression mode                         : Lossy
Stream size                              : 15.9 MiB (6%)
Service kind                             : Complete Main
Menu
General
Complete name                            : D:\VIDEO_TS\VTS_04_0.BUP
Format                                   : DVD Video
Format profile                           : Program
File size                                : 22.0 KiB
Duration                                 : 15 min 38 s
Overall bit rate mode                    : Variable
Overall bit rate                         : 192 b/s
FileExtension_Invalid                    : ifo
Video
ID                                       : 224 (0xE0)
Format                                   : MPEG Video
Format version                           : Version 2
Duration                                 : 15 min 38 s
Bit rate mode                            : Variable
Width                                    : 720 pixels
Height                                   : 480 pixels
Display aspect ratio                     : 16:9
Frame rate                               : 29.970 (29970/1000) FPS
Standard                                 : NTSC
Compression mode                         : Lossy
Audio
ID                                       : 128 (0x80)
Format                                   : AC-3
Format/Info                              : Audio Coding 3
Duration                                 : 15 min 38 s
Channel(s)                               : 2 channels
Sampling rate                            : 48.0 kHz
Compression mode                         : Lossy
Language                                 : English
Menu
Duration                                 : 15 min 38 s
00:00:00.000                             : Chapter 1
00:00:01.500                             : Chapter 2
List (Audio)                             : 0
General
Complete name                            : D:\VIDEO_TS\VTS_04_0.IFO
Format                                   : DVD Video
Format profile                           : Program
File size                                : 22.0 KiB
Duration                                 : 15 min 38 s
Overall bit rate mode                    : Variable
Overall bit rate                         : 192 b/s
Video
ID                                       : 224 (0xE0)
Format                                   : MPEG Video
Format version                           : Version 2
Duration                                 : 15 min 38 s
Bit rate mode                            : Variable
Width                                    : 720 pixels
Height                                   : 480 pixels
Display aspect ratio                     : 16:9
Frame rate                               : 29.970 (29970/1000) FPS
Standard                                 : NTSC
Compression mode                         : Lossy
Audio
ID                                       : 128 (0x80)
Format                                   : AC-3
Format/Info                              : Audio Coding 3
Duration                                 : 15 min 38 s
Channel(s)                               : 2 channels
Sampling rate                            : 48.0 kHz
Compression mode                         : Lossy
Language                                 : English
Menu
Duration                                 : 15 min 38 s
00:00:00.000                             : Chapter 1
00:00:01.500                             : Chapter 2
List (Audio)                             : 0
General
Complete name                            : D:\VIDEO_TS\VTS_04_1.VOB
Format                                   : MPEG-PS
File size                                : 458 MiB
Duration                                 : 15 min 37 s
Overall bit rate mode                    : Variable
Overall bit rate                         : 4 093 kb/s
Video
ID                                       : 224 (0xE0)
Format                                   : MPEG Video
Format version                           : Version 2
Format profile                           : Main@Main
Format settings                          : CustomMatrix / BVOP
Format settings, BVOP                    : Yes
Format settings, Matrix                  : Custom
Format settings, GOP                     : Variable
Format settings, picture structure       : Frame
Duration                                 : 15 min 37 s
Bit rate mode                            : Variable
Bit rate                                 : 3 756 kb/s
Width                                    : 720 pixels
Height                                   : 480 pixels
Display aspect ratio                     : 16:9
Frame rate                               : 29.970 (30000/1001) FPS
Standard                                 : NTSC
Color space                              : YUV
Chroma subsampling                       : 4:2:0
Bit depth                                : 8 bits
Scan type                                : Interlaced
Scan order                               : Top Field First
Compression mode                         : Lossy
Bits/(Pixel*Frame)                       : 0.363
Stream size                              : 420 MiB (92%)
Audio
ID                                       : 189 (0xBD)-128 (0x80)
Format                                   : AC-3
Format/Info                              : Audio Coding 3
Commercial name                          : Dolby Digital
Muxing mode                              : DVD-Video
Duration                                 : 15 min 37 s
Bit rate mode                            : Constant
Bit rate                                 : 256 kb/s
Channel(s)                               : 2 channels
Channel layout                           : L R
Sampling rate                            : 48.0 kHz
Frame rate                               : 31.250 FPS (1536 SPF)
Bit depth                                : 16 bits
Compression mode                         : Lossy
Stream size                              : 28.6 MiB (6%)
Service kind                             : Complete Main
Menu
General
Complete name                            : D:\VIDEO_TS\VTS_05_0.BUP
Format                                   : DVD Video
Format profile                           : Program
File size                                : 16.0 KiB
Duration                                 : 5 min 49 s
Overall bit rate mode                    : Variable
Overall bit rate                         : 375 b/s
FileExtension_Invalid                    : ifo
Video
ID                                       : 224 (0xE0)
Format                                   : MPEG Video
Format version                           : Version 2
Duration                                 : 5 min 49 s
Bit rate mode                            : Variable
Width                                    : 720 pixels
Height                                   : 480 pixels
Display aspect ratio                     : 16:9
Frame rate                               : 29.970 (29970/1000) FPS
Standard                                 : NTSC
Compression mode                         : Lossy
Audio
ID                                       : 128 (0x80)
Format                                   : AC-3
Format/Info                              : Audio Coding 3
Duration                                 : 5 min 49 s
Channel(s)                               : 2 channels
Sampling rate                            : 48.0 kHz
Compression mode                         : Lossy
Language                                 : English
Menu
Duration                                 : 5 min 49 s
00:00:00.000                             : Chapter 1
00:00:01.500                             : Chapter 2
List (Audio)                             : 0
General
Complete name                            : D:\VIDEO_TS\VTS_05_0.IFO
Format                                   : DVD Video
Format profile                           : Program
File size                                : 16.0 KiB
Duration                                 : 5 min 49 s
Overall bit rate mode                    : Variable
Overall bit rate                         : 375 b/s
Video
ID                                       : 224 (0xE0)
Format                                   : MPEG Video
Format version                           : Version 2
Duration                                 : 5 min 49 s
Bit rate mode                            : Variable
Width                                    : 720 pixels
Height                                   : 480 pixels
Display aspect ratio                     : 16:9
Frame rate                               : 29.970 (29970/1000) FPS
Standard                                 : NTSC
Compression mode                         : Lossy
Audio
ID                                       : 128 (0x80)
Format                                   : AC-3
Format/Info                              : Audio Coding 3
Duration                                 : 5 min 49 s
Channel(s)                               : 2 channels
Sampling rate                            : 48.0 kHz
Compression mode                         : Lossy
Language                                 : English
Menu
Duration                                 : 5 min 49 s
00:00:00.000                             : Chapter 1
00:00:01.500                             : Chapter 2
List (Audio)                             : 0
General
Complete name                            : D:\VIDEO_TS\VTS_05_1.VOB
Format                                   : MPEG-PS
File size                                : 173 MiB
Duration                                 : 5 min 48 s
Overall bit rate mode                    : Variable
Overall bit rate                         : 4 171 kb/s
Video
ID                                       : 224 (0xE0)
Format                                   : MPEG Video
Format version                           : Version 2
Format profile                           : Main@Main
Format settings                          : CustomMatrix / BVOP
Format settings, BVOP                    : Yes
Format settings, Matrix                  : Custom
Format settings, GOP                     : Variable
Format settings, picture structure       : Frame
Duration                                 : 5 min 48 s
Bit rate mode                            : Variable
Bit rate                                 : 3 832 kb/s
Width                                    : 720 pixels
Height                                   : 480 pixels
Display aspect ratio                     : 16:9
Frame rate                               : 29.970 (30000/1001) FPS
Standard                                 : NTSC
Color space                              : YUV
Chroma subsampling                       : 4:2:0
Bit depth                                : 8 bits
Scan type                                : Interlaced
Scan order                               : Top Field First
Compression mode                         : Lossy
Bits/(Pixel*Frame)                       : 0.370
Stream size                              : 159 MiB (92%)
Audio
ID                                       : 189 (0xBD)-128 (0x80)
Format                                   : AC-3
Format/Info                              : Audio Coding 3
Commercial name                          : Dolby Digital
Muxing mode                              : DVD-Video
Duration                                 : 5 min 48 s
Bit rate mode                            : Constant
Bit rate                                 : 256 kb/s
Channel(s)                               : 2 channels
Channel layout                           : L R
Sampling rate                            : 48.0 kHz
Frame rate                               : 31.250 FPS (1536 SPF)
Bit depth                                : 16 bits
Compression mode                         : Lossy
Stream size                              : 10.6 MiB (6%)
Service kind                             : Complete Main


Скриншоты меню


Скриншоты







                                                                                                                                                               
                       
                       
                       
                       
                       
                                磁力下载:
                                                               
                                       
游客,本主题需向作者支付 7金币 才能浏览,金币充值, 免回复、免金币,直接查看内容请开通VIP购买主题

                                               
  • 3.85 GB
                                                                                           
  • 温馨提示

    记得善用社区搜索功能,那里可能会有你想要的资源;论坛站内搜索

    如果你有什么需要的资源可以去资源求档发帖,求助社区的网友,我们会在第一时间给你回复哦;资源求档

    对于本社区网盘链接失效密码错误各种报错请在反馈板块反馈报错发帖,您的支持,是我们发展的最大动力;投诉建议

    回复

    使用道具 举报

    您需要登录后才可以回帖 登录 | 立即注册 微信登录

    本版积分规则

    关注0

    粉丝10

    帖子61968

    发布主题
    阅读排行更多+
    关闭

    站长推荐上一条 /1 下一条

    活动提示

    双11活动通知:

    赞助永久VIP会员,赠送希捷/西部机械硬盘或者百度网盘SVIP一年(充值到你网盘帐号)+5000GB HIRES资源活动开启通知。

    地址:https://www.maomicd.com/huodong/

    我知道了
    收藏帖子 返回列表 这是一个自定义按钮
    音乐分享,音乐下载。
    微信公众号
    微信号:maomiyinyue
    意见反馈:admin@maomicd.com

    加入我们的官方QQ群和微信群

    Powered by Discuz! X3.4 Archiver|手机版|小黑屋|猫咪音乐网 ( 苏ICP备20015413号 )|( 苏公网安备 32030502000272号) 繁體

    JS of wanmeiff.com and vcpic.com Please keep this copyright information, respect of, thank you!JS of wanmeiff.com and vcpic.com Please keep this copyright information, respect of, thank you!

    GMT+8, 2020-11-26 15:34