请选择 进入手机版 | 继续访问电脑版

自购原抓音乐圈:只有自购、合购、原抓级高解析(hires、sacd、dsd)正版音乐资源分享!【点我打开
广告

[电子音乐] Nine Inch Nails - And All That Could Have Been. Live [2002, Industrial, 2 DVD9]

[复制链接]
全球采集 发表于 2020-10-30 21:24:07 | 显示全部楼层 |阅读模式 打印 上一主题 下一主题
Nine Inch Nails / And All That Could Have Been Live
Жанр: Industrial
Год издания: 2002
Продолжительность: 02:09:13
Источник: DVD из личной коллекции
Описание
Live DVD contains music recorded during the Fragility v2.0 US tour in 2000

DVD 1
Качество: DVD9
Формат: DVD-Video
Видео: PAL 4:3 (720x576) Bitrate: 8600 Kbps; Frame rate: 25.000 fps
Аудио 1: AC3 48 KHz 6 channels Constant 448 Kbps
Аудио 2: AC3 48 KHz 2 channels Constant 448 Kbps
Разбиение по главам: есть
Треклист
Треклист:
01. Terrible lie
02. Sin
03. March of the pigs
04. Piggy
05. The frail
06. The wretched
07. Gave up
08. La mer
09. The great below
10. The mark has been made
11. Wish
12. Complication

Отчёт MediaInfo
General
Complete name : F:\Мои Раздачи\Nine Inch Nails - And All That Could Have Been DVD\DVD 1\VIDEO_TS\VTS_01_2.VOB
Format : MPEG-PS
File size : 1 024 MiB
Duration : 14mn 49s
Overall bit rate : 9 655 Kbps
Video
ID : 224 (0xE0)
Format : MPEG Video
Format version : Version 2
Format profile : Main@Main
Format settings, BVOP : Yes
Format settings, Matrix : Custom
Format settings, GOP : M=2, N=12
Duration : 14mn 49s
Bit rate : 8 600 Kbps
Width : 720 pixels
Height : 576 pixels
Display aspect ratio : 4:3
Frame rate : 25.000 fps
Standard : PAL
Color space : YUV
Chroma subsampling : 4:2:0
Bit depth : 8 bits
Scan type : Interlaced
Scan order : Top Field First
Compression mode : Lossy
Bits/(Pixel*Frame) : 0.829
Time code of first frame : 01:13:44:11
Time code source : Group of pictures header
Stream size : 909 MiB (89%)
Audio #1
ID : 189 (0xBD)-128 (0x80)
Format : AC-3
Format/Info : Audio Coding 3
Mode extension : CM (complete main)
Format settings, Endianness : Big
Muxing mode : DVD-Video
Duration : 14mn 49s
Bit rate mode : Constant
Bit rate : 448 Kbps
Channel(s) : 6 channels
Channel positions : Front: L C R, Side: L R, LFE
Sampling rate : 48.0 KHz
Bit depth : 16 bits
Compression mode : Lossy
Delay relative to video : -224ms
Stream size : 47.5 MiB (5%)
Audio #2
ID : 189 (0xBD)-129 (0x81)
Format : AC-3
Format/Info : Audio Coding 3
Mode extension : CM (complete main)
Format settings, Endianness : Big
Muxing mode : DVD-Video
Duration : 14mn 49s
Bit rate mode : Constant
Bit rate : 448 Kbps
Channel(s) : 2 channels
Channel positions : Front: L R
Sampling rate : 48.0 KHz
Bit depth : 16 bits
Compression mode : Lossy
Delay relative to video : -224ms
Stream size : 47.5 MiB (5%)

Скриншоты меню





Скриншоты










DVD 2
Качество: DVD9
Формат: DVD-Video
Видео: PAL 4:3 (720x576) Bitrate: 6078-8600 Kbps; Frame rate: 25.000 fps
Аудио 1: AC3 48 KHz 6 channels Constant 448 Kbps
Аудио 2: AC3 48 KHz 2 channels Constant 448 Kbps
Разбиение по главам: есть
Треклист
Треклист:
13. Suck
14. Closer
15. Head like a hole
16. Just like you imagined
17. Starfuckers, inc.
18. Hurt
Bonus Features
Still Gallary
Audio commentary by Bill Viola discussing his video effects for "La Mer", "The Great Below" and "The Mark Has Been Made
Hidden features*
Beneath The Surface Menu
Reptile
The Day The World Went Away
Commercial: Ninetynine
Commercial: The Fragile
Commercial: Things Falling Apart
Starfuckers, Inc. Outro
The Beautiful People (At Madison Square Garden) (feat. Marilyn Manson)
*Hidden Features:
Disc 1: Additional camera angle for track 1-7.
To access Beneath The Surface Menu menu on PAL version, press 6 and OK/Enter at 11:19 on Disc 2).

Отчёт MediaInfo
General
Complete name : F:\Мои Раздачи\Nine Inch Nails - And All That Could Have Been DVD\DVD 2\VIDEO_TS\VTS_01_2.VOB
Format : MPEG-PS
File size : 1 024 MiB
Duration : 20mn 7s
Overall bit rate : 7 116 Kbps
Video
ID : 224 (0xE0)
Format : MPEG Video
Format version : Version 2
Format profile : Main@Main
Format settings, BVOP : Yes
Format settings, Matrix : Custom
Format settings, GOP : M=2, N=12
Duration : 20mn 7s
Bit rate : 6 078 Kbps
Maximum bit rate : 8 600 Kbps
Width : 720 pixels
Height : 576 pixels
Display aspect ratio : 4:3
Frame rate : 25.000 fps
Standard : PAL
Color space : YUV
Chroma subsampling : 4:2:0
Bit depth : 8 bits
Scan type : Interlaced
Scan order : Top Field First
Compression mode : Lossy
Bits/(Pixel*Frame) : 0.586
Time code of first frame : 01:47:21:13
Time code source : Group of pictures header
Stream size : 875 MiB (85%)
Audio #1
ID : 189 (0xBD)-128 (0x80)
Format : AC-3
Format/Info : Audio Coding 3
Mode extension : CM (complete main)
Format settings, Endianness : Big
Muxing mode : DVD-Video
Duration : 20mn 7s
Bit rate mode : Constant
Bit rate : 448 Kbps
Channel(s) : 6 channels
Channel positions : Front: L C R, Side: L R, LFE
Sampling rate : 48.0 KHz
Bit depth : 16 bits
Compression mode : Lossy
Delay relative to video : -328ms
Stream size : 64.5 MiB (6%)
Audio #2
ID : 189 (0xBD)-129 (0x81)
Format : AC-3
Format/Info : Audio Coding 3
Mode extension : CM (complete main)
Format settings, Endianness : Big
Muxing mode : DVD-Video
Duration : 20mn 7s
Bit rate mode : Constant
Bit rate : 448 Kbps
Channel(s) : 2 channels
Channel positions : Front: L R
Sampling rate : 48.0 KHz
Bit depth : 16 bits
Compression mode : Lossy
Delay relative to video : -328ms
Stream size : 64.5 MiB (6%)

Скриншоты меню





Скриншоты








Доп Инфо: Это PAL. Здесь можно забрать NTSC. Nine Inch Nails                                                                                                                                                               
                       
                       
                       
                       
                       
                                磁力下载:
                                                               
                                       
游客,本主题需向作者支付 7金币 才能浏览,金币充值, 免回复、免金币,直接查看内容请开通VIP购买主题

                                               
  • 10.82 GB
                                                                                           
  • 温馨提示

    记得善用社区搜索功能,那里可能会有你想要的资源;论坛站内搜索

    如果你有什么需要的资源可以去资源求档发帖,求助社区的网友,我们会在第一时间给你回复哦;资源求档

    对于本社区网盘链接失效密码错误各种报错请在反馈板块反馈报错发帖,您的支持,是我们发展的最大动力;投诉建议

    回复

    使用道具 举报

    您需要登录后才可以回帖 登录 | 立即注册 微信登录

    本版积分规则

    关注0

    粉丝10

    帖子61968

    发布主题
    阅读排行更多+
    关闭

    站长推荐上一条 /1 下一条

    活动提示

    双11活动通知:

    赞助永久VIP会员,赠送希捷/西部机械硬盘或者百度网盘SVIP一年(充值到你网盘帐号)+5000GB HIRES资源活动开启通知。

    地址:https://www.maomicd.com/huodong/

    我知道了
    收藏帖子 返回列表 这是一个自定义按钮
    音乐分享,音乐下载。
    微信公众号
    微信号:maomiyinyue
    意见反馈:admin@maomicd.com

    加入我们的官方QQ群和微信群

    Powered by Discuz! X3.4 Archiver|手机版|小黑屋|猫咪音乐网 ( 苏ICP备20015413号 )|( 苏公网安备 32030502000272号) 繁體

    JS of wanmeiff.com and vcpic.com Please keep this copyright information, respect of, thank you!JS of wanmeiff.com and vcpic.com Please keep this copyright information, respect of, thank you!

    GMT+8, 2020-12-5 10:29