请选择 进入手机版 | 继续访问电脑版

自购原抓音乐圈:只有自购、合购、原抓级高解析(hires、sacd、dsd)正版音乐资源分享!【点我打开
广告

[电子音乐] Various – Loveparade - The Official Compilation 2008: Highway To Love [2008, Hou

[复制链接]
全球采集 发表于 2020-10-30 21:23:22 | 显示全部楼层 |阅读模式 打印 上一主题 下一主题
Various – Loveparade - The Official Compilation 2008: Highway To Love
Страна: Germany
Жанр: House
Продолжительность: ~90 min
Год выпуска: 2008 г.
Лейбл: Ministry Of Sound

Треклист:
DVD: Best Of Loveparade 2007
DVD-1a Drum Connection – ESSEN2kilo7 (Loveparade 2007 Version)
DVD-1b Paul Johnson – Get Get Down (Laidback Luke Remix)
DVD-1c Johnny D – Orbitalife (Original Mix)
DVD-1d Dubfire – Emissions (Original Mix)
DVD-1e Three Drives – Greece 2000 (Gabi Newman Remix)
DVD-1f Rockers Hi-Fi – Push Push (M.A.N.D.Y.'s Pusher Remix)
DVD-1g Booka Shade – Charlotte (Dubfire Remix)
DVD-1h Gregor Tresher – A Thousand Nights Part 3 (Dubfire Quiet Storm Remix)
DVD-1i Italoboyz – Zinga (Original Mix)
DVD-1j Audion – Snap Into It (Original)
DVD-1k Moguai – Kick Out The Jams (Original Mix)
DVD-1l Tomcraft – Boogie Nights (Like An Eagle) (Lützenkirchen Remix)
DVD-1m Rex The Dog – Prototype
DVD-1n Jean Elan – Where's Your Head At (Elan's Club Mix)
DVD-1o Jean Claude Ades & Vincent Thomas – Shingaling (Original Mix)
DVD-1p Monika Kruse – Changes Of Perception (Original Mix)
DVD-1q Alter Ego – Gary (C2 Remix)
DVD-1r Ida Corr vs. Fedde Le Grand – Let Me Think About It (Gregor Salto & DJ Madskilz Remix)
DVD-1s Eric Prydz – Pjanoo (Instrumental Mix)
DVD-1t Armin van Buuren With DJ Shah Feat. Chris Jones (16) – Going Wrong (Armin van Buuren's Extended Mix)
DVD-1u Westbam And The Love Committee – Highway To Love
Bonus Video:
DVD-2 Westbam And The Love Committee – Highway To Love
Разбивка на главы по трекам: есть
Качество : DVD5
Формат: DVD video
Видео кодек: MPEG2
Аудио кодек: AC3
Видео: MPEG Video ,720x576, ~7000 kbps VBR, 4:3, 25,000 кадров/сек
Аудио: AC-3, 224 Кбит/сек, 48,0 КГц, 2 ch
DVDinfo

Общее
Полное имя                       : VA – Loveparade - The Official Compilation 2008 (Best of Loveparade 2007)\VIDEO_TS\VIDEO_TS.BUP
Формат                           : DVD Video
Профиль формата                  : Menu
Размер файла                     : 14,0 Кбайт
Режим общего битрейта            : Переменный
Видео
Идентификатор                    : 224 (0xE0)
Формат                           : MPEG Video
Версия формата                   : Version 2
Вид битрейта                     : Переменный
Ширина                           : 720 пикселей
Высота                           : 576 пикселей
Соотношение сторон               : 4:3
Частота кадров                   : 25,000 кадров/сек
Стандарт вещания                 : PAL
Метод сжатия                     : С потерями
Аудио
Формат                           : AC-3
Формат/Информация                : Audio Coding 3
Каналы                           : 2 канала
Частота                          : 48,0 КГц
Метод сжатия                     : С потерями
Текст
Формат                           : RLE
Формат/Информация                : Run-length encoding
Битовая глубина                  : 2 бит
Общее
Полное имя                       : VA – Loveparade - The Official Compilation 2008 (Best of Loveparade 2007)\VIDEO_TS\VIDEO_TS.IFO
Формат                           : DVD Video
Профиль формата                  : Menu
Размер файла                     : 14,0 Кбайт
Режим общего битрейта            : Переменный
Видео
Идентификатор                    : 224 (0xE0)
Формат                           : MPEG Video
Версия формата                   : Version 2
Вид битрейта                     : Переменный
Ширина                           : 720 пикселей
Высота                           : 576 пикселей
Соотношение сторон               : 4:3
Частота кадров                   : 25,000 кадров/сек
Стандарт вещания                 : PAL
Метод сжатия                     : С потерями
Аудио
Формат                           : AC-3
Формат/Информация                : Audio Coding 3
Каналы                           : 2 канала
Частота                          : 48,0 КГц
Метод сжатия                     : С потерями
Текст
Формат                           : RLE
Формат/Информация                : Run-length encoding
Битовая глубина                  : 2 бит
Общее
Полное имя                       : VA – Loveparade - The Official Compilation 2008 (Best of Loveparade 2007)\VIDEO_TS\VIDEO_TS.VOB
Формат                           : MPEG-PS
Размер файла                     : 109 Мбайт
Продолжительность                : 41 с.
Режим общего битрейта            : Переменный
Общий поток                      : 22,2 Мбит/сек
Библиотека кодирования           : encoded by TMPGEnc 4.0 XPress Version. 4.3.1.222
Видео
Идентификатор                    : 224 (0xE0)
Формат                           : MPEG Video
Версия формата                   : Version 2
Профиль формата                  : Main@Main
Параметр BVOP формата            : Да
Параметр матрицы формата         : Выборочная
Параметр GOP формата             : M=3, N=13
Продолжительность                : 41 с.
Вид битрейта                     : Переменный
Битрейт                          : 21,5 Мбит/сек
Максимальный битрейт             : 8000 Кбит/сек
Ширина                           : 720 пикселей
Высота                           : 576 пикселей
Соотношение сторон               : 4:3
Частота кадров                   : 25,000 кадров/сек
Стандарт вещания                 : PAL
Цветовое пространство            : YUV
Субдискретизация насыщенности    : 4:2:0
Битовая глубина                  : 8 бит
Тип развёртки                    : Чересстрочная
Порядок развёртки                : Верхнее поле первое
Метод сжатия                     : С потерями
Бит/(Пиксели*Кадры)              : 2.077
Размер потока                    : 106 Мбайт (97%)
Библиотека кодирования           : TMPGEnc XPress 4.3.1.222
Основные цвета                   : BT.470-2 System B, BT.470-2 System G
Характеристики трансфера         : BT.470-2 System B, BT.470-2 System G
Коэффициенты матрицы             : BT.470-2 System B, BT.470-2 System G
Аудио
Идентификатор                    : 189 (0xBD)-128 (0x80)
Формат                           : AC-3
Формат/Информация                : Audio Coding 3
Расширение режима                : CM (complete main)
Режим смешивания                 : DVD-Video
Продолжительность                : 41 с.
Вид битрейта                     : Постоянный
Битрейт                          : 224 Кбит/сек
Каналы                           : 2 канала
Расположение каналов             : Front: L R
Частота                          : 48,0 КГц
Битовая глубина                  : 16 бит
Метод сжатия                     : С потерями
Размер потока                    : 1,10 Мбайт (1%)
Текст
Идентификатор                    : 189 (0xBD)-32 (0x20)
Формат                           : RLE
Формат/Информация                : Run-length encoding
Режим смешивания                 : DVD-Video
Меню
Общее
Полное имя                       : VA – Loveparade - The Official Compilation 2008 (Best of Loveparade 2007)\VIDEO_TS\VTS_01_0.BUP
Формат                           : DVD Video
Профиль формата                  : Program
Размер файла                     : 14,0 Кбайт
Продолжительность                : 480 мс.
Режим общего битрейта            : Переменный
Общий поток                      : 239 Кбит/сек
Видео
Идентификатор                    : 224 (0xE0)
Формат                           : MPEG Video
Версия формата                   : Version 2
Продолжительность                : 480 мс.
Вид битрейта                     : Переменный
Ширина                           : 720 пикселей
Высота                           : 576 пикселей
Соотношение сторон               : 4:3
Частота кадров                   : 25,000 кадров/сек
Стандарт вещания                 : PAL
Метод сжатия                     : С потерями
Аудио
Идентификатор                    : 128 (0x80)
Формат                           : AC-3
Формат/Информация                : Audio Coding 3
Продолжительность                : 480 мс.
Каналы                           : 2 канала
Частота                          : 48,0 КГц
Метод сжатия                     : С потерями
Меню
Продолжительность                : 480 мс.
00:00:00.000                     : Chapter 1
List (Audio)                     : 0
Общее
Полное имя                       : VA – Loveparade - The Official Compilation 2008 (Best of Loveparade 2007)\VIDEO_TS\VTS_01_0.IFO
Формат                           : DVD Video
Профиль формата                  : Program
Размер файла                     : 14,0 Кбайт
Продолжительность                : 480 мс.
Режим общего битрейта            : Переменный
Общий поток                      : 239 Кбит/сек
Видео
Идентификатор                    : 224 (0xE0)
Формат                           : MPEG Video
Версия формата                   : Version 2
Продолжительность                : 480 мс.
Вид битрейта                     : Переменный
Ширина                           : 720 пикселей
Высота                           : 576 пикселей
Соотношение сторон               : 4:3
Частота кадров                   : 25,000 кадров/сек
Стандарт вещания                 : PAL
Метод сжатия                     : С потерями
Аудио
Идентификатор                    : 128 (0x80)
Формат                           : AC-3
Формат/Информация                : Audio Coding 3
Продолжительность                : 480 мс.
Каналы                           : 2 канала
Частота                          : 48,0 КГц
Метод сжатия                     : С потерями
Меню
Продолжительность                : 480 мс.
00:00:00.000                     : Chapter 1
List (Audio)                     : 0
Общее
Полное имя                       : VA – Loveparade - The Official Compilation 2008 (Best of Loveparade 2007)\VIDEO_TS\VTS_01_1.VOB
Формат                           : MPEG-PS
Размер файла                     : 354 Кбайт
Продолжительность                : 400 мс.
Общий поток                      : 7250 Кбит/сек
Видео
Идентификатор                    : 224 (0xE0)
Формат                           : MPEG Video
Версия формата                   : Version 2
Профиль формата                  : Main@Main
Параметр BVOP формата            : Да
Параметр матрицы формата         : Выборочная
Продолжительность                : 400 мс.
Максимальный битрейт             : 6000 Кбит/сек
Ширина                           : 720 пикселей
Высота                           : 576 пикселей
Соотношение сторон               : 4:3
Частота кадров                   : 25,000 кадров/сек
Стандарт вещания                 : PAL
Цветовое пространство            : YUV
Субдискретизация насыщенности    : 4:2:0
Битовая глубина                  : 8 бит
Тип развёртки                    : Чересстрочная
Порядок развёртки                : Верхнее поле первое
Метод сжатия                     : С потерями
Аудио
Идентификатор                    : 189 (0xBD)-128 (0x80)
Формат                           : AC-3
Формат/Информация                : Audio Coding 3
Расширение режима                : CM (complete main)
Режим смешивания                 : DVD-Video
Продолжительность                : 128 мс.
Вид битрейта                     : Постоянный
Битрейт                          : 224 Кбит/сек
Каналы                           : 2 канала
Расположение каналов             : Front: L R
Частота                          : 48,0 КГц
Битовая глубина                  : 16 бит
Метод сжатия                     : С потерями
Задержка видео                   : -80 мс.
Размер потока                    : 3,50 Кбайт (1%)
Меню
Общее
Полное имя                       : VA – Loveparade - The Official Compilation 2008 (Best of Loveparade 2007)\VIDEO_TS\VTS_02_0.BUP
Формат                           : DVD Video
Профиль формата                  : Program
Размер файла                     : 64,0 Кбайт
Продолжительность                : 1 ч. 30 м.
Режим общего битрейта            : Переменный
Общий поток                      : 96 бит/сек
Видео
Идентификатор                    : 224 (0xE0)
Формат                           : MPEG Video
Версия формата                   : Version 2
Продолжительность                : 1 ч. 30 м.
Вид битрейта                     : Переменный
Ширина                           : 720 пикселей
Высота                           : 576 пикселей
Соотношение сторон               : 4:3
Частота кадров                   : 25,000 кадров/сек
Стандарт вещания                 : PAL
Метод сжатия                     : С потерями
Аудио
Идентификатор                    : 128 (0x80)
Формат                           : AC-3
Формат/Информация                : Audio Coding 3
Продолжительность                : 1 ч. 30 м.
Каналы                           : 2 канала
Частота                          : 48,0 КГц
Метод сжатия                     : С потерями
Меню #1
Продолжительность                : 1 ч. 30 м.
00:00:00.000                     : Chapter 1
00:02:13.800                     : Chapter 2
00:04:49.000                     : Chapter 3
00:08:03.120                     : Chapter 4
00:10:17.960                     : Chapter 5
00:12:20.720                     : Chapter 6
00:14:24.280                     : Chapter 7
00:18:06.600                     : Chapter 8
00:20:27.280                     : Chapter 9
00:26:16.520                     : Chapter 10
00:31:37.080                     : Chapter 11
00:35:35.200                     : Chapter 12
00:40:27.840                     : Chapter 13
00:44:07.440                     : Chapter 14
00:48:41.520                     : Chapter 15
00:51:39.800                     : Chapter 16
00:55:39.800                     : Chapter 17
00:58:40.320                     : Chapter 18
01:02:52.680                     : Chapter 19
01:07:43.440                     : Chapter 20
01:12:44.680                     : Chapter 21
01:13:49.920                     : Chapter 22
01:16:17.640                     : Chapter 23
01:20:28.640                     : Chapter 24
01:22:41.600                     : Chapter 25
01:30:18.920                     : Chapter 26
List (Audio)                     : 0
Меню #2
Продолжительность                : 3 м. 23 с.
00:00:00.000                     : Chapter 1
00:03:23.000                     : Chapter 2
List (Audio)                     : 0
Общее
Полное имя                       : VA – Loveparade - The Official Compilation 2008 (Best of Loveparade 2007)\VIDEO_TS\VTS_02_0.IFO
Формат                           : DVD Video
Профиль формата                  : Program
Размер файла                     : 64,0 Кбайт
Продолжительность                : 1 ч. 30 м.
Режим общего битрейта            : Переменный
Общий поток                      : 96 бит/сек
Видео
Идентификатор                    : 224 (0xE0)
Формат                           : MPEG Video
Версия формата                   : Version 2
Продолжительность                : 1 ч. 30 м.
Вид битрейта                     : Переменный
Ширина                           : 720 пикселей
Высота                           : 576 пикселей
Соотношение сторон               : 4:3
Частота кадров                   : 25,000 кадров/сек
Стандарт вещания                 : PAL
Метод сжатия                     : С потерями
Аудио
Идентификатор                    : 128 (0x80)
Формат                           : AC-3
Формат/Информация                : Audio Coding 3
Продолжительность                : 1 ч. 30 м.
Каналы                           : 2 канала
Частота                          : 48,0 КГц
Метод сжатия                     : С потерями
Меню #1
Продолжительность                : 1 ч. 30 м.
00:00:00.000                     : Chapter 1
00:02:13.800                     : Chapter 2
00:04:49.000                     : Chapter 3
00:08:03.120                     : Chapter 4
00:10:17.960                     : Chapter 5
00:12:20.720                     : Chapter 6
00:14:24.280                     : Chapter 7
00:18:06.600                     : Chapter 8
00:20:27.280                     : Chapter 9
00:26:16.520                     : Chapter 10
00:31:37.080                     : Chapter 11
00:35:35.200                     : Chapter 12
00:40:27.840                     : Chapter 13
00:44:07.440                     : Chapter 14
00:48:41.520                     : Chapter 15
00:51:39.800                     : Chapter 16
00:55:39.800                     : Chapter 17
00:58:40.320                     : Chapter 18
01:02:52.680                     : Chapter 19
01:07:43.440                     : Chapter 20
01:12:44.680                     : Chapter 21
01:13:49.920                     : Chapter 22
01:16:17.640                     : Chapter 23
01:20:28.640                     : Chapter 24
01:22:41.600                     : Chapter 25
01:30:18.920                     : Chapter 26
List (Audio)                     : 0
Меню #2
Продолжительность                : 3 м. 23 с.
00:00:00.000                     : Chapter 1
00:03:23.000                     : Chapter 2
List (Audio)                     : 0
Общее
Полное имя                       : VA – Loveparade - The Official Compilation 2008 (Best of Loveparade 2007)\VIDEO_TS\VTS_02_1.VOB
Формат                           : MPEG-PS
Размер файла                     : 1024 Мбайт
Продолжительность                : 20 м.
Общий поток                      : 7076 Кбит/сек
Видео
Идентификатор                    : 224 (0xE0)
Формат                           : MPEG Video
Версия формата                   : Version 2
Профиль формата                  : Main@Main
Параметр BVOP формата            : Да
Параметр матрицы формата         : По умолчанию
Продолжительность                : 20 м.
Битрейт                          : 6712 Кбит/сек
Ширина                           : 720 пикселей
Высота                           : 576 пикселей
Соотношение сторон               : 4:3
Частота кадров                   : 25,000 кадров/сек
Стандарт вещания                 : PAL
Цветовое пространство            : YUV
Субдискретизация насыщенности    : 4:2:0
Битовая глубина                  : 8 бит
Метод сжатия                     : С потерями
Бит/(Пиксели*Кадры)              : 0.647
Размер потока                    : 971 Мбайт (95%)
Аудио
Идентификатор                    : 189 (0xBD)-128 (0x80)
Формат                           : AC-3
Формат/Информация                : Audio Coding 3
Расширение режима                : CM (complete main)
Режим смешивания                 : DVD-Video
Продолжительность                : 20 м.
Вид битрейта                     : Постоянный
Битрейт                          : 224 Кбит/сек
Каналы                           : 2 канала
Расположение каналов             : Front: L R
Частота                          : 48,0 КГц
Битовая глубина                  : 16 бит
Метод сжатия                     : С потерями
Задержка видео                   : -80 мс.
Размер потока                    : 32,4 Мбайт (3%)
Меню
Общее
Полное имя                       : VA – Loveparade - The Official Compilation 2008 (Best of Loveparade 2007)\VIDEO_TS\VTS_02_2.VOB
Формат                           : MPEG-PS
Размер файла                     : 1024 Мбайт
Продолжительность                : 24 м.
Режим общего битрейта            : Переменный
Общий поток                      : 5833 Кбит/сек
Видео
Идентификатор                    : 224 (0xE0)
Формат                           : MPEG Video
Версия формата                   : Version 2
Профиль формата                  : Main@Main
Параметр BVOP формата            : Да
Параметр матрицы формата         : По умолчанию
Параметр GOP формата             : M=3, N=12
Продолжительность                : 24 м.
Вид битрейта                     : Переменный
Битрейт                          : 5493 Кбит/сек
Максимальный битрейт             : 9000 Кбит/сек
Ширина                           : 720 пикселей
Высота                           : 576 пикселей
Соотношение сторон               : 4:3
Частота кадров                   : 25,000 кадров/сек
Стандарт вещания                 : PAL
Цветовое пространство            : YUV
Субдискретизация насыщенности    : 4:2:0
Битовая глубина                  : 8 бит
Тип развёртки                    : Чересстрочная
Порядок развёртки                : Нижнее поле первое
Метод сжатия                     : С потерями
Бит/(Пиксели*Кадры)              : 0.530
Размер потока                    : 964 Мбайт (94%)
Аудио
Идентификатор                    : 189 (0xBD)-128 (0x80)
Формат                           : AC-3
Формат/Информация                : Audio Coding 3
Расширение режима                : CM (complete main)
Режим смешивания                 : DVD-Video
Продолжительность                : 24 м.
Вид битрейта                     : Постоянный
Битрейт                          : 224 Кбит/сек
Каналы                           : 2 канала
Расположение каналов             : Front: L R
Частота                          : 48,0 КГц
Битовая глубина                  : 16 бит
Метод сжатия                     : С потерями
Задержка видео                   : -240 мс.
Размер потока                    : 39,3 Мбайт (4%)
Меню
Общее
Полное имя                       : VA – Loveparade - The Official Compilation 2008 (Best of Loveparade 2007)\VIDEO_TS\VTS_02_3.VOB
Формат                           : MPEG-PS
Размер файла                     : 1024 Мбайт
Продолжительность                : 24 м.
Режим общего битрейта            : Переменный
Общий поток                      : 5844 Кбит/сек
Видео
Идентификатор                    : 224 (0xE0)
Формат                           : MPEG Video
Версия формата                   : Version 2
Профиль формата                  : Main@Main
Параметр BVOP формата            : Да
Параметр матрицы формата         : По умолчанию
Параметр GOP формата             : M=3, N=12
Продолжительность                : 24 м.
Вид битрейта                     : Переменный
Битрейт                          : 5503 Кбит/сек
Максимальный битрейт             : 9000 Кбит/сек
Ширина                           : 720 пикселей
Высота                           : 576 пикселей
Соотношение сторон               : 4:3
Частота кадров                   : 25,000 кадров/сек
Стандарт вещания                 : PAL
Цветовое пространство            : YUV
Субдискретизация насыщенности    : 4:2:0
Битовая глубина                  : 8 бит
Тип развёртки                    : Чересстрочная
Порядок развёртки                : Нижнее поле первое
Метод сжатия                     : С потерями
Бит/(Пиксели*Кадры)              : 0.531
Размер потока                    : 964 Мбайт (94%)
Аудио
Идентификатор                    : 189 (0xBD)-128 (0x80)
Формат                           : AC-3
Формат/Информация                : Audio Coding 3
Расширение режима                : CM (complete main)
Режим смешивания                 : DVD-Video
Продолжительность                : 24 м.
Вид битрейта                     : Постоянный
Битрейт                          : 224 Кбит/сек
Каналы                           : 2 канала
Расположение каналов             : Front: L R
Частота                          : 48,0 КГц
Битовая глубина                  : 16 бит
Метод сжатия                     : С потерями
Задержка видео                   : -272 мс.
Размер потока                    : 39,2 Мбайт (4%)
Меню
Общее
Полное имя                       : VA – Loveparade - The Official Compilation 2008 (Best of Loveparade 2007)\VIDEO_TS\VTS_02_4.VOB
Формат                           : MPEG-PS
Размер файла                     : 878 Мбайт
Продолжительность                : 21 м.
Режим общего битрейта            : Переменный
Общий поток                      : 5830 Кбит/сек
Видео
Идентификатор                    : 224 (0xE0)
Формат                           : MPEG Video
Версия формата                   : Version 2
Профиль формата                  : Main@Main
Параметр BVOP формата            : Да
Параметр матрицы формата         : По умолчанию
Параметр GOP формата             : M=3, N=12
Продолжительность                : 21 м.
Вид битрейта                     : Переменный
Битрейт                          : 5490 Кбит/сек
Максимальный битрейт             : 9000 Кбит/сек
Ширина                           : 720 пикселей
Высота                           : 576 пикселей
Соотношение сторон               : 4:3
Частота кадров                   : 25,000 кадров/сек
Стандарт вещания                 : PAL
Цветовое пространство            : YUV
Субдискретизация насыщенности    : 4:2:0
Битовая глубина                  : 8 бит
Тип развёртки                    : Чересстрочная
Порядок развёртки                : Нижнее поле первое
Метод сжатия                     : С потерями
Бит/(Пиксели*Кадры)              : 0.529
Размер потока                    : 826 Мбайт (94%)
Аудио
Идентификатор                    : 189 (0xBD)-128 (0x80)
Формат                           : AC-3
Формат/Информация                : Audio Coding 3
Расширение режима                : CM (complete main)
Режим смешивания                 : DVD-Video
Продолжительность                : 21 м.
Вид битрейта                     : Постоянный
Битрейт                          : 224 Кбит/сек
Каналы                           : 2 канала
Расположение каналов             : Front: L R
Частота                          : 48,0 КГц
Битовая глубина                  : 16 бит
Метод сжатия                     : С потерями
Задержка видео                   : -256 мс.
Размер потока                    : 33,7 Мбайт (4%)
Меню


Скриншоты меню









Скриншоты































Maximillian Lenz (Westbam, Members of Mayday) \ Electric Kingdom & Low spirit Recordings

                                                                                                                                                               
                       
                       
                       
                       
                       
                                磁力下载:
                                                               
                                       
游客,本主题需向作者支付 7金币 才能浏览,金币充值, 免回复、免金币,直接查看内容请开通VIP购买主题

                                               
  • 3.96 GB
                                                                                           
  • 温馨提示

    记得善用社区搜索功能,那里可能会有你想要的资源;论坛站内搜索

    如果你有什么需要的资源可以去资源求档发帖,求助社区的网友,我们会在第一时间给你回复哦;资源求档

    对于本社区网盘链接失效密码错误各种报错请在反馈板块反馈报错发帖,您的支持,是我们发展的最大动力;投诉建议

    回复

    使用道具 举报

    您需要登录后才可以回帖 登录 | 立即注册 微信登录

    本版积分规则

    关注0

    粉丝10

    帖子61968

    发布主题
    阅读排行更多+
    关闭

    站长推荐上一条 /1 下一条

    活动提示

    双11活动通知:

    赞助永久VIP会员,赠送希捷/西部机械硬盘或者百度网盘SVIP一年(充值到你网盘帐号)+5000GB HIRES资源活动开启通知。

    地址:https://www.maomicd.com/huodong/

    我知道了
    收藏帖子 返回列表 这是一个自定义按钮
    音乐分享,音乐下载。
    微信公众号
    微信号:maomiyinyue
    意见反馈:admin@maomicd.com

    加入我们的官方QQ群和微信群

    Powered by Discuz! X3.4 Archiver|手机版|小黑屋|猫咪音乐网 ( 苏ICP备20015413号 )|( 苏公网安备 32030502000272号) 繁體

    JS of wanmeiff.com and vcpic.com Please keep this copyright information, respect of, thank you!JS of wanmeiff.com and vcpic.com Please keep this copyright information, respect of, thank you!

    GMT+8, 2020-12-2 11:13