请选择 进入手机版 | 继续访问电脑版

自购原抓音乐圈:只有自购、合购、原抓级高解析(hires、sacd、dsd)正版音乐资源分享!【点我打开
广告

[电子音乐] F.D.Project / Live - Electronic Circus [2009, Electro, Prog Rock, Ambient, DVD5]

[复制链接]
10086 发表于 2020-10-30 21:23:21 | 显示全部楼层 |阅读模式 打印 上一主题 下一主题
F.D.Project / Electronic Circus
Страна: Germany
Жанр: Electro, Prog Rock, Ambient
Продолжительность: 01:20:18
Год выпуска: 2009 г.
Лейбл: SynG@te
Номер по каталогу: DVD-R2168
Разбивка на главы по трекам: есть
Качество : DVD5
Формат: DVD video
Видео кодек: MPEG2
Видео: 720x576, 16:9, 6009kbps, 25fps
Аудио: MPEG Audio Lossy, 224kbps, 48KHz, 2ch
Треклист:
1. Mandarinentraum
2. Harmonie In Space
3. The Return Of O.
4. Shine On...Improvisation
5. Polarstern
6. Last Days
7. Heavensgate
8. The Return Of O...Bell Part
Доп. информация: discogs
CD диск данного альбома: ссылка
DVDinfo

General
Complete name                            : G:\!!!Torrents\DVD\VIDEO_TS\VTS_01_1.VOB
Format                                   : MPEG-PS
File size                                : 1 024 MiB
Duration                                 : 22mn 30s
Overall bit rate mode                    : Variable
Overall bit rate                         : 6 360 Kbps
Video
ID                                       : 224 (0xE0)
Format                                   : MPEG Video
Format version                           : Version 2
Format profile                           : Main@Main
Format settings, BVOP                    : Yes
Format settings, Matrix                  : Default
Format settings, GOP                     : M=3, N=12
Duration                                 : 22mn 30s
Bit rate mode                            : Variable
Bit rate                                 : 6 009 Kbps
Maximum bit rate                         : 9 500 Kbps
Width                                    : 720 pixels
Height                                   : 576 pixels
Display aspect ratio                     : 16:9
Frame rate                               : 25.000 fps
Standard                                 : PAL
Color space                              : YUV
Chroma subsampling                       : 4:2:0
Bit depth                                : 8 bits
Scan type                                : Interlaced
Scan order                               : Bottom Field First
Compression mode                         : Lossy
Bits/(Pixel*Frame)                       : 0.580
Time code of first frame                 : 00:00:00:00
Time code source                         : Group of pictures header
Stream size                              : 968 MiB (94%)
Audio
ID                                       : 192 (0xC0)
Format                                   : MPEG Audio
Format version                           : Version 1
Format profile                           : Layer 2
Duration                                 : 22mn 30s
Bit rate mode                            : Constant
Bit rate                                 : 224 Kbps
Channel(s)                               : 2 channels
Sampling rate                            : 48.0 KHz
Compression mode                         : Lossy
Stream size                              : 36.1 MiB (4%)
Menu


Скриншоты меню



Скриншоты








Об исполнителе (группе)

F.D.Project это немецкий музыкальный проект от Bereich Elektronische Musik. За ним стоит музыкант и композитор Frank Dorittke из Dinslaken. Его музыкальный стиль простирается от берлинской школы музыки до рока. Особенностью его композиций является проникновенная игра на гитаре, перекликающаяся с музыкой
Frank Dorittke очень рано полюбил музыку и гитару, в 1989 году стал гитаристом хардрок группы Imagine из города Динслакен. В группе он играл на соло-гитаре, Gibson Flying V Lefthand, особой версии для леворуких музыкантов. Другие участники группы Horst Juhst (вокал и басс), Gilbert Steffan (вокал и ударные) и Artur Linke (гитара).
В начале 90-ых он страстно полюбил электронную музыку, это стало его второй страстью, особую роль сыграли в его жизни произведения Tangerine Dream (Stratosfear), Klaus Schulze и Jean-Michel Jarre. И он стал создавать собственные произведения с помощью Commodore 64 и Sequenzer-Programm Studio 16 von Steinberg. Позже он дополнил свое оборудование, добавив синтезатор и приборы для создания эффектов. Лишь в 2003 году появился его первый диск Electronic Dreams. Его назвали "лучшим новичком" в том же году в программе Schwingungen на немецком радио. Далее последовали другие награждения за следующие новые его альбомы.
В 2009 году ему вручили новую в электронной музыке премию Schallwelle как лучшему музыканту 2008 года. Впервые на лайф-концерте в мае 2009 года и в январе 2010 в Oirschot F.D.Project играет в новой формации вместе с Ron Boots и Harold van de r Hejden (ударные)
источник
Огромная благодарность kami11chen за перевод с немецкого!


Приобретайте оригинальные диски

                                                                                                                                                               
                       
                       
                       
                       
                       
                                磁力下载:
                                                               
                                       
游客,本主题需向作者支付 7金币 才能浏览,金币充值, 免回复、免金币,直接查看内容请开通VIP购买主题

                                               
  • 3.91 GB
                                                                                           
  • 温馨提示

    记得善用社区搜索功能,那里可能会有你想要的资源;论坛站内搜索

    如果你有什么需要的资源可以去资源求档发帖,求助社区的网友,我们会在第一时间给你回复哦;资源求档

    对于本社区网盘链接失效密码错误各种报错请在反馈板块反馈报错发帖,您的支持,是我们发展的最大动力;投诉建议

    回复

    使用道具 举报

    您需要登录后才可以回帖 登录 | 立即注册 微信登录

    本版积分规则

    关注0

    粉丝2

    帖子28900

    发布主题
    阅读排行更多+
    关闭

    站长推荐上一条 /1 下一条

    活动提示

    双11活动通知:

    赞助永久VIP会员,赠送希捷/西部机械硬盘或者百度网盘SVIP一年(充值到你网盘帐号)+5000GB HIRES资源活动开启通知。

    地址:https://www.maomicd.com/huodong/

    我知道了
    收藏帖子 返回列表 这是一个自定义按钮
    音乐分享,音乐下载。
    微信公众号
    微信号:maomiyinyue
    意见反馈:admin@maomicd.com

    加入我们的官方QQ群和微信群

    Powered by Discuz! X3.4 Archiver|手机版|小黑屋|猫咪音乐网 ( 苏ICP备20015413号 )|( 苏公网安备 32030502000272号) 繁體

    JS of wanmeiff.com and vcpic.com Please keep this copyright information, respect of, thank you!JS of wanmeiff.com and vcpic.com Please keep this copyright information, respect of, thank you!

    GMT+8, 2020-11-26 08:47