请选择 进入手机版 | 继续访问电脑版

自购原抓音乐圈:只有自购、合购、原抓级高解析(hires、sacd、dsd)正版音乐资源分享!【点我打开
广告

[电子音乐] Gravy Train!!!! - Stame The Batch [2004, Electropop, Queercore, Riot Grrrl. DVD5

[复制链接]
全球采集 发表于 2020-10-30 21:23:06 | 显示全部楼层 |阅读模式 打印 上一主题 下一主题
Gravy Train!!!! - Stame The Batch

Год выпуска: 2004 год.
Жанр: Electropop, Queercore, Riot Grrrl.
Продолжительность: 120 минут.
Описание:
Первый официальный релиз на двд этой группы. В него включены музыкальные видеоклипы, многочисленные выступления на ТВ, интервью с QueerYouth и No-Fi радио, съемки за сценой, и многое другое.
P.S. Смотреть спойлер Gravy Train!!!!", не факт, что данный релиз Вам нужен!








Качество: DVD 5
Формат: DVD Video
Видео кодек: MPEG2
Аудио кодек: AC-3
Видео: NTSC 720x480 (4:3) 29.97fps 8200kbps
Аудио: Dolby AC3 48000Hz stereo 448kbps
Gravy Train!!!!
Formed: CA, United States.
Members: Hunx, Chunx, Junx, Funx.
Genres: Electropop, Queercore, Riot Grrrl.
http://www.amazon.com/Stame-Batch-Gravy-Train/dp/B0002YEY92
http://www.youtube.com/watch?v=PDK8LqsaeJ4
Riot Grrrl - феминистское движение, возникшее в инди - панк-роке 1990-х годов, нашедшее своё выражение с одной стороны - в грубом, жёстком, как правило, на любительском уровне сработанном панк-роке, с другой - в политической активности, на некоторое время превратившей этот жанр в влиятельную субкультуру.
Queercore - является культурным и социальным движением, которое началось в середине 1980-х годов, как ответвление от панка. Музыкальный жанр, в песнях которого поднимаются и изучаются темы ущербности и решения таких вопросов, как сексуальной и гендерной идентичности и прав человека, в связи недовольством общества в целом и полное неодобрение по поводу геев и лесбиянок, сообществом и его репрессивной направленности в этом направлении.
Правильное правописание включает четыре восклицательных знака Gravy Train!!! , не путать с известной прог группой 70-х Gravy Train (St Helens, Lancashire, United Kingdom)!
Gravy Train!!! исполняет музыку в стиле электропоп. Образована в 2001 году в Окленде, штат Калифорния. В настоящий момент группа подписала контракт с Kill Rock Stars.
Наиболее известны и популярны их песни на тему нетрадиционных сексуальных отношений между однополыми людьми, а также пропаганде рекреационного секса (известен под названием свингерство) среди геев мужчин.
Участников группы называют - Chunx, Hunx, Junx и FunX. Стиль музыки в исполнении Gravy Train!! часто ассоциируется с такими группами как Le Tigre и Avenue D.

Меню








Треклист
1 Ghost Boobs (Live At Batwiddicals)
2 Stop the Wedding
3 Lick
4 Ghost Boobs
5 Kottonmouth BJ (Dairy Queen Mix)
6 Strip 4 Me
7 Hair Stare
8 Hey Jody
9 Wutcha Wutcha Wutcha Wutcha Wutcha Wutcha Doin' Tonite?
10 D.A.N.N.Y.
11 All the Sweet Stuff
12 Solo J/O
13 Call Me in French
14 Frat Party
15 Delicious Treat
16 Club Situation
17 Just Listen
18 (Everybody Do) The Thingy Otis' Opuses
19 Jonny Makeup
20 Darque Tan
21 Gotta Get Outta Batwiddicals
22 Hump Lites
23 Bloopies (Skit)
24 Ghost Boobs
25 Nudies from the Road
26 Pussy Sauce
27 Stop the Wedding
28 I Wanna Wanna Wanna Wanna Wanna Wanna Wanna Get Rid of You
29 (Everybody Do) The Thingy ?
30 Kottonmouth BJ
31 Hella Nervous
32 Gutter Butter
33 Titties Bounce
34 You Made Me Gay
35 Pussy Thrusts [Exercise Demo]
36 Laffin' All Tthe Way...To The Bank!
37 Double Decker Supreme
38 Burger Baby
39 Mouthfulla Caps [Street Version]
40 Titties Bounce (Demo Version)

Скриншоты




















тех. данные
Video
ID : 224 (0xE0)
Format : MPEG Video
Format version : Version 2
Format profile : Main@Main
Format settings, Matrix : Default
Duration : 5mn 39s
Bit rate mode : Variable
Bit rate : 4 891 Kbps
Nominal bit rate : 8 200 Kbps
Width : 720 pixels
Height : 480 pixels
Display aspect ratio : 4:3
Frame rate : 29.970 fps
Standard : NTSC
Colorimetry : 4:2:0
Scan type : Interlaced
Scan order : Bottom Field First
Bits/(Pixel*Frame) : 0.472
Stream size : 198 MiB (88%)
Audio
ID : 128 (0x80)
Format : AC-3
Format/Info : Audio Coding 3
Duration : 5mn 39s
Bit rate mode : Constant
Bit rate : 448 Kbps
Channel(s) : 2 channels
Channel positions : L R
Sampling rate : 48.0 KHz
Stream size : 18.1 MiB (8%)

Коврик. Вкладыш. Накатка.






Буду всем премного благодарен за Ваше "Спасибо"
Приятного Вам просмотра!

Мои раздачи: http://torrents.ru/forum/tracker.php?rid=13227526                                                                                                                                                               
                       
                       
                       
                       
                       
                                磁力下载:
                                                               
                                       
游客,本主题需向作者支付 7金币 才能浏览,金币充值, 免回复、免金币,直接查看内容请开通VIP购买主题

                                               
  • 4.07 GB
                                                                                           
  • 温馨提示

    记得善用社区搜索功能,那里可能会有你想要的资源;论坛站内搜索

    如果你有什么需要的资源可以去资源求档发帖,求助社区的网友,我们会在第一时间给你回复哦;资源求档

    对于本社区网盘链接失效密码错误各种报错请在反馈板块反馈报错发帖,您的支持,是我们发展的最大动力;投诉建议

    回复

    使用道具 举报

    您需要登录后才可以回帖 登录 | 立即注册 微信登录

    本版积分规则

    关注0

    粉丝10

    帖子61968

    发布主题
    阅读排行更多+
    关闭

    站长推荐上一条 /1 下一条

    活动提示

    双11活动通知:

    赞助永久VIP会员,赠送希捷/西部机械硬盘或者百度网盘SVIP一年(充值到你网盘帐号)+5000GB HIRES资源活动开启通知。

    地址:https://www.maomicd.com/huodong/

    我知道了
    收藏帖子 返回列表 这是一个自定义按钮
    音乐分享,音乐下载。
    微信公众号
    微信号:maomiyinyue
    意见反馈:admin@maomicd.com

    加入我们的官方QQ群和微信群

    Powered by Discuz! X3.4 Archiver|手机版|小黑屋|猫咪音乐网 ( 苏ICP备20015413号 )|( 苏公网安备 32030502000272号) 繁體

    JS of wanmeiff.com and vcpic.com Please keep this copyright information, respect of, thank you!JS of wanmeiff.com and vcpic.com Please keep this copyright information, respect of, thank you!

    GMT+8, 2020-11-26 15:11