请选择 进入手机版 | 继续访问电脑版

自购原抓音乐圈:只有自购、合购、原抓级高解析(hires、sacd、dsd)正版音乐资源分享!【点我打开
广告

[电子音乐] Mlada Fronta - Dioxydes [2005, Techno, Ambient, Industrial, IDM, DVD9]

[复制链接]
沙田实名认证 发表于 2020-10-30 21:23:06 | 显示全部楼层 |阅读模式 打印 上一主题 下一主题
Mlada Fronta Dioxydes

Страна: France
Жанр: Techno, Ambient, Industrial, IDM
Продолжительность: 01:56:00
Год выпуска: 2005 г.
Лейбл: Parametric
Описание: The DVD is dedicated to John Carpenter for his great 1976 - 1983 period.
Comes in a metal box, containing a booklet with 12 postcards and some stickers. Contains bonus material, including unmentioned things like photos, a live video from Maschinenfest 2004 and a m4a track.
Разбивка на главы по трекам: есть
Качество : DVD9
Формат: DVD video
Видео кодек: MPEG2
Аудио кодек: PCM
Видео: MPEG2, 720x576, 4:3, 7500 kbps, 25 fps
Аудио: PCM, 1536 kbps, 48 kHz, 2 ch
Треклист :
1 Dioxydes (65:00)
1.01 CO2
1.02 H2O2
1.03 PbO2
1.04 Li2O2
1.05 MnO2
1.06 NO2
1.07 RuO2
1.08 SnO2
1.09 TiO2
1.10 UO2
1.11 RhO2
1.12 OSO2
2 Le Cycle Du Soleil (28:30)
2.01 Year 1
2.02 Year 2
2.03 Year 3
2.04 Year 4
2.05 Year 5
2.06 Year 6
2.07 Year 7
2.08 Year 8
2.09 Year 9
2.10 Year 10
2.11 Year 11
3 Long Time After (3:10)
4 Radio Documentary 'The Shaker' (18:30)
5 Credit Titles (1:55)

DVDinfo

Общее
Полное имя                               : H:\Video\Music\Mlada Fronta - Dioxydes DVD 9\VIDEO_TS\VIDEO_TS.BUP
Формат                                   : DVD Video
Профиль формата                          : Menu
Размер файла                             : 22,0 Кбайт
Режим общего битрейта                    : Переменный
Видео
Идентификатор                            : 224 (0xE0)
Формат                                   : MPEG Video
Версия формата                           : Version 2
Вид битрейта                             : Переменный
Ширина                                   : 720 пикселей
Высота                                   : 576 пикселей
Соотношение сторон                       : 4:3
Частота кадров                           : 25,000 кадров/сек
Стандарт вещания                         : PAL
Метод сжатия                             : С потерями
Текст
Формат                                   : RLE
Формат/Информация                        : Run-length encoding
Битовая глубина                          : 2 бит
Общее
Полное имя                               : H:\Video\Music\Mlada Fronta - Dioxydes DVD 9\VIDEO_TS\VIDEO_TS.IFO
Формат                                   : DVD Video
Профиль формата                          : Menu
Размер файла                             : 22,0 Кбайт
Режим общего битрейта                    : Переменный
Видео
Идентификатор                            : 224 (0xE0)
Формат                                   : MPEG Video
Версия формата                           : Version 2
Вид битрейта                             : Переменный
Ширина                                   : 720 пикселей
Высота                                   : 576 пикселей
Соотношение сторон                       : 4:3
Частота кадров                           : 25,000 кадров/сек
Стандарт вещания                         : PAL
Метод сжатия                             : С потерями
Текст
Формат                                   : RLE
Формат/Информация                        : Run-length encoding
Битовая глубина                          : 2 бит
Общее
Полное имя                               : H:\Video\Music\Mlada Fronta - Dioxydes DVD 9\VIDEO_TS\VIDEO_TS.VOB
Формат                                   : MPEG-PS
Размер файла                             : 154 Кбайт
Продолжительность                        : 600 мс.
Общий поток                              : 2103 Кбит/сек
Видео
Идентификатор                            : 224 (0xE0)
Формат                                   : MPEG Video
Версия формата                           : Version 2
Профиль формата                          : Main@Main
Параметр BVOP формата                    : Да
Параметр матрицы формата                 : Выборочная
Format_Settings_PictureStructure         : Frame
Продолжительность                        : 600 мс.
Максимальный битрейт                     : 2000 Кбит/сек
Ширина                                   : 720 пикселей
Высота                                   : 576 пикселей
Соотношение сторон                       : 4:3
Частота кадров                           : 25,000 кадров/сек
Стандарт вещания                         : PAL
Цветовое пространство                    : YUV
Субдискретизация насыщенности            : 4:2:0
Битовая глубина                          : 8 бит
Тип развёртки                            : Чересстрочная
Порядок развёртки                        : Верхнее поле первое
Метод сжатия                             : С потерями
Временной код первого кадра              : 00:00:00:00
Оригинал временного кода                 : Group of pictures header
Текст
Идентификатор                            : 189 (0xBD)-32 (0x20)
Формат                                   : RLE
Формат/Информация                        : Run-length encoding
Режим смешивания                         : DVD-Video
Меню
Общее
Полное имя                               : H:\Video\Music\Mlada Fronta - Dioxydes DVD 9\VIDEO_TS\VTS_01_0.BUP
Формат                                   : DVD Video
Профиль формата                          : Program
Размер файла                             : 72,0 Кбайт
Продолжительность                        : 1 ч. 6 м.
Режим общего битрейта                    : Переменный
Общий поток                              : 148 бит/сек
Видео
Идентификатор                            : 224 (0xE0)
Формат                                   : MPEG Video
Версия формата                           : Version 2
Продолжительность                        : 1 ч. 6 м.
Вид битрейта                             : Переменный
Ширина                                   : 720 пикселей
Высота                                   : 576 пикселей
Соотношение сторон                       : 4:3
Частота кадров                           : 25,000 кадров/сек
Стандарт вещания                         : PAL
Метод сжатия                             : С потерями
Аудио
Идентификатор                            : 0 (0x0)
Формат                                   : PCM
Продолжительность                        : 1 ч. 6 м.
Каналы                                   : 2 канала
Частота                                  : 48,0 КГц
Меню #1
Продолжительность                        : 1 ч. 6 м.
00:00:00.000                             : Chapter 1
00:01:01.560                             : Chapter 2
00:06:16.760                             : Chapter 3
00:10:40.160                             : Chapter 4
00:16:28.000                             : Chapter 5
00:21:19.280                             : Chapter 6
00:26:42.280                             : Chapter 7
00:33:43.000                             : Chapter 8
00:38:05.760                             : Chapter 9
00:44:08.760                             : Chapter 10
00:50:36.720                             : Chapter 11
00:55:10.960                             : Chapter 12
01:05:02.360                             : Chapter 13
List (Audio)                             : 0
Меню #2
Продолжительность                        : 1 ч. 6 м.
00:00:00.000                             : Chapter 1
01:00:02.000                             : Chapter 2
03:00:22.000                             : Chapter 3
06:00:49.000                             : Chapter 4
10:00:54.280                             : Chapter 5
15:00:58.720                             : Chapter 6
21:01:26.720                             : Chapter 7
28:01:33.720                             : Chapter 8
36:01:59.720                             : Chapter 9
45:02:08.720                             : Chapter 10
45:02:41.720                             : Chapter 11
45:03:19.720                             : Chapter 12
45:03:29.160                             : Chapter 13
List (Audio)                             : 0
Общее
Полное имя                               : H:\Video\Music\Mlada Fronta - Dioxydes DVD 9\VIDEO_TS\VTS_01_0.IFO
Формат                                   : DVD Video
Профиль формата                          : Program
Размер файла                             : 72,0 Кбайт
Продолжительность                        : 1 ч. 6 м.
Режим общего битрейта                    : Переменный
Общий поток                              : 148 бит/сек
Видео
Идентификатор                            : 224 (0xE0)
Формат                                   : MPEG Video
Версия формата                           : Version 2
Продолжительность                        : 1 ч. 6 м.
Вид битрейта                             : Переменный
Ширина                                   : 720 пикселей
Высота                                   : 576 пикселей
Соотношение сторон                       : 4:3
Частота кадров                           : 25,000 кадров/сек
Стандарт вещания                         : PAL
Метод сжатия                             : С потерями
Аудио
Идентификатор                            : 0 (0x0)
Формат                                   : PCM
Продолжительность                        : 1 ч. 6 м.
Каналы                                   : 2 канала
Частота                                  : 48,0 КГц
Меню #1
Продолжительность                        : 1 ч. 6 м.
00:00:00.000                             : Chapter 1
00:01:01.560                             : Chapter 2
00:06:16.760                             : Chapter 3
00:10:40.160                             : Chapter 4
00:16:28.000                             : Chapter 5
00:21:19.280                             : Chapter 6
00:26:42.280                             : Chapter 7
00:33:43.000                             : Chapter 8
00:38:05.760                             : Chapter 9
00:44:08.760                             : Chapter 10
00:50:36.720                             : Chapter 11
00:55:10.960                             : Chapter 12
01:05:02.360                             : Chapter 13
List (Audio)                             : 0
Меню #2
Продолжительность                        : 1 ч. 6 м.
00:00:00.000                             : Chapter 1
01:00:02.000                             : Chapter 2
03:00:22.000                             : Chapter 3
06:00:49.000                             : Chapter 4
10:00:54.280                             : Chapter 5
15:00:58.720                             : Chapter 6
21:01:26.720                             : Chapter 7
28:01:33.720                             : Chapter 8
36:01:59.720                             : Chapter 9
45:02:08.720                             : Chapter 10
45:02:41.720                             : Chapter 11
45:03:19.720                             : Chapter 12
45:03:29.160                             : Chapter 13
List (Audio)                             : 0
Общее
Полное имя                               : H:\Video\Music\Mlada Fronta - Dioxydes DVD 9\VIDEO_TS\VTS_01_0.VOB
Формат                                   : MPEG-PS
Размер файла                             : 88,0 Мбайт
Продолжительность                        : 2 с. 0 мс.
Режим общего битрейта                    : Переменный
Общий поток                              : 369 Мбит/сек
Библиотека кодирования                   : BitVice MPEG2 Encoder Vn 1.3.3 PPC G4 (c) 2003 Innobits AB
Видео
Идентификатор                            : 224 (0xE0)
Формат                                   : MPEG Video
Версия формата                           : Version 2
Профиль формата                          : Main@Main
Параметр BVOP формата                    : Да
Параметр матрицы формата                 : Выборочная
Параметр GOP формата                     : Variable
Продолжительность                        : 2 с. 0 мс.
Вид битрейта                             : Переменный
Битрейт                                  : 362 Мбит/сек
Максимальный битрейт                     : 8549 Кбит/сек
Ширина                                   : 720 пикселей
Высота                                   : 576 пикселей
Соотношение сторон                       : 4:3
Частота кадров                           : 25,000 кадров/сек
Стандарт вещания                         : PAL
Цветовое пространство                    : YUV
Субдискретизация насыщенности            : 4:2:0
Битовая глубина                          : 8 бит
Тип развёртки                            : Прогрессивная
Порядок развёртки                        : Нижнее поле первое
Метод сжатия                             : С потерями
Бит/(Пиксели*Кадры)                      : 34.868
Временной код первого кадра              : 00:00:00:00
Оригинал временного кода                 : Group of pictures header
Размер потока                            : 86,2 Мбайт (98%)
Библиотека кодирования                   : BitVice MPEG2 Encoder Vn 1.3.3 PPC G4 (c) 2003 Innobits AB
Основные цвета                           : BT.601 PAL
Характеристики трансфера                 : BT.470 System B, BT.470 System G
Коэффициенты матрицы                     : BT.601
Gop_OpenClosed_FirstFrame                : Closed
Аудио
Идентификатор                            : 189 (0xBD)-128 (0x80)
Формат                                   : AC-3
Формат/Информация                        : Audio Coding 3
Расширение режима                        : ME (music and effects)
Параметр Endianness формата              : Big
Режим смешивания                         : DVD-Video
Продолжительность                        : 2 с. 0 мс.
Вид битрейта                             : Постоянный
Битрейт                                  : 448 Кбит/сек
Каналы                                   : 2 канала
Расположение каналов                     : Front: L R
Частота                                  : 48,0 КГц
Битовая глубина                          : 16 бит
Метод сжатия                             : С потерями
Размер потока                            : 109 Кбайт (0%)
Текст
Идентификатор                            : 189 (0xBD)-32 (0x20)
Формат                                   : RLE
Формат/Информация                        : Run-length encoding
Режим смешивания                         : DVD-Video
Меню
Общее
Полное имя                               : H:\Video\Music\Mlada Fronta - Dioxydes DVD 9\VIDEO_TS\VTS_01_1.VOB
Формат                                   : MPEG-PS
Размер файла                             : 1024 Мбайт
Продолжительность                        : 14 м.
Режим общего битрейта                    : Переменный
Общий поток                              : 9674 Кбит/сек
Библиотека кодирования                   : BitVice MPEG2 Encoder Vn 1.3.3 PPC G4 (c) 2003 Innobits AB
Видео
Идентификатор                            : 224 (0xE0)
Формат                                   : MPEG Video
Версия формата                           : Version 2
Профиль формата                          : Main@Main
Параметр BVOP формата                    : Да
Параметр матрицы формата                 : Выборочная
Параметр GOP формата                     : M=3, N=12
Продолжительность                        : 14 м.
Вид битрейта                             : Переменный
Битрейт                                  : 7945 Кбит/сек
Максимальный битрейт                     : 7545 Кбит/сек
Ширина                                   : 720 пикселей
Высота                                   : 576 пикселей
Соотношение сторон                       : 4:3
Частота кадров                           : 25,000 кадров/сек
Стандарт вещания                         : PAL
Цветовое пространство                    : YUV
Субдискретизация насыщенности            : 4:2:0
Битовая глубина                          : 8 бит
Тип развёртки                            : Прогрессивная
Порядок развёртки                        : Нижнее поле первое
Метод сжатия                             : С потерями
Бит/(Пиксели*Кадры)                      : 0.766
Временной код первого кадра              : 00:00:00:00
Оригинал временного кода                 : Group of pictures header
Размер потока                            : 841 Мбайт (82%)
Библиотека кодирования                   : BitVice MPEG2 Encoder Vn 1.3.3 PPC G4 (c) 2003 Innobits AB
Основные цвета                           : BT.601 PAL
Характеристики трансфера                 : BT.470 System B, BT.470 System G
Коэффициенты матрицы                     : BT.601
Gop_OpenClosed_FirstFrame                : Closed
Аудио
Идентификатор                            : 189 (0xBD)-160 (0xA0)
Формат                                   : PCM
Параметр Endianness формата              : Big
Параметр Sign формата                    : Signed
Режим смешивания                         : DVD-Video
Продолжительность                        : 14 м.
Вид битрейта                             : Постоянный
Битрейт                                  : 1536 Кбит/сек
Каналы                                   : 2 канала
Частота                                  : 48,0 КГц
Битовая глубина                          : 24 бит
Размер потока                            : 163 Мбайт (16%)
Меню
Общее
Полное имя                               : H:\Video\Music\Mlada Fronta - Dioxydes DVD 9\VIDEO_TS\VTS_01_2.VOB
Формат                                   : MPEG-PS
Размер файла                             : 1024 Мбайт
Продолжительность                        : 15 м.
Режим общего битрейта                    : Переменный
Общий поток                              : 9462 Кбит/сек
Видео
Идентификатор                            : 224 (0xE0)
Формат                                   : MPEG Video
Версия формата                           : Version 2
Профиль формата                          : Main@Main
Параметр BVOP формата                    : Да
Параметр матрицы формата                 : Выборочная
Параметр GOP формата                     : M=3, N=12
Продолжительность                        : 15 м.
Вид битрейта                             : Переменный
Битрейт                                  : 7737 Кбит/сек
Максимальный битрейт                     : 7545 Кбит/сек
Ширина                                   : 720 пикселей
Высота                                   : 576 пикселей
Соотношение сторон                       : 4:3
Частота кадров                           : 25,000 кадров/сек
Стандарт вещания                         : PAL
Цветовое пространство                    : YUV
Субдискретизация насыщенности            : 4:2:0
Битовая глубина                          : 8 бит
Тип развёртки                            : Прогрессивная
Порядок развёртки                        : Нижнее поле первое
Метод сжатия                             : С потерями
Бит/(Пиксели*Кадры)                      : 0.746
Временной код первого кадра              : 00:04:07:20
Оригинал временного кода                 : Group of pictures header
Размер потока                            : 837 Мбайт (82%)
Основные цвета                           : BT.601 PAL
Характеристики трансфера                 : BT.470 System B, BT.470 System G
Коэффициенты матрицы                     : BT.601
Аудио
Идентификатор                            : 189 (0xBD)-160 (0xA0)
Формат                                   : PCM
Параметр Endianness формата              : Big
Параметр Sign формата                    : Signed
Режим смешивания                         : DVD-Video
Продолжительность                        : 15 м.
Вид битрейта                             : Постоянный
Битрейт                                  : 1536 Кбит/сек
Каналы                                   : 2 канала
Частота                                  : 48,0 КГц
Битовая глубина                          : 24 бит
Задержка видео                           : -497 мс.
Размер потока                            : 166 Мбайт (16%)
Меню
Общее
Полное имя                               : H:\Video\Music\Mlada Fronta - Dioxydes DVD 9\VIDEO_TS\VTS_01_3.VOB
Формат                                   : MPEG-PS
Размер файла                             : 1024 Мбайт
Продолжительность                        : 15 м.
Режим общего битрейта                    : Переменный
Общий поток                              : 9389 Кбит/сек
Видео
Идентификатор                            : 224 (0xE0)
Формат                                   : MPEG Video
Версия формата                           : Version 2
Профиль формата                          : Main@Main
Параметр BVOP формата                    : Да
Параметр матрицы формата                 : Выборочная
Параметр GOP формата                     : M=3, N=12
Продолжительность                        : 15 м.
Вид битрейта                             : Переменный
Битрейт                                  : 7666 Кбит/сек
Максимальный битрейт                     : 7545 Кбит/сек
Ширина                                   : 720 пикселей
Высота                                   : 576 пикселей
Соотношение сторон                       : 4:3
Частота кадров                           : 25,000 кадров/сек
Стандарт вещания                         : PAL
Цветовое пространство                    : YUV
Субдискретизация насыщенности            : 4:2:0
Битовая глубина                          : 8 бит
Тип развёртки                            : Прогрессивная
Порядок развёртки                        : Нижнее поле первое
Метод сжатия                             : С потерями
Бит/(Пиксели*Кадры)                      : 0.739
Временной код первого кадра              : 00:03:13:11
Оригинал временного кода                 : Group of pictures header
Размер потока                            : 836 Мбайт (82%)
Основные цвета                           : BT.601 PAL
Характеристики трансфера                 : BT.470 System B, BT.470 System G
Коэффициенты матрицы                     : BT.601
Аудио
Идентификатор                            : 189 (0xBD)-160 (0xA0)
Формат                                   : PCM
Параметр Endianness формата              : Big
Параметр Sign формата                    : Signed
Режим смешивания                         : DVD-Video
Продолжительность                        : 15 м.
Вид битрейта                             : Постоянный
Битрейт                                  : 1536 Кбит/сек
Каналы                                   : 2 канала
Частота                                  : 48,0 КГц
Битовая глубина                          : 24 бит
Задержка видео                           : -522 мс.
Размер потока                            : 167 Мбайт (16%)
Меню
Общее
Полное имя                               : H:\Video\Music\Mlada Fronta - Dioxydes DVD 9\VIDEO_TS\VTS_01_4.VOB
Формат                                   : MPEG-PS
Размер файла                             : 1024 Мбайт
Продолжительность                        : 14 м.
Режим общего битрейта                    : Переменный
Общий поток                              : 9746 Кбит/сек
Видео
Идентификатор                            : 224 (0xE0)
Формат                                   : MPEG Video
Версия формата                           : Version 2
Профиль формата                          : Main@Main
Параметр BVOP формата                    : Да
Параметр матрицы формата                 : Выборочная
Параметр GOP формата                     : M=3, N=12
Продолжительность                        : 14 м.
Вид битрейта                             : Переменный
Битрейт                                  : 8016 Кбит/сек
Максимальный битрейт                     : 7545 Кбит/сек
Ширина                                   : 720 пикселей
Высота                                   : 576 пикселей
Соотношение сторон                       : 4:3
Частота кадров                           : 25,000 кадров/сек
Стандарт вещания                         : PAL
Цветовое пространство                    : YUV
Субдискретизация насыщенности            : 4:2:0
Битовая глубина                          : 8 бит
Тип развёртки                            : Прогрессивная
Порядок развёртки                        : Нижнее поле первое
Метод сжатия                             : С потерями
Бит/(Пиксели*Кадры)                      : 0.773
Временной код первого кадра              : 00:01:01:16
Оригинал временного кода                 : Group of pictures header
Размер потока                            : 842 Мбайт (82%)
Основные цвета                           : BT.601 PAL
Характеристики трансфера                 : BT.470 System B, BT.470 System G
Коэффициенты матрицы                     : BT.601
Аудио
Идентификатор                            : 189 (0xBD)-160 (0xA0)
Формат                                   : PCM
Параметр Endianness формата              : Big
Параметр Sign формата                    : Signed
Режим смешивания                         : DVD-Video
Продолжительность                        : 14 м.
Вид битрейта                             : Постоянный
Битрейт                                  : 1536 Кбит/сек
Каналы                                   : 2 канала
Частота                                  : 48,0 КГц
Битовая глубина                          : 24 бит
Задержка видео                           : -423 мс.
Размер потока                            : 161 Мбайт (16%)
Меню
Общее
Полное имя                               : H:\Video\Music\Mlada Fronta - Dioxydes DVD 9\VIDEO_TS\VTS_01_5.VOB
Формат                                   : MPEG-PS
Размер файла                             : 367 Мбайт
Продолжительность                        : 6 м. 38 с.
Режим общего битрейта                    : Переменный
Общий поток                              : 7736 Кбит/сек
Видео
Идентификатор                            : 224 (0xE0)
Формат                                   : MPEG Video
Версия формата                           : Version 2
Профиль формата                          : Main@Main
Параметр BVOP формата                    : Да
Параметр матрицы формата                 : Выборочная
Параметр GOP формата                     : M=3, N=12
Продолжительность                        : 6 м. 38 с.
Вид битрейта                             : Переменный
Битрейт                                  : 6046 Кбит/сек
Максимальный битрейт                     : 7545 Кбит/сек
Ширина                                   : 720 пикселей
Высота                                   : 576 пикселей
Соотношение сторон                       : 4:3
Частота кадров                           : 25,000 кадров/сек
Стандарт вещания                         : PAL
Цветовое пространство                    : YUV
Субдискретизация насыщенности            : 4:2:0
Битовая глубина                          : 8 бит
Тип развёртки                            : Прогрессивная
Порядок развёртки                        : Нижнее поле первое
Метод сжатия                             : С потерями
Бит/(Пиксели*Кадры)                      : 0.583
Временной код первого кадра              : 00:04:40:15
Оригинал временного кода                 : Group of pictures header
Размер потока                            : 287 Мбайт (78%)
Основные цвета                           : BT.601 PAL
Характеристики трансфера                 : BT.470 System B, BT.470 System G
Коэффициенты матрицы                     : BT.601
Аудио
Идентификатор                            : 189 (0xBD)-160 (0xA0)
Формат                                   : PCM
Параметр Endianness формата              : Big
Параметр Sign формата                    : Signed
Режим смешивания                         : DVD-Video
Продолжительность                        : 6 м. 38 с.
Вид битрейта                             : Постоянный
Битрейт                                  : 1536 Кбит/сек
Каналы                                   : 2 канала
Частота                                  : 48,0 КГц
Битовая глубина                          : 24 бит
Задержка видео                           : -367 мс.
Размер потока                            : 73,0 Мбайт (20%)
Меню
Общее
Полное имя                               : H:\Video\Music\Mlada Fronta - Dioxydes DVD 9\VIDEO_TS\VTS_02_0.BUP
Формат                                   : DVD Video
Профиль формата                          : Program
Размер файла                             : 38,0 Кбайт
Продолжительность                        : 29 м.
Режим общего битрейта                    : Переменный
Общий поток                              : 178 бит/сек
Видео
Идентификатор                            : 224 (0xE0)
Формат                                   : MPEG Video
Версия формата                           : Version 2
Продолжительность                        : 29 м.
Вид битрейта                             : Переменный
Ширина                                   : 720 пикселей
Высота                                   : 576 пикселей
Соотношение сторон                       : 4:3
Частота кадров                           : 25,000 кадров/сек
Стандарт вещания                         : PAL
Метод сжатия                             : С потерями
Аудио
Идентификатор                            : 0 (0x0)
Формат                                   : PCM
Продолжительность                        : 29 м.
Каналы                                   : 2 канала
Частота                                  : 48,0 КГц
Меню #1
Продолжительность                        : 29 м.
00:00:00.000                             : Chapter 1
00:02:36.960                             : Chapter 2
00:05:11.520                             : Chapter 3
00:07:44.640                             : Chapter 4
00:10:21.120                             : Chapter 5
00:12:54.720                             : Chapter 6
00:15:30.240                             : Chapter 7
00:18:03.840                             : Chapter 8
00:20:42.240                             : Chapter 9
00:23:20.640                             : Chapter 10
00:25:55.200                             : Chapter 11
00:28:31.200                             : Chapter 12
List (Audio)                             : 0
Меню #2
Продолжительность                        : 29 м.
00:00:00.000                             : Chapter 1
00:02:36.960                             : Chapter 2
00:05:11.520                             : Chapter 3
00:07:44.640                             : Chapter 4
00:10:21.120                             : Chapter 5
00:12:54.720                             : Chapter 6
00:15:30.240                             : Chapter 7
00:18:03.840                             : Chapter 8
00:20:42.240                             : Chapter 9
00:23:20.640                             : Chapter 10
00:25:55.200                             : Chapter 11
00:28:31.200                             : Chapter 12
List (Audio)                             : 0
Общее
Полное имя                               : H:\Video\Music\Mlada Fronta - Dioxydes DVD 9\VIDEO_TS\VTS_02_0.IFO
Формат                                   : DVD Video
Профиль формата                          : Program
Размер файла                             : 38,0 Кбайт
Продолжительность                        : 29 м.
Режим общего битрейта                    : Переменный
Общий поток                              : 178 бит/сек
Видео
Идентификатор                            : 224 (0xE0)
Формат                                   : MPEG Video
Версия формата                           : Version 2
Продолжительность                        : 29 м.
Вид битрейта                             : Переменный
Ширина                                   : 720 пикселей
Высота                                   : 576 пикселей
Соотношение сторон                       : 4:3
Частота кадров                           : 25,000 кадров/сек
Стандарт вещания                         : PAL
Метод сжатия                             : С потерями
Аудио
Идентификатор                            : 0 (0x0)
Формат                                   : PCM
Продолжительность                        : 29 м.
Каналы                                   : 2 канала
Частота                                  : 48,0 КГц
Меню #1
Продолжительность                        : 29 м.
00:00:00.000                             : Chapter 1
00:02:36.960                             : Chapter 2
00:05:11.520                             : Chapter 3
00:07:44.640                             : Chapter 4
00:10:21.120                             : Chapter 5
00:12:54.720                             : Chapter 6
00:15:30.240                             : Chapter 7
00:18:03.840                             : Chapter 8
00:20:42.240                             : Chapter 9
00:23:20.640                             : Chapter 10
00:25:55.200                             : Chapter 11
00:28:31.200                             : Chapter 12
List (Audio)                             : 0
Меню #2
Продолжительность                        : 29 м.
00:00:00.000                             : Chapter 1
00:02:36.960                             : Chapter 2
00:05:11.520                             : Chapter 3
00:07:44.640                             : Chapter 4
00:10:21.120                             : Chapter 5
00:12:54.720                             : Chapter 6
00:15:30.240                             : Chapter 7
00:18:03.840                             : Chapter 8
00:20:42.240                             : Chapter 9
00:23:20.640                             : Chapter 10
00:25:55.200                             : Chapter 11
00:28:31.200                             : Chapter 12
List (Audio)                             : 0
Общее
Полное имя                               : H:\Video\Music\Mlada Fronta - Dioxydes DVD 9\VIDEO_TS\VTS_02_0.VOB
Формат                                   : MPEG-PS
Размер файла                             : 154 Кбайт
Продолжительность                        : 600 мс.
Общий поток                              : 2103 Кбит/сек
Видео
Идентификатор                            : 224 (0xE0)
Формат                                   : MPEG Video
Версия формата                           : Version 2
Профиль формата                          : Main@Main
Параметр BVOP формата                    : Да
Параметр матрицы формата                 : Выборочная
Format_Settings_PictureStructure         : Frame
Продолжительность                        : 600 мс.
Максимальный битрейт                     : 2000 Кбит/сек
Ширина                                   : 720 пикселей
Высота                                   : 576 пикселей
Соотношение сторон                       : 4:3
Частота кадров                           : 25,000 кадров/сек
Стандарт вещания                         : PAL
Цветовое пространство                    : YUV
Субдискретизация насыщенности            : 4:2:0
Битовая глубина                          : 8 бит
Тип развёртки                            : Чересстрочная
Порядок развёртки                        : Верхнее поле первое
Метод сжатия                             : С потерями
Временной код первого кадра              : 00:00:00:00
Оригинал временного кода                 : Group of pictures header
Текст
Идентификатор                            : 189 (0xBD)-32 (0x20)
Формат                                   : RLE
Формат/Информация                        : Run-length encoding
Режим смешивания                         : DVD-Video
Меню
Общее
Полное имя                               : H:\Video\Music\Mlada Fronta - Dioxydes DVD 9\VIDEO_TS\VTS_02_1.VOB
Формат                                   : MPEG-PS
Размер файла                             : 1024 Мбайт
Продолжительность                        : 16 м.
Режим общего битрейта                    : Переменный
Общий поток                              : 8574 Кбит/сек
Библиотека кодирования                   : BitVice MPEG2 Encoder Vn 1.3.3 PPC G4 (c) 2003 Innobits AB
Видео
Идентификатор                            : 224 (0xE0)
Формат                                   : MPEG Video
Версия формата                           : Version 2
Профиль формата                          : Main@Main
Параметр BVOP формата                    : Да
Параметр матрицы формата                 : Выборочная
Параметр GOP формата                     : M=3, N=12
Продолжительность                        : 16 м.
Вид битрейта                             : Переменный
Битрейт                                  : 6868 Кбит/сек
Максимальный битрейт                     : 7020 Кбит/сек
Ширина                                   : 720 пикселей
Высота                                   : 576 пикселей
Соотношение сторон                       : 4:3
Частота кадров                           : 25,000 кадров/сек
Стандарт вещания                         : PAL
Цветовое пространство                    : YUV
Субдискретизация насыщенности            : 4:2:0
Битовая глубина                          : 8 бит
Тип развёртки                            : Прогрессивная
Порядок развёртки                        : Нижнее поле первое
Метод сжатия                             : С потерями
Бит/(Пиксели*Кадры)                      : 0.662
Временной код первого кадра              : 00:00:00:00
Оригинал временного кода                 : Group of pictures header
Размер потока                            : 820 Мбайт (80%)
Библиотека кодирования                   : BitVice MPEG2 Encoder Vn 1.3.3 PPC G4 (c) 2003 Innobits AB
Основные цвета                           : BT.601 PAL
Характеристики трансфера                 : BT.470 System B, BT.470 System G
Коэффициенты матрицы                     : BT.601
Gop_OpenClosed_FirstFrame                : Closed
Аудио
Идентификатор                            : 189 (0xBD)-160 (0xA0)
Формат                                   : PCM
Параметр Endianness формата              : Big
Параметр Sign формата                    : Signed
Режим смешивания                         : DVD-Video
Продолжительность                        : 16 м.
Вид битрейта                             : Постоянный
Битрейт                                  : 1536 Кбит/сек
Каналы                                   : 2 канала
Частота                                  : 48,0 КГц
Битовая глубина                          : 24 бит
Размер потока                            : 183 Мбайт (18%)
Меню
Общее
Полное имя                               : H:\Video\Music\Mlada Fronta - Dioxydes DVD 9\VIDEO_TS\VTS_02_2.VOB
Формат                                   : MPEG-PS
Размер файла                             : 711 Мбайт
Продолжительность                        : 12 м.
Режим общего битрейта                    : Переменный
Общий поток                              : 7962 Кбит/сек
Видео
Идентификатор                            : 224 (0xE0)
Формат                                   : MPEG Video
Версия формата                           : Version 2
Профиль формата                          : Main@Main
Параметр BVOP формата                    : Да
Параметр матрицы формата                 : Выборочная
Параметр GOP формата                     : M=3, N=12
Продолжительность                        : 12 м.
Вид битрейта                             : Переменный
Битрейт                                  : 6268 Кбит/сек
Максимальный битрейт                     : 7020 Кбит/сек
Ширина                                   : 720 пикселей
Высота                                   : 576 пикселей
Соотношение сторон                       : 4:3
Частота кадров                           : 25,000 кадров/сек
Стандарт вещания                         : PAL
Цветовое пространство                    : YUV
Субдискретизация насыщенности            : 4:2:0
Битовая глубина                          : 8 бит
Тип развёртки                            : Прогрессивная
Порядок развёртки                        : Нижнее поле первое
Метод сжатия                             : С потерями
Бит/(Пиксели*Кадры)                      : 0.605
Временной код первого кадра              : 00:16:41:19
Оригинал временного кода                 : Group of pictures header
Размер потока                            : 560 Мбайт (79%)
Основные цвета                           : BT.601 PAL
Характеристики трансфера                 : BT.470 System B, BT.470 System G
Коэффициенты матрицы                     : BT.601
Аудио
Идентификатор                            : 189 (0xBD)-160 (0xA0)
Формат                                   : PCM
Параметр Endianness формата              : Big
Параметр Sign формата                    : Signed
Режим смешивания                         : DVD-Video
Продолжительность                        : 12 м.
Вид битрейта                             : Постоянный
Битрейт                                  : 1536 Кбит/сек
Каналы                                   : 2 канала
Частота                                  : 48,0 КГц
Битовая глубина                          : 24 бит
Задержка видео                           : -528 мс.
Размер потока                            : 137 Мбайт (19%)
Меню
Общее
Полное имя                               : H:\Video\Music\Mlada Fronta - Dioxydes DVD 9\VIDEO_TS\VTS_03_0.BUP
Формат                                   : DVD Video
Профиль формата                          : Program
Размер файла                             : 18,0 Кбайт
Продолжительность                        : 3 м. 11 с.
Режим общего битрейта                    : Переменный
Общий поток                              : 772 бит/сек
Видео
Идентификатор                            : 224 (0xE0)
Формат                                   : MPEG Video
Версия формата                           : Version 2
Продолжительность                        : 3 м. 11 с.
Вид битрейта                             : Переменный
Ширина                                   : 720 пикселей
Высота                                   : 576 пикселей
Соотношение сторон                       : 4:3
Частота кадров                           : 25,000 кадров/сек
Стандарт вещания                         : PAL
Метод сжатия                             : С потерями
Аудио
Идентификатор                            : 0 (0x0)
Формат                                   : PCM
Продолжительность                        : 3 м. 11 с.
Каналы                                   : 2 канала
Частота                                  : 48,0 КГц
Меню #1
Продолжительность                        : 3 м. 11 с.
00:00:00.000                             : Chapter 1
List (Audio)                             : 0
Меню #2
Продолжительность                        : 3 м. 11 с.
00:00:00.000                             : Chapter 1
List (Audio)                             : 0
Меню #3
Общее
Полное имя                               : H:\Video\Music\Mlada Fronta - Dioxydes DVD 9\VIDEO_TS\VTS_03_0.IFO
Формат                                   : DVD Video
Профиль формата                          : Program
Размер файла                             : 18,0 Кбайт
Продолжительность                        : 3 м. 11 с.
Режим общего битрейта                    : Переменный
Общий поток                              : 772 бит/сек
Видео
Идентификатор                            : 224 (0xE0)
Формат                                   : MPEG Video
Версия формата                           : Version 2
Продолжительность                        : 3 м. 11 с.
Вид битрейта                             : Переменный
Ширина                                   : 720 пикселей
Высота                                   : 576 пикселей
Соотношение сторон                       : 4:3
Частота кадров                           : 25,000 кадров/сек
Стандарт вещания                         : PAL
Метод сжатия                             : С потерями
Аудио
Идентификатор                            : 0 (0x0)
Формат                                   : PCM
Продолжительность                        : 3 м. 11 с.
Каналы                                   : 2 канала
Частота                                  : 48,0 КГц
Меню #1
Продолжительность                        : 3 м. 11 с.
00:00:00.000                             : Chapter 1
List (Audio)                             : 0
Меню #2
Продолжительность                        : 3 м. 11 с.
00:00:00.000                             : Chapter 1
List (Audio)                             : 0
Меню #3
Общее
Полное имя                               : H:\Video\Music\Mlada Fronta - Dioxydes DVD 9\VIDEO_TS\VTS_03_0.VOB
Формат                                   : MPEG-PS
Размер файла                             : 154 Кбайт
Продолжительность                        : 600 мс.
Общий поток                              : 2103 Кбит/сек
Видео
Идентификатор                            : 224 (0xE0)
Формат                                   : MPEG Video
Версия формата                           : Version 2
Профиль формата                          : Main@Main
Параметр BVOP формата                    : Да
Параметр матрицы формата                 : Выборочная
Format_Settings_PictureStructure         : Frame
Продолжительность                        : 600 мс.
Максимальный битрейт                     : 2000 Кбит/сек
Ширина                                   : 720 пикселей
Высота                                   : 576 пикселей
Соотношение сторон                       : 4:3
Частота кадров                           : 25,000 кадров/сек
Стандарт вещания                         : PAL
Цветовое пространство                    : YUV
Субдискретизация насыщенности            : 4:2:0
Битовая глубина                          : 8 бит
Тип развёртки                            : Чересстрочная
Порядок развёртки                        : Верхнее поле первое
Метод сжатия                             : С потерями
Временной код первого кадра              : 00:00:00:00
Оригинал временного кода                 : Group of pictures header
Текст
Идентификатор                            : 189 (0xBD)-32 (0x20)
Формат                                   : RLE
Формат/Информация                        : Run-length encoding
Режим смешивания                         : DVD-Video
Меню
Общее
Полное имя                               : H:\Video\Music\Mlada Fronta - Dioxydes DVD 9\VIDEO_TS\VTS_03_1.VOB
Формат                                   : MPEG-PS
Размер файла                             : 205 Мбайт
Продолжительность                        : 3 м. 11 с.
Режим общего битрейта                    : Переменный
Общий поток                              : 9005 Кбит/сек
Библиотека кодирования                   : BitVice MPEG2 Encoder Vn 1.3.3 PPC G4 (c) 2003 Innobits AB
Видео
Идентификатор                            : 224 (0xE0)
Формат                                   : MPEG Video
Версия формата                           : Version 2
Профиль формата                          : Main@Main
Параметр BVOP формата                    : Да
Параметр матрицы формата                 : Выборочная
Параметр GOP формата                     : M=3, N=12
Продолжительность                        : 3 м. 11 с.
Вид битрейта                             : Переменный
Битрейт                                  : 7290 Кбит/сек
Максимальный битрейт                     : 7545 Кбит/сек
Ширина                                   : 720 пикселей
Высота                                   : 576 пикселей
Соотношение сторон                       : 4:3
Частота кадров                           : 25,000 кадров/сек
Стандарт вещания                         : PAL
Цветовое пространство                    : YUV
Субдискретизация насыщенности            : 4:2:0
Битовая глубина                          : 8 бит
Тип развёртки                            : Прогрессивная
Порядок развёртки                        : Нижнее поле первое
Метод сжатия                             : С потерями
Бит/(Пиксели*Кадры)                      : 0.703
Временной код первого кадра              : 00:00:00:00
Оригинал временного кода                 : Group of pictures header
Размер потока                            : 166 Мбайт (81%)
Библиотека кодирования                   : BitVice MPEG2 Encoder Vn 1.3.3 PPC G4 (c) 2003 Innobits AB
Основные цвета                           : BT.601 PAL
Характеристики трансфера                 : BT.470 System B, BT.470 System G
Коэффициенты матрицы                     : BT.601
Gop_OpenClosed_FirstFrame                : Closed
Аудио
Идентификатор                            : 189 (0xBD)-160 (0xA0)
Формат                                   : PCM
Параметр Endianness формата              : Big
Параметр Sign формата                    : Signed
Режим смешивания                         : DVD-Video
Продолжительность                        : 3 м. 11 с.
Вид битрейта                             : Постоянный
Битрейт                                  : 1536 Кбит/сек
Каналы                                   : 2 канала
Частота                                  : 48,0 КГц
Битовая глубина                          : 24 бит
Размер потока                            : 35,0 Мбайт (17%)
Меню
Общее
Полное имя                               : H:\Video\Music\Mlada Fronta - Dioxydes DVD 9\VIDEO_TS\VTS_04_0.BUP
Формат                                   : DVD Video
Профиль формата                          : Program
Размер файла                             : 18,0 Кбайт
Продолжительность                        : 3 м. 11 с.
Режим общего битрейта                    : Переменный
Общий поток                              : 772 бит/сек
Видео
Идентификатор                            : 224 (0xE0)
Формат                                   : MPEG Video
Версия формата                           : Version 2
Продолжительность                        : 3 м. 11 с.
Вид битрейта                             : Переменный
Ширина                                   : 720 пикселей
Высота                                   : 576 пикселей
Соотношение сторон                       : 4:3
Частота кадров                           : 25,000 кадров/сек
Стандарт вещания                         : PAL
Метод сжатия                             : С потерями
Аудио
Идентификатор                            : 0 (0x0)
Формат                                   : PCM
Продолжительность                        : 3 м. 11 с.
Каналы                                   : 2 канала
Частота                                  : 48,0 КГц
Меню #1
Продолжительность                        : 3 м. 11 с.
00:00:00.000                             : Chapter 1
List (Audio)                             : 0
Меню #2
Продолжительность                        : 3 м. 11 с.
00:00:00.000                             : Chapter 1
List (Audio)                             : 0
Меню #3
Общее
Полное имя                               : H:\Video\Music\Mlada Fronta - Dioxydes DVD 9\VIDEO_TS\VTS_04_0.IFO
Формат                                   : DVD Video
Профиль формата                          : Program
Размер файла                             : 18,0 Кбайт
Продолжительность                        : 3 м. 11 с.
Режим общего битрейта                    : Переменный
Общий поток                              : 772 бит/сек
Видео
Идентификатор                            : 224 (0xE0)
Формат                                   : MPEG Video
Версия формата                           : Version 2
Продолжительность                        : 3 м. 11 с.
Вид битрейта                             : Переменный
Ширина                                   : 720 пикселей
Высота                                   : 576 пикселей
Соотношение сторон                       : 4:3
Частота кадров                           : 25,000 кадров/сек
Стандарт вещания                         : PAL
Метод сжатия                             : С потерями
Аудио
Идентификатор                            : 0 (0x0)
Формат                                   : PCM
Продолжительность                        : 3 м. 11 с.
Каналы                                   : 2 канала
Частота                                  : 48,0 КГц
Меню #1
Продолжительность                        : 3 м. 11 с.
00:00:00.000                             : Chapter 1
List (Audio)                             : 0
Меню #2
Продолжительность                        : 3 м. 11 с.
00:00:00.000                             : Chapter 1
List (Audio)                             : 0
Меню #3
Общее
Полное имя                               : H:\Video\Music\Mlada Fronta - Dioxydes DVD 9\VIDEO_TS\VTS_04_0.VOB
Формат                                   : MPEG-PS
Размер файла                             : 154 Кбайт
Продолжительность                        : 600 мс.
Общий поток                              : 2103 Кбит/сек
Видео
Идентификатор                            : 224 (0xE0)
Формат                                   : MPEG Video
Версия формата                           : Version 2
Профиль формата                          : Main@Main
Параметр BVOP формата                    : Да
Параметр матрицы формата                 : Выборочная
Format_Settings_PictureStructure         : Frame
Продолжительность                        : 600 мс.
Максимальный битрейт                     : 2000 Кбит/сек
Ширина                                   : 720 пикселей
Высота                                   : 576 пикселей
Соотношение сторон                       : 4:3
Частота кадров                           : 25,000 кадров/сек
Стандарт вещания                         : PAL
Цветовое пространство                    : YUV
Субдискретизация насыщенности            : 4:2:0
Битовая глубина                          : 8 бит
Тип развёртки                            : Чересстрочная
Порядок развёртки                        : Верхнее поле первое
Метод сжатия                             : С потерями
Временной код первого кадра              : 00:00:00:00
Оригинал временного кода                 : Group of pictures header
Текст
Идентификатор                            : 189 (0xBD)-32 (0x20)
Формат                                   : RLE
Формат/Информация                        : Run-length encoding
Режим смешивания                         : DVD-Video
Меню
Общее
Полное имя                               : H:\Video\Music\Mlada Fronta - Dioxydes DVD 9\VIDEO_TS\VTS_04_1.VOB
Формат                                   : MPEG-PS
Размер файла                             : 204 Мбайт
Продолжительность                        : 3 м. 11 с.
Режим общего битрейта                    : Переменный
Общий поток                              : 8961 Кбит/сек
Библиотека кодирования                   : BitVice MPEG2 Encoder Vn 1.3.3 PPC G4 (c) 2003 Innobits AB
Видео
Идентификатор                            : 224 (0xE0)
Формат                                   : MPEG Video
Версия формата                           : Version 2
Профиль формата                          : Main@Main
Параметр BVOP формата                    : Да
Параметр матрицы формата                 : Выборочная
Параметр GOP формата                     : M=3, N=12
Продолжительность                        : 3 м. 11 с.
Вид битрейта                             : Переменный
Битрейт                                  : 7247 Кбит/сек
Максимальный битрейт                     : 7545 Кбит/сек
Ширина                                   : 720 пикселей
Высота                                   : 576 пикселей
Соотношение сторон                       : 4:3
Частота кадров                           : 25,000 кадров/сек
Стандарт вещания                         : PAL
Цветовое пространство                    : YUV
Субдискретизация насыщенности            : 4:2:0
Битовая глубина                          : 8 бит
Тип развёртки                            : Прогрессивная
Порядок развёртки                        : Нижнее поле первое
Метод сжатия                             : С потерями
Бит/(Пиксели*Кадры)                      : 0.699
Временной код первого кадра              : 00:00:00:00
Оригинал временного кода                 : Group of pictures header
Размер потока                            : 165 Мбайт (81%)
Библиотека кодирования                   : BitVice MPEG2 Encoder Vn 1.3.3 PPC G4 (c) 2003 Innobits AB
Основные цвета                           : BT.601 PAL
Характеристики трансфера                 : BT.470 System B, BT.470 System G
Коэффициенты матрицы                     : BT.601
Gop_OpenClosed_FirstFrame                : Closed
Аудио
Идентификатор                            : 189 (0xBD)-160 (0xA0)
Формат                                   : PCM
Параметр Endianness формата              : Big
Параметр Sign формата                    : Signed
Режим смешивания                         : DVD-Video
Продолжительность                        : 3 м. 11 с.
Вид битрейта                             : Постоянный
Битрейт                                  : 1536 Кбит/сек
Каналы                                   : 2 канала
Частота                                  : 48,0 КГц
Битовая глубина                          : 24 бит
Размер потока                            : 35,0 Мбайт (17%)
Меню
Общее
Полное имя                               : H:\Video\Music\Mlada Fronta - Dioxydes DVD 9\VIDEO_TS\VTS_05_0.BUP
Формат                                   : DVD Video
Профиль формата                          : Program
Размер файла                             : 30,0 Кбайт
Продолжительность                        : 18 м.
Режим общего битрейта                    : Переменный
Общий поток                              : 216 бит/сек
Видео
Идентификатор                            : 224 (0xE0)
Формат                                   : MPEG Video
Версия формата                           : Version 2
Продолжительность                        : 18 м.
Вид битрейта                             : Переменный
Ширина                                   : 720 пикселей
Высота                                   : 576 пикселей
Соотношение сторон                       : 4:3
Частота кадров                           : 25,000 кадров/сек
Стандарт вещания                         : PAL
Метод сжатия                             : С потерями
Аудио
Идентификатор                            : 128 (0x80)
Формат                                   : AC-3
Формат/Информация                        : Audio Coding 3
Продолжительность                        : 18 м.
Каналы                                   : 2 канала
Частота                                  : 48,0 КГц
Метод сжатия                             : С потерями
Меню #1
Продолжительность                        : 18 м.
00:00:00.000                             : Chapter 1
00:18:34.080                             : Chapter 2
List (Audio)                             : 0
Меню #2
Продолжительность                        : 18 м.
00:00:00.000                             : Chapter 1
00:18:34.080                             : Chapter 2
List (Audio)                             : 0
Общее
Полное имя                               : H:\Video\Music\Mlada Fronta - Dioxydes DVD 9\VIDEO_TS\VTS_05_0.IFO
Формат                                   : DVD Video
Профиль формата                          : Program
Размер файла                             : 30,0 Кбайт
Продолжительность                        : 18 м.
Режим общего битрейта                    : Переменный
Общий поток                              : 216 бит/сек
Видео
Идентификатор                            : 224 (0xE0)
Формат                                   : MPEG Video
Версия формата                           : Version 2
Продолжительность                        : 18 м.
Вид битрейта                             : Переменный
Ширина                                   : 720 пикселей
Высота                                   : 576 пикселей
Соотношение сторон                       : 4:3
Частота кадров                           : 25,000 кадров/сек
Стандарт вещания                         : PAL
Метод сжатия                             : С потерями
Аудио
Идентификатор                            : 128 (0x80)
Формат                                   : AC-3
Формат/Информация                        : Audio Coding 3
Продолжительность                        : 18 м.
Каналы                                   : 2 канала
Частота                                  : 48,0 КГц
Метод сжатия                             : С потерями
Меню #1
Продолжительность                        : 18 м.
00:00:00.000                             : Chapter 1
00:18:34.080                             : Chapter 2
List (Audio)                             : 0
Меню #2
Продолжительность                        : 18 м.
00:00:00.000                             : Chapter 1
00:18:34.080                             : Chapter 2
List (Audio)                             : 0
Общее
Полное имя                               : H:\Video\Music\Mlada Fronta - Dioxydes DVD 9\VIDEO_TS\VTS_05_0.VOB
Формат                                   : MPEG-PS
Размер файла                             : 154 Кбайт
Продолжительность                        : 600 мс.
Общий поток                              : 2103 Кбит/сек
Видео
Идентификатор                            : 224 (0xE0)
Формат                                   : MPEG Video
Версия формата                           : Version 2
Профиль формата                          : Main@Main
Параметр BVOP формата                    : Да
Параметр матрицы формата                 : Выборочная
Format_Settings_PictureStructure         : Frame
Продолжительность                        : 600 мс.
Максимальный битрейт                     : 2000 Кбит/сек
Ширина                                   : 720 пикселей
Высота                                   : 576 пикселей
Соотношение сторон                       : 4:3
Частота кадров                           : 25,000 кадров/сек
Стандарт вещания                         : PAL
Цветовое пространство                    : YUV
Субдискретизация насыщенности            : 4:2:0
Битовая глубина                          : 8 бит
Тип развёртки                            : Чересстрочная
Порядок развёртки                        : Верхнее поле первое
Метод сжатия                             : С потерями
Временной код первого кадра              : 00:00:00:00
Оригинал временного кода                 : Group of pictures header
Текст
Идентификатор                            : 189 (0xBD)-32 (0x20)
Формат                                   : RLE
Формат/Информация                        : Run-length encoding
Режим смешивания                         : DVD-Video
Меню
Общее
Полное имя                               : H:\Video\Music\Mlada Fronta - Dioxydes DVD 9\VIDEO_TS\VTS_05_1.VOB
Формат                                   : MPEG-PS
Размер файла                             : 868 Мбайт
Продолжительность                        : 18 м.
Режим общего битрейта                    : Переменный
Общий поток                              : 6390 Кбит/сек
Библиотека кодирования                   : BitVice MPEG2 Encoder Vn 1.3.3 PPC G4 (c) 2003 Innobits AB
Видео
Идентификатор                            : 224 (0xE0)
Формат                                   : MPEG Video
Версия формата                           : Version 2
Профиль формата                          : Main@Main
Параметр BVOP формата                    : Да
Параметр матрицы формата                 : Выборочная
Параметр GOP формата                     : M=3, N=12
Продолжительность                        : 18 м.
Вид битрейта                             : Переменный
Битрейт                                  : 5814 Кбит/сек
Максимальный битрейт                     : 6545 Кбит/сек
Ширина                                   : 720 пикселей
Высота                                   : 576 пикселей
Соотношение сторон                       : 4:3
Частота кадров                           : 25,000 кадров/сек
Стандарт вещания                         : PAL
Цветовое пространство                    : YUV
Субдискретизация насыщенности            : 4:2:0
Битовая глубина                          : 8 бит
Тип развёртки                            : Прогрессивная
Порядок развёртки                        : Нижнее поле первое
Метод сжатия                             : С потерями
Бит/(Пиксели*Кадры)                      : 0.561
Временной код первого кадра              : 00:00:00:00
Оригинал временного кода                 : Group of pictures header
Размер потока                            : 790 Мбайт (91%)
Библиотека кодирования                   : BitVice MPEG2 Encoder Vn 1.3.3 PPC G4 (c) 2003 Innobits AB
Основные цвета                           : BT.601 PAL
Характеристики трансфера                 : BT.470 System B, BT.470 System G
Коэффициенты матрицы                     : BT.601
Gop_OpenClosed_FirstFrame                : Closed
Аудио
Идентификатор                            : 189 (0xBD)-128 (0x80)
Формат                                   : AC-3
Формат/Информация                        : Audio Coding 3
Расширение режима                        : ME (music and effects)
Параметр Endianness формата              : Big
Режим смешивания                         : DVD-Video
Продолжительность                        : 18 м.
Вид битрейта                             : Постоянный
Битрейт                                  : 448 Кбит/сек
Каналы                                   : 2 канала
Расположение каналов                     : Front: L R
Частота                                  : 48,0 КГц
Битовая глубина                          : 16 бит
Метод сжатия                             : С потерями
Размер потока                            : 60,9 Мбайт (7%)
Меню
Общее
Полное имя                               : H:\Video\Music\Mlada Fronta - Dioxydes DVD 9\VIDEO_TS\VTS_06_0.BUP
Формат                                   : DVD Video
Профиль формата                          : Program
Размер файла                             : 18,0 Кбайт
Продолжительность                        : 2 м. 9 с.
Режим общего битрейта                    : Переменный
Общий поток                              : 1140 бит/сек
Видео
Идентификатор                            : 224 (0xE0)
Формат                                   : MPEG Video
Версия формата                           : Version 2
Продолжительность                        : 2 м. 9 с.
Вид битрейта                             : Переменный
Ширина                                   : 720 пикселей
Высота                                   : 576 пикселей
Соотношение сторон                       : 4:3
Частота кадров                           : 25,000 кадров/сек
Стандарт вещания                         : PAL
Метод сжатия                             : С потерями
Аудио
Идентификатор                            : 0 (0x0)
Формат                                   : PCM
Продолжительность                        : 2 м. 9 с.
Каналы                                   : 2 канала
Частота                                  : 48,0 КГц
Меню #1
Продолжительность                        : 2 м. 9 с.
00:00:00.000                             : Chapter 1
List (Audio)                             : 0
Меню #2
Продолжительность                        : 2 м. 9 с.
00:00:00.000                             : Chapter 1
List (Audio)                             : 0
Меню #3
Общее
Полное имя                               : H:\Video\Music\Mlada Fronta - Dioxydes DVD 9\VIDEO_TS\VTS_06_0.IFO
Формат                                   : DVD Video
Профиль формата                          : Program
Размер файла                             : 18,0 Кбайт
Продолжительность                        : 2 м. 9 с.
Режим общего битрейта                    : Переменный
Общий поток                              : 1140 бит/сек
Видео
Идентификатор                            : 224 (0xE0)
Формат                                   : MPEG Video
Версия формата                           : Version 2
Продолжительность                        : 2 м. 9 с.
Вид битрейта                             : Переменный
Ширина                                   : 720 пикселей
Высота                                   : 576 пикселей
Соотношение сторон                       : 4:3
Частота кадров                           : 25,000 кадров/сек
Стандарт вещания                         : PAL
Метод сжатия                             : С потерями
Аудио
Идентификатор                            : 0 (0x0)
Формат                                   : PCM
Продолжительность                        : 2 м. 9 с.
Каналы                                   : 2 канала
Частота                                  : 48,0 КГц
Меню #1
Продолжительность                        : 2 м. 9 с.
00:00:00.000                             : Chapter 1
List (Audio)                             : 0
Меню #2
Продолжительность                        : 2 м. 9 с.
00:00:00.000                             : Chapter 1
List (Audio)                             : 0
Меню #3
Общее
Полное имя                               : H:\Video\Music\Mlada Fronta - Dioxydes DVD 9\VIDEO_TS\VTS_06_0.VOB
Формат                                   : MPEG-PS
Размер файла                             : 154 Кбайт
Продолжительность                        : 600 мс.
Общий поток                              : 2103 Кбит/сек
Видео
Идентификатор                            : 224 (0xE0)
Формат                                   : MPEG Video
Версия формата                           : Version 2
Профиль формата                          : Main@Main
Параметр BVOP формата                    : Да
Параметр матрицы формата                 : Выборочная
Format_Settings_PictureStructure         : Frame
Продолжительность                        : 600 мс.
Максимальный битрейт                     : 2000 Кбит/сек
Ширина                                   : 720 пикселей
Высота                                   : 576 пикселей
Соотношение сторон                       : 4:3
Частота кадров                           : 25,000 кадров/сек
Стандарт вещания                         : PAL
Цветовое пространство                    : YUV
Субдискретизация насыщенности            : 4:2:0
Битовая глубина                          : 8 бит
Тип развёртки                            : Чересстрочная
Порядок развёртки                        : Верхнее поле первое
Метод сжатия                             : С потерями
Временной код первого кадра              : 00:00:00:00
Оригинал временного кода                 : Group of pictures header
Текст
Идентификатор                            : 189 (0xBD)-32 (0x20)
Формат                                   : RLE
Формат/Информация                        : Run-length encoding
Режим смешивания                         : DVD-Video
Меню
Общее
Полное имя                               : H:\Video\Music\Mlada Fronta - Dioxydes DVD 9\VIDEO_TS\VTS_06_1.VOB
Формат                                   : MPEG-PS
Размер файла                             : 132 Мбайт
Продолжительность                        : 2 м. 9 с.
Режим общего битрейта                    : Переменный
Общий поток                              : 8565 Кбит/сек
Библиотека кодирования                   : BitVice MPEG2 Encoder Vn 1.3.3 PPC G4 (c) 2003 Innobits AB
Видео
Идентификатор                            : 224 (0xE0)
Формат                                   : MPEG Video
Версия формата                           : Version 2
Профиль формата                          : Main@Main
Параметр BVOP формата                    : Да
Параметр матрицы формата                 : Выборочная
Параметр GOP формата                     : M=3, N=12
Продолжительность                        : 2 м. 9 с.
Вид битрейта                             : Переменный
Битрейт                                  : 6858 Кбит/сек
Максимальный битрейт                     : 7545 Кбит/сек
Ширина                                   : 720 пикселей
Высота                                   : 576 пикселей
Соотношение сторон                       : 4:3
Частота кадров                           : 25,000 кадров/сек
Стандарт вещания                         : PAL
Цветовое пространство                    : YUV
Субдискретизация насыщенности            : 4:2:0
Битовая глубина                          : 8 бит
Тип развёртки                            : Прогрессивная
Порядок развёртки                        : Нижнее поле первое
Метод сжатия                             : С потерями
Бит/(Пиксели*Кадры)                      : 0.661
Временной код первого кадра              : 00:00:00:00
Оригинал временного кода                 : Group of pictures header
Размер потока                            : 106 Мбайт (80%)
Библиотека кодирования                   : BitVice MPEG2 Encoder Vn 1.3.3 PPC G4 (c) 2003 Innobits AB
Основные цвета                           : BT.601 PAL
Характеристики трансфера                 : BT.470 System B, BT.470 System G
Коэффициенты матрицы                     : BT.601
Gop_OpenClosed_FirstFrame                : Closed
Аудио
Идентификатор                            : 189 (0xBD)-160 (0xA0)
Формат                                   : PCM
Параметр Endianness формата              : Big
Параметр Sign формата                    : Signed
Режим смешивания                         : DVD-Video
Продолжительность                        : 2 м. 9 с.
Вид битрейта                             : Постоянный
Битрейт                                  : 1536 Кбит/сек
Каналы                                   : 2 канала
Частота                                  : 48,0 КГц
Битовая глубина                          : 24 бит
Размер потока                            : 23,7 Мбайт (18%)
Меню
Общее
Полное имя                               : H:\Video\Music\Mlada Fronta - Dioxydes DVD 9\VIDEO_TS\VTS_07_0.BUP
Формат                                   : DVD Video
Профиль формата                          : Program
Размер файла                             : 18,0 Кбайт
Продолжительность                        : 1 м. 56 с.
Режим общего битрейта                    : Переменный
Общий поток                              : 1261 бит/сек
Видео
Идентификатор                            : 224 (0xE0)
Формат                                   : MPEG Video
Версия формата                           : Version 2
Продолжительность                        : 1 м. 56 с.
Вид битрейта                             : Переменный
Ширина                                   : 720 пикселей
Высота                                   : 576 пикселей
Соотношение сторон                       : 4:3
Частота кадров                           : 25,000 кадров/сек
Стандарт вещания                         : PAL
Метод сжатия                             : С потерями
Аудио
Идентификатор                            : 0 (0x0)
Формат                                   : PCM
Продолжительность                        : 1 м. 56 с.
Каналы                                   : 2 канала
Частота                                  : 48,0 КГц
Меню #1
Продолжительность                        : 1 м. 56 с.
00:00:00.000                             : Chapter 1
List (Audio)                             : 0
Меню #2
Продолжительность                        : 1 м. 56 с.
00:00:00.000                             : Chapter 1
List (Audio)                             : 0
Меню #3
Общее
Полное имя                               : H:\Video\Music\Mlada Fronta - Dioxydes DVD 9\VIDEO_TS\VTS_07_0.IFO
Формат                                   : DVD Video
Профиль формата                          : Program
Размер файла                             : 18,0 Кбайт
Продолжительность                        : 1 м. 56 с.
Режим общего битрейта                    : Переменный
Общий поток                              : 1261 бит/сек
Видео
Идентификатор                            : 224 (0xE0)
Формат                                   : MPEG Video
Версия формата                           : Version 2
Продолжительность                        : 1 м. 56 с.
Вид битрейта                             : Переменный
Ширина                                   : 720 пикселей
Высота                                   : 576 пикселей
Соотношение сторон                       : 4:3
Частота кадров                           : 25,000 кадров/сек
Стандарт вещания                         : PAL
Метод сжатия                             : С потерями
Аудио
Идентификатор                            : 0 (0x0)
Формат                                   : PCM
Продолжительность                        : 1 м. 56 с.
Каналы                                   : 2 канала
Частота                                  : 48,0 КГц
Меню #1
Продолжительность                        : 1 м. 56 с.
00:00:00.000                             : Chapter 1
List (Audio)                             : 0
Меню #2
Продолжительность                        : 1 м. 56 с.
00:00:00.000                             : Chapter 1
List (Audio)                             : 0
Меню #3
Общее
Полное имя                               : H:\Video\Music\Mlada Fronta - Dioxydes DVD 9\VIDEO_TS\VTS_07_0.VOB
Формат                                   : MPEG-PS
Размер файла                             : 154 Кбайт
Продолжительность                        : 600 мс.
Общий поток                              : 2103 Кбит/сек
Видео
Идентификатор                            : 224 (0xE0)
Формат                                   : MPEG Video
Версия формата                           : Version 2
Профиль формата                          : Main@Main
Параметр BVOP формата                    : Да
Параметр матрицы формата                 : Выборочная
Format_Settings_PictureStructure         : Frame
Продолжительность                        : 600 мс.
Максимальный битрейт                     : 2000 Кбит/сек
Ширина                                   : 720 пикселей
Высота                                   : 576 пикселей
Соотношение сторон                       : 4:3
Частота кадров                           : 25,000 кадров/сек
Стандарт вещания                         : PAL
Цветовое пространство                    : YUV
Субдискретизация насыщенности            : 4:2:0
Битовая глубина                          : 8 бит
Тип развёртки                            : Чересстрочная
Порядок развёртки                        : Верхнее поле первое
Метод сжатия                             : С потерями
Временной код первого кадра              : 00:00:00:00
Оригинал временного кода                 : Group of pictures header
Текст
Идентификатор                            : 189 (0xBD)-32 (0x20)
Формат                                   : RLE
Формат/Информация                        : Run-length encoding
Режим смешивания                         : DVD-Video
Меню
Общее
Полное имя                               : H:\Video\Music\Mlada Fronta - Dioxydes DVD 9\VIDEO_TS\VTS_07_1.VOB
Формат                                   : MPEG-PS
Размер файла                             : 43,9 Мбайт
Продолжительность                        : 1 м. 56 с.
Режим общего битрейта                    : Переменный
Общий поток                              : 3148 Кбит/сек
Библиотека кодирования                   : BitVice MPEG2 Encoder Vn 1.3.3 PPC G4 (c) 2003 Innobits AB
Видео
Идентификатор                            : 224 (0xE0)
Формат                                   : MPEG Video
Версия формата                           : Version 2
Профиль формата                          : Main@Main
Параметр BVOP формата                    : Да
Параметр матрицы формата                 : Выборочная
Параметр GOP формата                     : M=3, N=12
Продолжительность                        : 1 м. 56 с.
Вид битрейта                             : Переменный
Битрейт                                  : 1549 Кбит/сек
Максимальный битрейт                     : 7545 Кбит/сек
Ширина                                   : 720 пикселей
Высота                                   : 576 пикселей
Соотношение сторон                       : 4:3
Частота кадров                           : 25,000 кадров/сек
Стандарт вещания                         : PAL
Цветовое пространство                    : YUV
Субдискретизация насыщенности            : 4:2:0
Битовая глубина                          : 8 бит
Тип развёртки                            : Прогрессивная
Порядок развёртки                        : Нижнее поле первое
Метод сжатия                             : С потерями
Бит/(Пиксели*Кадры)                      : 0.149
Временной код первого кадра              : 00:00:00:00
Оригинал временного кода                 : Group of pictures header
Размер потока                            : 21,6 Мбайт (49%)
Библиотека кодирования                   : BitVice MPEG2 Encoder Vn 1.3.3 PPC G4 (c) 2003 Innobits AB
Основные цвета                           : BT.601 PAL
Характеристики трансфера                 : BT.470 System B, BT.470 System G
Коэффициенты матрицы                     : BT.601
Gop_OpenClosed_FirstFrame                : Closed
Аудио
Идентификатор                            : 189 (0xBD)-160 (0xA0)
Формат                                   : PCM
Параметр Endianness формата              : Big
Параметр Sign формата                    : Signed
Режим смешивания                         : DVD-Video
Продолжительность                        : 1 м. 56 с.
Вид битрейта                             : Постоянный
Битрейт                                  : 1536 Кбит/сек
Каналы                                   : 2 канала
Частота                                  : 48,0 КГц
Битовая глубина                          : 24 бит
Размер потока                            : 21,4 Мбайт (49%)
Меню


Скриншоты меню






Скриншоты












Спасибо termitonator за предоставленный материал!                                                                                                                                                               
                       
                       
                       
                       
                       
                                磁力下载:
                                                               
                                       
游客,本主题需向作者支付 7金币 才能浏览,金币充值, 免回复、免金币,直接查看内容请开通VIP购买主题

                                               
  • 7.74 GB
                                                                                           
  • 温馨提示

    记得善用社区搜索功能,那里可能会有你想要的资源;论坛站内搜索

    如果你有什么需要的资源可以去资源求档发帖,求助社区的网友,我们会在第一时间给你回复哦;资源求档

    对于本社区网盘链接失效密码错误各种报错请在反馈板块反馈报错发帖,您的支持,是我们发展的最大动力;投诉建议

    回复

    使用道具 举报

    您需要登录后才可以回帖 登录 | 立即注册 微信登录

    本版积分规则

    关注1

    粉丝18

    帖子33839

    发布主题
    阅读排行更多+
    关闭

    站长推荐上一条 /1 下一条

    收藏帖子 返回列表 这是一个自定义按钮
    音乐分享,音乐下载。
    微信公众号
    微信号:maomiyinyue
    意见反馈:admin@maomicd.com

    加入我们的官方QQ群和微信群

    Powered by Discuz! X3.4 Archiver|手机版|小黑屋|猫咪音乐网 ( 苏ICP备20015413号 )|( 苏公网安备 32030502000272号) 繁體

    JS of wanmeiff.com and vcpic.com Please keep this copyright information, respect of, thank you!JS of wanmeiff.com and vcpic.com Please keep this copyright information, respect of, thank you!

    GMT+8, 2020-12-5 19:49