请选择 进入手机版 | 继续访问电脑版

自购原抓音乐圈:只有自购、合购、原抓级高解析(hires、sacd、dsd)正版音乐资源分享!【点我打开
广告

[电子音乐] 100% DANCE Vol.2 Videomix by ctxcotex [2011, Dance, Electro, DVD5]

[复制链接]
59519 发表于 2020-10-30 21:22:41 | 显示全部楼层 |阅读模式 打印 上一主题 下一主题
100% DANCE Vol.2 Videomix by ctxcotex
Страна: Chile
Жанр: Dance, Electro
Продолжительность: 2:50:00
Год выпуска: 2011 г.
Описание: Второй микс серии "100% Dance" от чилийского VJ Хосе Арригада ака ctxcotex, почти три часа безудержного веселья )))))
100% DANCE Vol.1 ]
100% DANCE Vol.3
100% DANCE Vol.4

Треклист

Треклист:
01. MAMASITA (NARCOTIC SOUND & CHRISTIAN D)
02. WE NO SPEAK AMERICANO (YOLANDA BE COOL & DCUP)
03. STEREO LOVE (EDWARD MAYA FEAT. VIKA JIGULINA)
04. VEM DANZAR KUDURO (LUCENZO FEAT. BIG ALI)
05. HOT (INNA)
06. TAKE OVER CONTROL (AFROJACK FEAT. EVA SIMONS)
07. MADAM (SASHA LOPEZ FEAT. ANDA ADAM)
08. MIAMI 2 IBIZA (SWEDISH HOUSE MAFIA FEAT. TINIE TEMPAH)
09. SUMMER LOVE (DAVID TAVARE)
10. LADY (CROSSFIRE)
11. BOYS AND GIRLS (LANFRANCHI & MARCHESINI)
12. WHEN LOVE TAKES OVER (DAVID GUETTA FEAT. KELLY ROWLAND)
13. EVACUATE THE DANCEFLOOR (CASCADA)
14. FESTA (RLS FEAT. SANDRA GODAY)
15. THIS IS THE NIGHT (GURU JOSH PROJECT)
16. HAPPINESS (DJ ANDI FEAT. STELLA)
17. NO SUPERSTAR (REMADY P & R)
18. S.O.S. (IAN CAREY)
19. FIESTA LOCA (DESAPARECIDOS)
20. ROMOURS (WHIZZKIDS FEAT. INUSA DAWUDA)
21. DISCOTEX (DJ F.R.A.N.K.)
22. HOT GIRL (R.I.O.)
23. SEND THE MESSAGE (MATTARA)
24. ON THE BEACH (SONIC PALMS)
25. RAP DAS ARMAS (CIDINHO & DOCA)
26. WASH MY WORLD (LAUREN WOLF)
27. HIT THE FLOOR (BIG ALI)
28. I KNOW YOU WANT ME (PITBULL)
29. INSOMNIA (MIKE CANDYS & JACK HOLIDAY)
30. SUMMER JAM 2010 (THE UNDERDOG PROJECT)
31. TOUCH YOU RIGHT NOW (BASIC ELEMENT)
32. LOVE IS GONE (ALCHEMIST PROJECT)
33. CALL ME BABY (DAVID TAVARE FEAT. RUTH)
34. RELEASE ME (AGNES)
35. PYROMANIA (CASCADA)
36. SHOT CALLER (IAN CAREY)
37. MARIAH (JUAN MAGAN)
38. SOME PEOPLE (OCEAN DRIVE FEAT. AYLAR)
39. AFTER THE LOVE (R.I.O.)
40. EXPLOSION (LAUREN WOLF)
41. I'LL BE WATCHING YOU (DAVID MAY FEAT. KELVIN SCOTT)
42. HERE WITHOUT YOU (ANDREW SPENCER & LAZARD)
43. WHAT YOU GET (JUNIOR CALDERA)
44. WHAT HURTS THE MOST (CASCADA)
45. BABY EHEN THE LIGHT (DAVID GUETTA FEAT. COZI)
46. RUN (MILK INC.)
47. DANCE HALL TRACK (ROBERT M FEAT. NICCO)
48. ETERNITY (GURU JOSH PROJECT & DJ IGOR BLASKA)
49. CAN'T GET OVER (SEPTEMBER)
50. FIX ME (VELVET)

Обложка


Разбивка на главы по трекам: есть
Качество : DVD5
Формат: DVD video
Видео кодек: MPEG2
Аудио кодек: AC3
Видео: MPEG2, 720x480, 16:9, 29.97fps, 9.608 Kbps max
Аудио: AC3, 192kbps, 48000Hz, 2ch
DVDinfo

General
Complete name                  : 100% Dance Vol.2\VIDEO_TS\VTS_01_1.VOB
Format                         : MPEG-PS
File size                      : 1 024 MiB
Duration                       : 1mn 36s
Overall bit rate mode          : Variable
Overall bit rate               : 88.7 Mbps
Video
ID                             : 224 (0xE0)
Format                         : MPEG Video
Format version                 : Version 2
Format profile                 : Main@Main
Format settings, BVOP          : No
Format settings, Matrix        : Default
Format settings, GOP           : Variable
Duration                       : 1mn 36s
Bit rate mode                  : Variable
Bit rate                       : 86.7 Mbps
Maximum bit rate               : 9 608 Kbps
Width                          : 720 pixels
Height                         : 480 pixels
Display aspect ratio           : 4:3
Frame rate                     : 29.970 fps
Standard                       : NTSC
Color space                    : YUV
Chroma subsampling             : 4:2:0
Bit depth                      : 8 bits
Scan type                      : Progressive
Scan order                     : Bottom Field First
Compression mode               : Lossy
Bits/(Pixel*Frame)             : 8.374
Time code of first frame       : 00:00:00:00
Time code source               : Group of pictures header
Stream size                    : 1 002 MiB (98%)
Color primaries                : BT.601 NTSC
Transfer characteristics       : BT.601
Matrix coefficients            : BT.601
Audio
ID                             : 189 (0xBD)-128 (0x80)
Format                         : AC-3
Format/Info                    : Audio Coding 3
Mode extension                 : CM (complete main)
Format settings, Endianness    : Big
Muxing mode                    : DVD-Video
Duration                       : 1mn 36s
Bit rate mode                  : Constant
Bit rate                       : 192 Kbps
Channel(s)                     : 2 channels
Channel positions              : Front: L R
Sampling rate                  : 48.0 KHz
Bit depth                      : 16 bits
Compression mode               : Lossy
Stream size                    : 2.21 MiB (0%)
Menu


Скриншоты меню



Скриншоты









                                                                                                                                                               
                       
                       
                       
                       
                       
                                磁力下载:
                                                               
                                       
游客,本主题需向作者支付 7金币 才能浏览,金币充值, 免回复、免金币,直接查看内容请开通VIP购买主题

                                               
  • 4.38 GB
                                                                                           
  • 温馨提示

    记得善用社区搜索功能,那里可能会有你想要的资源;论坛站内搜索

    如果你有什么需要的资源可以去资源求档发帖,求助社区的网友,我们会在第一时间给你回复哦;资源求档

    对于本社区网盘链接失效密码错误各种报错请在反馈板块反馈报错发帖,您的支持,是我们发展的最大动力;投诉建议

    回复

    使用道具 举报

    您需要登录后才可以回帖 登录 | 立即注册 微信登录

    本版积分规则

    关注5

    粉丝10

    帖子32381

    发布主题
    阅读排行更多+
    关闭

    站长推荐上一条 /1 下一条

    活动提示

    双11活动通知:

    赞助永久VIP会员,赠送希捷/西部机械硬盘或者百度网盘SVIP一年(充值到你网盘帐号)+5000GB HIRES资源活动开启通知。

    地址:https://www.maomicd.com/huodong/

    我知道了
    收藏帖子 返回列表 这是一个自定义按钮
    音乐分享,音乐下载。
    微信公众号
    微信号:maomiyinyue
    意见反馈:admin@maomicd.com

    加入我们的官方QQ群和微信群

    Powered by Discuz! X3.4 Archiver|手机版|小黑屋|猫咪音乐网 ( 苏ICP备20015413号 )|( 苏公网安备 32030502000272号) 繁體

    JS of wanmeiff.com and vcpic.com Please keep this copyright information, respect of, thank you!JS of wanmeiff.com and vcpic.com Please keep this copyright information, respect of, thank you!

    GMT+8, 2020-11-25 08:14