请选择 进入手机版 | 继续访问电脑版

自购原抓音乐圈:只有自购、合购、原抓级高解析(hires、sacd、dsd)正版音乐资源分享!【点我打开
广告

[电子音乐] 100% DANCE Vol.3 Videomix by ctxcotex [2012, Dance, Electro, DVD5]

[复制链接]
全球搬运 发表于 2020-10-30 21:22:40 | 显示全部楼层 |阅读模式 打印 上一主题 下一主题
100% DANCE Vol.3 Videomix by ctxcotex
Страна: Chile
Жанр: Dance, Electro
Продолжительность: 2:53:00
Год выпуска: 2012 г.
Описание: Третий микс серии "100% Dance" от чилийского VJ Хосе Арригада ака ctxcotex, почти три часа безудержного веселья )))))
100% DANCE Vol.1
100% DANCE Vol.2
100% DANCE Vol.4

Треклист

Треклист:
01. UN MOMENTO (INNA FEAT. JUAN MAGAN)
02. ALL MY PEOPLE (SASHA LOPEZ FEAT. ANDREA D & BROONO)
03. HELLO (MARTIN SOLVEIG & DRAGONETTE)
04. OUT OF YOUR BUSINESS (RALUKA)
05. HEY NAH NEH NAH (MILK & SUGAR VS. VAYA CON DIOS)
06. TOUCH YOUR SKY (SWEET FROMAGE FEAT. CAMELEO)
07. LONELY HEART (RADIO KILLER)
08. 45 (STARS ON 45)
09. LIKE I LOVE YOU (R.I.O.)
10. SUN IS UP (INNA)
11. MISSING YOU (MATTYAS)
12. DANCA BONITO (NARCOTIC SOUND & CHRISTIAN D)
13. NIGHT NURSE (CASCADA FEAT. R.I.O.)
14. HOLD ON (ADRIAN SINA)
15. MR. SAXOBEAT (ALEXANDRA STAN)
16. DESERT RAIN (EDWARD MAYA FEAT. VIKA JIGULINA)
17. FEEL (ANDA ADAM)
18. LA NOCHE (DESAPARECIDOS)
19. ONLY (PLAY & WIN)
20. PERSIA (KITTENS)
21. I CAN'T LIVE WITHOUT YOU (ADRIAN SINA FEAT. BEVERLEY BROWN)
22. AMAZING (INNA)
23. LOVE IN BRASIL (ANDREEA BANICA)
24. KING SIZE HEART (JAVI MULA FEAT. JUAN MAGAN)
25. ONE LOVE (DAVID GUETTA FEAT. ESTELLE)
26. GOODBYE (FLY PROJECT)
27. LOCO (MANIAN)
28. TIPPIN' (ANDREEA BALAN)
29. SHAKE IT MAMMA (ANTONIA)
30. STILL THE SAME (SUNRISE INC & LIVIU HODOR)
31. PRIVATE LOVE (DELYNO)
32. MO MORE TEARS (LORA)
33. PLAYGROUND (DJ ASSAD FEAT. BIG ALI & WILLY WILLIAM)
34. NEED YOUR LOVE (ELLA)
35. LOVE COMES AROUND (ERIC CHASE)
36. MY PASSION (AKCENT)
37. BE FREE (RADIO KILLER)
38. MISS SUNSHINE (R.I.O.)
39. SECRET LOVE (MATTYAS FEAT. KRISTINA)
40. DISCO ROMANCING (ELENA)
41. DEJA VU (BOB TAYLOR FEAT. INNA)
42. THIS IS MY LIFE (EDWARD MAYA FEAT. VIKA JIGULINA)
43. RUSH LOVE (RYAN & RADU)
44. LAST SUMMER (NICKO PROJECT)
45. ONE DAY, ONE NIGHT (DJ ANTOINE FEAT. MISH)
46. EMBRACE (CRISTINA SPATAR)
47. THAT'S MY NAME (AKCENT)
48. SUPERSTAR (DAVID MAY)
49. LICK SHOT (SUNRISE INC FEAT. STARCHILD)
50. BIKER STREET (MICHAEL MIND)

Обложка


Разбивка на главы по трекам: есть
Качество : DVD5
Формат: DVD video
Видео кодек: MPEG2
Аудио кодек: AC3
Видео: MPEG2, 720x480, 16:9, 29.97fps, 9.608 Kbps max
Аудио: AC3, 192kbps, 48000Hz, 2ch
DVDinfo

General
Complete name                  : 100% Dance Vol.3\VIDEO_TS\VTS_01_1.VOB
Format                         : MPEG-PS
File size                      : 1 024 MiB
Duration                       : 3mn 29s
Overall bit rate mode          : Variable
Overall bit rate               : 40.9 Mbps
Video
ID                             : 224 (0xE0)
Format                         : MPEG Video
Format version                 : Version 2
Format profile                 : Main@Main
Format settings, BVOP          : No
Format settings, Matrix        : Default
Format settings, GOP           : M=3, N=13
Duration                       : 3mn 29s
Bit rate mode                  : Variable
Bit rate                       : 39.9 Mbps
Maximum bit rate               : 9 608 Kbps
Width                          : 720 pixels
Height                         : 480 pixels
Display aspect ratio           : 4:3
Frame rate                     : 29.970 fps
Standard                       : NTSC
Color space                    : YUV
Chroma subsampling             : 4:2:0
Bit depth                      : 8 bits
Scan type                      : Progressive
Compression mode               : Lossy
Bits/(Pixel*Frame)             : 3.852
Time code of first frame       : 00:00:00:00
Time code source               : Group of pictures header
Stream size                    : 999 MiB (98%)
Color primaries                : BT.601 NTSC
Transfer characteristics       : BT.601
Matrix coefficients            : BT.601
Audio
ID                             : 189 (0xBD)-128 (0x80)
Format                         : AC-3
Format/Info                    : Audio Coding 3
Mode extension                 : CM (complete main)
Format settings, Endianness    : Big
Muxing mode                    : DVD-Video
Duration                       : 3mn 29s
Bit rate mode                  : Constant
Bit rate                       : 192 Kbps
Channel(s)                     : 2 channels
Channel positions              : Front: L R
Sampling rate                  : 48.0 KHz
Bit depth                      : 16 bits
Compression mode               : Lossy
Stream size                    : 4.80 MiB (0%)


Скриншоты меню



Скриншоты

















                                                                                                                                                               
                       
                       
                       
                       
                       
                                磁力下载:
                                                               
                                       
游客,本主题需向作者支付 7金币 才能浏览,金币充值, 免回复、免金币,直接查看内容请开通VIP购买主题

                                               
  • 3.88 GB
                                                                                           
  • 温馨提示

    记得善用社区搜索功能,那里可能会有你想要的资源;论坛站内搜索

    如果你有什么需要的资源可以去资源求档发帖,求助社区的网友,我们会在第一时间给你回复哦;资源求档

    对于本社区网盘链接失效密码错误各种报错请在反馈板块反馈报错发帖,您的支持,是我们发展的最大动力;投诉建议

    回复

    使用道具 举报

    您需要登录后才可以回帖 登录 | 立即注册 微信登录

    本版积分规则

    关注0

    粉丝8

    帖子38024

    发布主题
    阅读排行更多+
    关闭

    站长推荐上一条 /1 下一条

    活动提示

    双11活动通知:

    赞助永久VIP会员,赠送希捷/西部机械硬盘或者百度网盘SVIP一年(充值到你网盘帐号)+5000GB HIRES资源活动开启通知。

    地址:https://www.maomicd.com/huodong/

    我知道了
    收藏帖子 返回列表 这是一个自定义按钮
    音乐分享,音乐下载。
    微信公众号
    微信号:maomiyinyue
    意见反馈:admin@maomicd.com

    加入我们的官方QQ群和微信群

    Powered by Discuz! X3.4 Archiver|手机版|小黑屋|猫咪音乐网 ( 苏ICP备20015413号 )|( 苏公网安备 32030502000272号) 繁體

    JS of wanmeiff.com and vcpic.com Please keep this copyright information, respect of, thank you!JS of wanmeiff.com and vcpic.com Please keep this copyright information, respect of, thank you!

    GMT+8, 2020-11-27 05:28