请选择 进入手机版 | 继续访问电脑版

自购原抓音乐圈:只有自购、合购、原抓级高解析(hires、sacd、dsd)正版音乐资源分享!【点我打开
广告

[电子音乐] Hooverphonic With Orchestra Live [2012, Chillout, Live, Trip-hop, DVD9]

[复制链接]
10086 发表于 2020-10-30 21:22:19 | 显示全部楼层 |阅读模式 打印 上一主题 下一主题
Hooverphonic With Orchestra LiveСтрана: Belgium
Жанр: Chillout, Live, Trip-hop
Продолжительность: 01:29:44
Год выпуска: 2012 г.Треклист:
01. Battersea
02. One Two Three
03. Heartbroken
04. The Night Before
05. Club Montepulciano
06. The Last Thing I Need Is You
07. 2 Wicky
08. Anger Never Dies
09. Unfinished Sympathy
10. Expedition Impossible
11. George's Cafe
12. Happiness
13. The World Is Mine
14. Jackie Cane
15. Mad About You
16. Sometimes
17. Vinegar & Salt
18. Eden
19. Renaissance Affair
20. La Horse
21. Danger Zone
Источник: Собственный рип с американского диска|MP3|.flac
Качество: DVD9
Контейнер: VOB
Видео кодек: MPEG2
Аудио кодек: AC3 DTS
Видео: 720*576, PAL 16/9, MPEG-2 CBR, 25fps, 7094Kbps
Аудио:
audio1: AC3 CBR, 2.0 stereo, 48kHz, 224kbps;
audio2: AC3 CBR, 5.1, 48kHz, 448kbps;
audio3: DTS CBR, 5.1, 48kHz, 1510kbps
MediaInfo

Код:
General
Complete name                    : C:\Hooverphonic - With Orchestra Live DVD 5\VIDEO_TS\VTS_01_1.VOB
Format                           : MPEG-PS
File size                        : 1 024 MiB
Duration                         : 14mn 49s
Overall bit rate                 : 9 659 Kbps
Video
ID                               : 224 (0xE0)
Format                           : MPEG Video
Format version                   : Version 2
Format profile                   : Main@Main
Format settings, Matrix          : Default
Duration                         : 14mn 49s
Bit rate mode                    : Constant
Bit rate                         : 7 094 Kbps
Nominal bit rate                 : 7 300 Kbps
Width                            : 720 pixels
Height                           : 576 pixels
Display aspect ratio             : 16:9
Frame rate                       : 25.000 fps
Standard                         : PAL
Colorimetry                      : 4:2:0
Scan type                        : Progressive
Bits/(Pixel*Frame)               : 0.684
Stream size                      : 752 MiB (73%)
Audio #1
ID                               : 128 (0x80)
Format                           : AC-3
Format/Info                      : Audio Coding 3
Duration                         : 14mn 48s
Bit rate mode                    : Constant
Bit rate                         : 224 Kbps
Channel(s)                       : 2 channels
Channel positions                : L R
Sampling rate                    : 48.0 KHz
Stream size                      : 23.7 MiB (2%)
Audio #2
ID                               : 129 (0x81)
Format                           : AC-3
Format/Info                      : Audio Coding 3
Duration                         : 14mn 48s
Bit rate mode                    : Constant
Bit rate                         : 448 Kbps
Channel(s)                       : 6 channels
Channel positions                : Front: L C R, Surround: L R, LFE
Sampling rate                    : 48.0 KHz
Stream size                      : 47.5 MiB (5%)
Audio #3
ID                               : 138 (0x8A)
Format                           : DTS
Format/Info                      : Digital Theater Systems
Duration                         : 14mn 48s
Bit rate mode                    : Constant
Bit rate                         : 1 510 Kbps
Channel(s)                       : 6 channels
Channel positions                : Front: L C R, Surround: L R, LFE
Sampling rate                    : 48.0 KHz
Resolution                       : 24 bits
Stream size                      : 160 MiB (16%)
Menu


Скрины меню






Скриншоты






                                                                                                                                                               
                       
                       
                       
                       
                       
                                磁力下载:
                                                               
                                       
游客,本主题需向作者支付 7金币 才能浏览,金币充值, 免回复、免金币,直接查看内容请开通VIP购买主题

                                               
  • 6.06 GB
                                                                                           
  • 温馨提示

    记得善用社区搜索功能,那里可能会有你想要的资源;论坛站内搜索

    如果你有什么需要的资源可以去资源求档发帖,求助社区的网友,我们会在第一时间给你回复哦;资源求档

    对于本社区网盘链接失效密码错误各种报错请在反馈板块反馈报错发帖,您的支持,是我们发展的最大动力;投诉建议

    回复

    使用道具 举报

    您需要登录后才可以回帖 登录 | 立即注册 微信登录

    本版积分规则

    关注0

    粉丝2

    帖子28900

    发布主题
    阅读排行更多+
    关闭

    站长推荐上一条 /1 下一条

    活动提示

    双11活动通知:

    赞助永久VIP会员,赠送希捷/西部机械硬盘或者百度网盘SVIP一年(充值到你网盘帐号)+5000GB HIRES资源活动开启通知。

    地址:https://www.maomicd.com/huodong/

    我知道了
    收藏帖子 返回列表 这是一个自定义按钮
    音乐分享,音乐下载。
    微信公众号
    微信号:maomiyinyue
    意见反馈:admin@maomicd.com

    加入我们的官方QQ群和微信群

    Powered by Discuz! X3.4 Archiver|手机版|小黑屋|猫咪音乐网 ( 苏ICP备20015413号 )|( 苏公网安备 32030502000272号) 繁體

    JS of wanmeiff.com and vcpic.com Please keep this copyright information, respect of, thank you!JS of wanmeiff.com and vcpic.com Please keep this copyright information, respect of, thank you!

    GMT+8, 2020-11-29 15:53