请选择 进入手机版 | 继续访问电脑版

自购原抓音乐圈:只有自购、合购、原抓级高解析(hires、sacd、dsd)正版音乐资源分享!【点我打开
广告

[电子音乐] Dense Vision Shrine - Time Lost in Oblivion [2009, Dark Ambient / Experimental,

[复制链接]
全球采集 发表于 2020-10-30 21:22:16 | 显示全部楼层 |阅读模式 打印 上一主题 下一主题
Dense Vision Shrine - Time Lost in Oblivion
Страна: USA (производитель диска) / Norway (страна исполнителя)
Жанр: Dark Ambient / Experimental
Продолжительность: 00:55:00
Год выпуска: 2009 г.
Лейбл: First Fallen Star
Описание:
Беспримесный Dense Vision Shrine, такой, каким его и привыкли видеть поклонники dark ambient. Созданный из уже знакомых ингредиентов и сдобренный щепоткой новых треков, "Time Lost in Oblivion" сквозит эдакой просветленной меланхолией. Созерцание медленно проплывающих над головой свинцовых туч, сквозь которые изредка пробивается лунный свет, выхватывающий из тьмы то одну, то другую деталь картины — корчи деревьев, замшелые кельтские кресты, поблескивающий клинок реки, разрушенные древние башни. Фантазийный, языческий ландшафт, суровый, но одухотворенный в отличие от часто встречающегося в этом жанре безжизненно индустриального. Очень красивая и поэтичная работа. В конце концов, надгробные статуи, к которым Карстен Хамре питает известную слабость, именно с течением времени приобретают абсолютно новое для них эстетическое измерение...
© Рецензия Radiodrone.
В данной раздаче представлен бонусный DVD-диск, которым были дополнены первые 500 копий альбома "Time Lost in Oblivion". Диск содержит видеоматериал, используемый в качестве "фонового" при живых выступлениях.
Треклист:
1. Time Lost in Oblivion [55:00]
Разбивка на главы по трекам: нет
Качество : DVD5
Формат: DVD Video
Видео кодек: MPEG2
Аудио кодек: PCM
Видео: MPEG2 Video 720x576 (4:3) 25.00fps 9500kbps
Аудио: LPCM 1536kbps 48kHz stereo

DVDinfo

General
Complete name                    : I:\Torrent Uploads\Dense Vision Shrine (2009) - Time Lost in Oblivion [DVD]\VIDEO_TS\VIDEO_TS.BUP
Format                           : DVD Video
Format profile                   : Menu
File size                        : 14.0 KiB
Overall bit rate mode            : Variable
Video
ID                               : 224 (0xE0)
Format                           : MPEG Video
Format version                   : Version 2
Bit rate mode                    : Variable
Width                            : 720 pixels
Height                           : 576 pixels
Display aspect ratio             : 4:3
Frame rate                       : 25.000 fps
Standard                         : PAL
Compression mode                 : Lossy
Audio
Format                           : PCM
Channel(s)                       : 2 channels
Sampling rate                    : 48.0 KHz
Text
Format                           : RLE
Format/Info                      : Run-length encoding
Bit depth                        : 2 bits
General
Complete name                    : I:\Torrent Uploads\Dense Vision Shrine (2009) - Time Lost in Oblivion [DVD]\VIDEO_TS\VIDEO_TS.IFO
Format                           : DVD Video
Format profile                   : Menu
File size                        : 14.0 KiB
Overall bit rate mode            : Variable
Video
ID                               : 224 (0xE0)
Format                           : MPEG Video
Format version                   : Version 2
Bit rate mode                    : Variable
Width                            : 720 pixels
Height                           : 576 pixels
Display aspect ratio             : 4:3
Frame rate                       : 25.000 fps
Standard                         : PAL
Compression mode                 : Lossy
Audio
Format                           : PCM
Channel(s)                       : 2 channels
Sampling rate                    : 48.0 KHz
Text
Format                           : RLE
Format/Info                      : Run-length encoding
Bit depth                        : 2 bits
General
Complete name                    : I:\Torrent Uploads\Dense Vision Shrine (2009) - Time Lost in Oblivion [DVD]\VIDEO_TS\VIDEO_TS.VOB
Format                           : MPEG-PS
File size                        : 288 KiB
Duration                         : 1s 240ms
Overall bit rate mode            : Variable
Overall bit rate                 : 1 903 Kbps
Video
ID                               : 224 (0xE0)
Format                           : MPEG Video
Format version                   : Version 2
Format profile                   : Main@Main
Format settings, BVOP            : No
Format settings, Matrix          : Default
Format settings, GOP             : N=1
Duration                         : 1s 240ms
Bit rate mode                    : Variable
Bit rate                         : 1 865 Kbps
Maximum bit rate                 : 8 000 Kbps
Width                            : 720 pixels
Height                           : 576 pixels
Display aspect ratio             : 4:3
Frame rate                       : 25.000 fps
Standard                         : PAL
Color space                      : YUV
Chroma subsampling               : 4:2:0
Bit depth                        : 8 bits
Scan type                        : Interlaced
Scan order                       : Bottom Field First
Compression mode                 : Lossy
Bits/(Pixel*Frame)               : 0.180
Stream size                      : 282 KiB (98%)
Color primaries                  : BT.470-2 System B, BT.470-2 System G
Transfer characteristics         : BT.470-2 System B, BT.470-2 System G
Matrix coefficients              : BT.470-2 System B, BT.470-2 System G
Menu
General
Complete name                    : I:\Torrent Uploads\Dense Vision Shrine (2009) - Time Lost in Oblivion [DVD]\VIDEO_TS\VTS_01_0.BUP
Format                           : DVD Video
Format profile                   : Program
File size                        : 48.0 KiB
Duration                         : 55mn 0s
Overall bit rate mode            : Variable
Overall bit rate                 : 119 bps
Video
ID                               : 224 (0xE0)
Format                           : MPEG Video
Format version                   : Version 2
Duration                         : 55mn 0s
Bit rate mode                    : Variable
Width                            : 720 pixels
Height                           : 576 pixels
Display aspect ratio             : 4:3
Frame rate                       : 25.000 fps
Standard                         : PAL
Compression mode                 : Lossy
Audio
ID                               : 0 (0x0)
Format                           : PCM
Duration                         : 55mn 0s
Channel(s)                       : 2 channels
Sampling rate                    : 48.0 KHz
Menu
Duration                         : 55mn 0s
00:00:00.000                     : Chapter 1
List (Audio)                     : 0
General
Complete name                    : I:\Torrent Uploads\Dense Vision Shrine (2009) - Time Lost in Oblivion [DVD]\VIDEO_TS\VTS_01_0.IFO
Format                           : DVD Video
Format profile                   : Program
File size                        : 48.0 KiB
Duration                         : 55mn 0s
Overall bit rate mode            : Variable
Overall bit rate                 : 119 bps
Video
ID                               : 224 (0xE0)
Format                           : MPEG Video
Format version                   : Version 2
Duration                         : 55mn 0s
Bit rate mode                    : Variable
Width                            : 720 pixels
Height                           : 576 pixels
Display aspect ratio             : 4:3
Frame rate                       : 25.000 fps
Standard                         : PAL
Compression mode                 : Lossy
Audio
ID                               : 0 (0x0)
Format                           : PCM
Duration                         : 55mn 0s
Channel(s)                       : 2 channels
Sampling rate                    : 48.0 KHz
Menu
Duration                         : 55mn 0s
00:00:00.000                     : Chapter 1
List (Audio)                     : 0
General
Complete name                    : I:\Torrent Uploads\Dense Vision Shrine (2009) - Time Lost in Oblivion [DVD]\VIDEO_TS\VTS_01_1.VOB
Format                           : MPEG-PS
File size                        : 1 000 MiB
Duration                         : 21mn 5s
Overall bit rate mode            : Variable
Overall bit rate                 : 6 630 Kbps
Video
ID                               : 224 (0xE0)
Format                           : MPEG Video
Format version                   : Version 2
Format profile                   : Main@Main
Format settings, BVOP            : Yes
Format settings, Matrix          : Default
Format settings, GOP             : M=3, N=12
Duration                         : 21mn 5s
Bit rate mode                    : Variable
Bit rate                         : 4 962 Kbps
Maximum bit rate                 : 9 500 Kbps
Width                            : 720 pixels
Height                           : 576 pixels
Display aspect ratio             : 4:3
Frame rate                       : 25.000 fps
Standard                         : PAL
Color space                      : YUV
Chroma subsampling               : 4:2:0
Bit depth                        : 8 bits
Scan type                        : Progressive
Compression mode                 : Lossy
Bits/(Pixel*Frame)               : 0.479
Stream size                      : 748 MiB (75%)
Audio
ID                               : 189 (0xBD)-160 (0xA0)
Format                           : PCM
Format settings, Endianness      : Big
Format settings, Sign            : Signed
Muxing mode                      : DVD-Video
Duration                         : 21mn 5s
Bit rate mode                    : Constant
Bit rate                         : 1 536 Kbps
Channel(s)                       : 2 channels
Channel positions                : Front: L R
Sampling rate                    : 48.0 KHz
Bit depth                        : 16 bits
Delay relative to video          : -80ms
Stream size                      : 232 MiB (23%)
Menu
General
Complete name                    : I:\Torrent Uploads\Dense Vision Shrine (2009) - Time Lost in Oblivion [DVD]\VIDEO_TS\VTS_01_2.VOB
Format                           : MPEG-PS
File size                        : 1 000 MiB
Duration                         : 20mn 40s
Overall bit rate mode            : Variable
Overall bit rate                 : 6 760 Kbps
Video
ID                               : 224 (0xE0)
Format                           : MPEG Video
Format version                   : Version 2
Format profile                   : Main@Main
Format settings, BVOP            : Yes
Format settings, Matrix          : Default
Format settings, GOP             : M=3, N=12
Duration                         : 20mn 40s
Bit rate mode                    : Variable
Bit rate                         : 5 089 Kbps
Maximum bit rate                 : 9 500 Kbps
Width                            : 720 pixels
Height                           : 576 pixels
Display aspect ratio             : 4:3
Frame rate                       : 25.000 fps
Standard                         : PAL
Color space                      : YUV
Chroma subsampling               : 4:2:0
Bit depth                        : 8 bits
Scan type                        : Progressive
Compression mode                 : Lossy
Bits/(Pixel*Frame)               : 0.491
Stream size                      : 753 MiB (75%)
Audio
ID                               : 189 (0xBD)-160 (0xA0)
Format                           : PCM
Format settings, Endianness      : Big
Format settings, Sign            : Signed
Muxing mode                      : DVD-Video
Duration                         : 20mn 40s
Bit rate mode                    : Constant
Bit rate                         : 1 536 Kbps
Channel(s)                       : 2 channels
Channel positions                : Front: L R
Sampling rate                    : 48.0 KHz
Bit depth                        : 16 bits
Delay relative to video          : -756ms
Stream size                      : 227 MiB (23%)
Menu
General
Complete name                    : I:\Torrent Uploads\Dense Vision Shrine (2009) - Time Lost in Oblivion [DVD]\VIDEO_TS\VTS_01_3.VOB
Format                           : MPEG-PS
File size                        : 577 MiB
Duration                         : 13mn 13s
Overall bit rate mode            : Variable
Overall bit rate                 : 6 099 Kbps
Video
ID                               : 224 (0xE0)
Format                           : MPEG Video
Format version                   : Version 2
Format profile                   : Main@Main
Format settings, BVOP            : Yes
Format settings, Matrix          : Default
Format settings, GOP             : M=3, N=12
Duration                         : 13mn 13s
Bit rate mode                    : Variable
Bit rate                         : 4 441 Kbps
Maximum bit rate                 : 9 500 Kbps
Width                            : 720 pixels
Height                           : 576 pixels
Display aspect ratio             : 4:3
Frame rate                       : 25.000 fps
Standard                         : PAL
Color space                      : YUV
Chroma subsampling               : 4:2:0
Bit depth                        : 8 bits
Scan type                        : Progressive
Compression mode                 : Lossy
Bits/(Pixel*Frame)               : 0.428
Stream size                      : 420 MiB (73%)
Audio
ID                               : 189 (0xBD)-160 (0xA0)
Format                           : PCM
Format settings, Endianness      : Big
Format settings, Sign            : Signed
Muxing mode                      : DVD-Video
Duration                         : 13mn 13s
Bit rate mode                    : Constant
Bit rate                         : 1 536 Kbps
Channel(s)                       : 2 channels
Channel positions                : Front: L R
Sampling rate                    : 48.0 KHz
Bit depth                        : 16 bits
Delay relative to video          : -571ms
Stream size                      : 145 MiB (25%)
Menu


Скриншоты меню



Скриншоты






(Dark Ambient / Experimental) Dense Vision Shrine - Time Lost in Oblivion - 2009, FLAC (tracks+.cue), lossless                                                                                                                                                               
                       
                       
                       
                       
                       
                                磁力下载:
                                                               
                                       
游客,本主题需向作者支付 7金币 才能浏览,金币充值, 免回复、免金币,直接查看内容请开通VIP购买主题

                                               
  • 2.52 GB
                                                                                           
  • 温馨提示

    记得善用社区搜索功能,那里可能会有你想要的资源;论坛站内搜索

    如果你有什么需要的资源可以去资源求档发帖,求助社区的网友,我们会在第一时间给你回复哦;资源求档

    对于本社区网盘链接失效密码错误各种报错请在反馈板块反馈报错发帖,您的支持,是我们发展的最大动力;投诉建议

    回复

    使用道具 举报

    您需要登录后才可以回帖 登录 | 立即注册 微信登录

    本版积分规则

    关注0

    粉丝10

    帖子61968

    发布主题
    阅读排行更多+
    关闭

    站长推荐上一条 /1 下一条

    活动提示

    双11活动通知:

    赞助永久VIP会员,赠送希捷/西部机械硬盘或者百度网盘SVIP一年(充值到你网盘帐号)+5000GB HIRES资源活动开启通知。

    地址:https://www.maomicd.com/huodong/

    我知道了
    收藏帖子 返回列表 这是一个自定义按钮
    音乐分享,音乐下载。
    微信公众号
    微信号:maomiyinyue
    意见反馈:admin@maomicd.com

    加入我们的官方QQ群和微信群

    Powered by Discuz! X3.4 Archiver|手机版|小黑屋|猫咪音乐网 ( 苏ICP备20015413号 )|( 苏公网安备 32030502000272号) 繁體

    JS of wanmeiff.com and vcpic.com Please keep this copyright information, respect of, thank you!JS of wanmeiff.com and vcpic.com Please keep this copyright information, respect of, thank you!

    GMT+8, 2020-12-2 16:40