请选择 进入手机版 | 继续访问电脑版

自购原抓音乐圈:只有自购、合购、原抓级高解析(hires、sacd、dsd)正版音乐资源分享!【点我打开
广告

[电子音乐] Scooter - 20 Years Of Hardcore - The Complete Video Collection [2013, Techno, Ha

[复制链接]
全球采集 发表于 2020-10-30 21:22:05 | 显示全部楼层 |阅读模式 打印 上一主题 下一主题
Scooter - 20 Years Of Hardcore - The Complete Video Collection
Страна: Germany
Жанр: Techno, Hardcore, Jumpstyle
Продолжительность: 03:07:00
Год выпуска: 2013 г.
Лейбл: Sheffield Tunes
Источник (релизер): Twasted B
Разбивка на главы по трекам: есть
Качество : DVD5
Формат: DVD video
Видео кодек: MPEG2
Аудио кодек: AC3
Видео: MPEG2 Video 720x576 (4:3) 25fps 9800kbps
Аудио: Dolby AC3 48000Hz stereo 224kbps
Треклист
DVD 1:
01. Nessaja
02. How Much Is The Fish?
03. Army Of Hardcore
04. Move Your Ass!
05. Maria (I Like It Loud)
06. Weekend!
07. The Question Is What Is The Question?
08. Friends
09. The Only One
10. Hyper Hyper
11. J’adore Hardcore
12. 4 AM
13. I’m Lonely
14. One (Always Hardcore)
15. The Logical Song
16. Ti Sento
17. Faster Harder Scooter
18. It's A Biz (Ain't Nobody)
19. Posse (I Need You On The Floor)
20. Jigga Jigga!
21. Jump That Rock (Whatever You Want)
22. Endless Summer
23. The Night
24. Lass Uns Tanzen
25. Shake That!
DVD 2:
01. Fire
02. Call Me Mañana
03. Fuck The Millennium
04. Jumping All Over The World
05. Aiii Shot The DJ
06. I'm Raving
07. David Doesn’t Eat
08. Behind The Cow
09. Friends Turbo
10. Break It Up
11. Suavemente
12. Let Me Be Your Valentine
13. She’s The Sun
14. The Age Of Love
15. Back In The U.K.
16. No Fate
17. Apache Rocks The Bottom!
18. The Sound Above My Hair
19. C’est Bleu
20. I’m Your Pusher
21. We Are The Greatest
22. I Was Made For Lovin' You
23. Hello! (Good To Be Back)
24. Rebel Yell
25. Stuck On Replay
26. And No Matches

DVDinfo

General
Complete name                  : C:\Scooter - 20 Years Of Hardcore - The Complete Video Collection\DVD1\VIDEO_TS\VTS_02_1.VOB
Format                         : MPEG-PS
File size                      : 1 024 MiB
Duration                       : 3mn 9s
Overall bit rate mode          : Variable
Overall bit rate               : 45.4 Mbps
Video
ID                             : 224 (0xE0)
Format                         : MPEG Video
Format version                 : Version 2
Format profile                 : Main@Main
Format settings, BVOP          : Yes
Format settings, Matrix        : Custom
Format settings, GOP           : M=3, N=12
Duration                       : 3mn 9s
Bit rate mode                  : Variable
Bit rate                       : 44.3 Mbps
Maximum bit rate               : 9 800 Kbps
Width                          : 720 pixels
Height                         : 576 pixels
Display aspect ratio           : 4:3
Frame rate                     : 25.000 fps
Standard                       : PAL
Color space                    : YUV
Chroma subsampling             : 4:2:0
Bit depth                      : 8 bits
Scan type                      : Interlaced
Scan order                     : Top Field First
Compression mode               : Lossy
Bits/(Pixel*Frame)             : 4.271
Stream size                    : 998 MiB (98%)
Audio
ID                             : 189 (0xBD)-128 (0x80)
Format                         : AC-3
Format/Info                    : Audio Coding 3
Mode extension                 : CM (complete main)
Format settings, Endianness    : Big
Muxing mode                    : DVD-Video
Duration                       : 3mn 8s
Bit rate mode                  : Constant
Bit rate                       : 224 Kbps
Channel(s)                     : 2 channels
Channel positions              : Front: L R
Sampling rate                  : 48.0 KHz
Bit depth                      : 16 bits
Compression mode               : Lossy
Stream size                    : 5.04 MiB (0%)


Скриншоты меню


Скриншоты






                                                                                                                                                               
                       
                       
                       
                       
                       
                                磁力下载:
                                                               
                                       
游客,本主题需向作者支付 7金币 才能浏览,金币充值, 免回复、免金币,直接查看内容请开通VIP购买主题

                                               
  • 6.99 GB
                                                                                           
  • 温馨提示

    记得善用社区搜索功能,那里可能会有你想要的资源;论坛站内搜索

    如果你有什么需要的资源可以去资源求档发帖,求助社区的网友,我们会在第一时间给你回复哦;资源求档

    对于本社区网盘链接失效密码错误各种报错请在反馈板块反馈报错发帖,您的支持,是我们发展的最大动力;投诉建议

    回复

    使用道具 举报

    您需要登录后才可以回帖 登录 | 立即注册 微信登录

    本版积分规则

    关注0

    粉丝10

    帖子61968

    发布主题
    阅读排行更多+
    关闭

    站长推荐上一条 /1 下一条

    活动提示

    双11活动通知:

    赞助永久VIP会员,赠送希捷/西部机械硬盘或者百度网盘SVIP一年(充值到你网盘帐号)+5000GB HIRES资源活动开启通知。

    地址:https://www.maomicd.com/huodong/

    我知道了
    收藏帖子 返回列表 这是一个自定义按钮
    音乐分享,音乐下载。
    微信公众号
    微信号:maomiyinyue
    意见反馈:admin@maomicd.com

    加入我们的官方QQ群和微信群

    Powered by Discuz! X3.4 Archiver|手机版|小黑屋|猫咪音乐网 ( 苏ICP备20015413号 )|( 苏公网安备 32030502000272号) 繁體

    JS of wanmeiff.com and vcpic.com Please keep this copyright information, respect of, thank you!JS of wanmeiff.com and vcpic.com Please keep this copyright information, respect of, thank you!

    GMT+8, 2020-11-27 04:27